Интеллигентный торрент-трекер
canvas not supported
Нас вместе: 4 117 272

Gregorian - Live! Masters of Chant Final Chapter Tour (2016) BDRip [1080p]


 
 
RSS
Начать новую тему   Ответить на тему    Торрент-трекер NNM-Club -> Театр и Музыкальное видео -> Концерты (HD)
Автор Сообщение
SergAS70 ®
Стаж: 6 лет 9 мес.
Сообщений: 479
Ratio: 24,504
Раздал: 24,82 TB
Поблагодарили: 23529
100%
Gregorian - Live!
Masters of Chant Final Chapter Tour (2016) BDRip [1080p]

Страна: Germany
Лейбл: Ear music
Жанр: New Age, Enigmatic, Choral
Год выпуска: 2016

Описание:
Gregorian представляет последнюю главу своего прощального тура "Masters Of Chant" в заключительном концерте "Final Chapter".
То, что началось для продюсера Фрэнка Петерсона и группы в 1999 году, стремительно превратилось в монументальное победное шествие: более 10 миллионов проданных альбомов, а также множество золотых и платиновых наград, делают Gregorian одним из самых успешных немецких групп по всему миру.

Треклист:
1. Masters of chant
2. Still haven't found what i'm looking for / only you
3. Stay
4. Join me
5. Lady in black
6. Meadows of heaven
7. Now we are free
8. Strong
9. Shout
10. Cry softly
11. Hurt
12. The raven
13. Kiss from a rose
14. Crying in the rain
15. Caruso
16. One
17. World without end
18. Born to feel alive
19. Hells bells
20. In my life / crazy, crazy nights / good night companions
21. Time to say goodbye
22. Gloria: gregorian version
23. Moment of peace
24. Hymn
25. Just for you
26. Sky & sand
Продолжительность: 02:18:59
Качество видео: BDRip
Разрешение видео/развертка: 1080p
Разбивка на главы по трекам: есть

Контейнер: MKV
Битрейт видео: 7200 Kbps, (16:9), 1920x1080p , 29.970 fps
Видеокодек: AVC/H.264
Аудио: PCM, 48.0 KHz, 2 ch, 1536 Kbps

Семпл
Код: выделить все

General
Unique ID                                : 200685646327267451924025064439503884352 (0x96FAA64A06855C0AB9426503B8EF9040)
Complete name                            : O:\Gregorian Live! Masters of Chant Final Chapter Tour.2016.BDRip1080p.mkv
Format                                   : Matroska
Format version                           : Version 4 / Version 2
File size                                : 8.48 GiB
Duration                                 : 2 h 18 min
Overall bit rate                         : 8 738 kb/s
Encoded date                             : UTC 2016-10-20 20:52:34
Writing application                      : mkvmerge v8.6.0 ('A Place In Your World') 64bit
Writing library                          : libebml v1.3.3 + libmatroska v1.4.4
Video
ID                                       : 1
Format                                   : AVC
Format/Info                              : Advanced Video Codec
Format profile                           : High@L4.1
Format settings, CABAC                   : Yes
Format settings, ReFrames                : 4 frames
Codec ID                                 : V_MPEG4/ISO/AVC
Duration                                 : 2 h 18 min
Bit rate                                 : 7 200 kb/s
Width                                    : 1 920 pixels
Height                                   : 1 080 pixels
Display aspect ratio                     : 16:9
Frame rate mode                          : Constant
Frame rate                               : 29.970 (30000/1001) FPS
Color space                              : YUV
Chroma subsampling                       : 4:2:0
Bit depth                                : 8 bits
Scan type                                : Progressive
Bits/(Pixel*Frame)                       : 0.116
Stream size                              : 6.99 GiB (82%)
Writing library                          : x264 core 146 r2538 121396c
Encoding settings                        : cabac=1 / ref=4 / deblock=1:-1:-1 / analyse=0x3:0x133 / me=umh / subme=10 / psy=1 / psy_rd=1.00:0.13 / mixed_ref=1 / me_range=30 / chroma_me=1 / trellis=2 / 8x8dct=1 / cqm=0 / deadzone=21,11 / fast_pskip=1 / chroma_qp_offset=-3 / threads=6 / lookahead_threads=1 / sliced_threads=0 / nr=0 / decimate=1 / interlaced=0 / bluray_compat=0 / constrained_intra=0 / bframes=8 / b_pyramid=2 / b_adapt=2 / b_bias=0 / direct=3 / weightb=1 / open_gop=0 / weightp=2 / keyint=300 / keyint_min=29 / scenecut=40 / intra_refresh=0 / rc_lookahead=100 / rc=2pass / mbtree=1 / bitrate=7200 / ratetol=1.0 / qcomp=0.60 / qpmin=0 / qpmax=69 / qpstep=4 / cplxblur=20.0 / qblur=0.5 / vbv_maxrate=50000 / vbv_bufsize=62500 / nal_hrd=none / filler=0 / ip_ratio=1.40 / aq=1:1.00
Default                                  : Yes
Forced                                   : No
Audio
ID                                       : 2
Format                                   : PCM
Codec ID                                 : A_PCM/INT/LIT
Duration                                 : 2 h 18 min
Bit rate mode                            : Constant
Bit rate                                 : 1 536 kb/s
Channel(s)                               : 2 channels
Sampling rate                            : 48.0 kHz
Frame rate                               : 32.000 FPS (1500 spf)
Bit depth                                : 16 bits
Stream size                              : 1.49 GiB (18%)
Default                                  : Yes
Forced                                   : No
Menu
00:00:00.000                             : en:01. Masters of chant
00:06:27.220                             : en:02. Still haven't found what i'm looking for / only you
00:11:19.445                             : en:03. Stay
00:15:18.484                             : en:04. Join me
00:19:39.211                             : en:05.  Lady in black
00:24:10.883                             : en:06. Meadows of heaven
00:29:30.335                             : en:07. Now we are free
00:33:45.323                             : en:08. Strong
00:37:12.831                             : en:09. Shout
00:43:31.876                             : en:10.  Cry softly
00:48:10.054                             : en:11. Hurt
00:54:00.404                             : en:12. The raven
00:58:25.635                             : en:13. Kiss from a rose
01:03:36.212                             : en:14. Crying in the rain
01:08:28.771                             : en:15. Caruso
01:15:06.936                             : en:16. One
01:20:06.535                             : en:17. World without end
01:23:44.753                             : en:18. Born to feel alive
01:33:05.880                             : en:19. Hells bells
01:41:27.548                             : en:20. In my life / crazy, crazy nights / good night companions
01:46:25.813                             : en:21. Time to say goodbye
01:51:16.937                             : en:22. Gloria: gregorian version
01:56:40.126                             : en:23. Moment of peace
02:01:29.649                             : en:24. Hymn
02:07:14.927                             : en:25. Just for you
02:11:08.394                             : en:26. Sky & sand
Скриншоты:
Время раздачи: 24/7
[NNMClub.to]_Gregorian Live! Masters of Chant Final Chapter Tour.2016.BDRip1080p.mkv.torrent
 Торрент:   Зарегистрирован
 
Примагнититься

Зарегистрируйтесь и скачайте торрент!
42,6 KB
 Зарегистрирован:   09 Ноя 2016 11:46:01
 Размер:   8,48 GB  (
 Рейтинг:   4,9 (Голосов: 48)
 Поблагодарили:   180
 Проверка:   Оформление проверено модератором 11 Ноя 2016 21:41:15
Как cкачать  ·  Как раздать  ·  Правильно оформить  ·  Поднять ратио!  
Forum2010
Стаж: 2 года 2 мес.
Сообщений: 8
Ratio: 1,755
14.57%
belarus.gif
У меня у одного нету звука? ..

Пардон, звук есть. Дело в проигрывателе. Спасибо.
Показать сообщения:   
Начать новую тему   Ответить на тему    Торрент-трекер NNM-Club -> Театр и Музыкальное видео -> Концерты (HD) Часовой пояс: GMT + 3
Страница 1 из 1