Интеллигентный торрент-трекер
canvas not supported
Нас вместе: 4 107 798

Механик: Воскрешение / Mechanic: Resurrection (2016) BDRip [H.264/1080p] [EN / EN Sub]


 
 
RSS
Начать новую тему   Ответить на тему    Торрент-трекер NNM-Club -> Зарубежное кино -> Фильмы в оригинале (HD)
Автор Сообщение
smaster67 ®
Модератор Видео
Покровитель талантов Uploader 300+
Стаж: 7 лет 5 мес.
Сообщений: 6265
Ratio: 180,432
Поблагодарили: 174068
100%
Механик: Воскрешение / Mechanic: Resurrection (2016) BDRip [H.264/1080p] [EN / EN Sub]

Производство: Франция, США
Жанр: боевик, триллер, криминал

Режиссер: Деннис Ганзель
Актеры: Джейсон Стэйтем, Джессика Альба, Томми Ли Джонс, Мишель Йео, Сэм Хэзелдайн, Джон Ченатьемпо, Тоби Эддингтон, Феми Элуфоводжо, Антео Квинтавалле, Ейяин Рхатха Пхонгам, Бонни З. Хатчинсон, Стюарт Торп

Описание:
Артура Бишопа, давно оставившего свое криминальное ремесло, вынуждают снова вступить в игру. Чтобы похитители вернули его возлюбленную, он должен сделать то, что у него получается лучше всего: от него требуется совершить три убийства, идеально обставленных как несчастные случаи.



Продолжительность: 01:38:38
Качество видео: BDRip 1080p
Перевод: Отсутствует
Язык озвучки: Английский
Язык субтитров: английский
Вид субтитров: Вшитые

Видео: AVC, 1920x808 (2.40:1), 10466 kbps, 23,976 fps, 0,281 bpp
Аудио: английский / AC3 / 5.1 / 48 kHz / 640 kbps /
Код: выделить все
General
Unique ID                             mechanic.resurrection.2016.1080p.mkv
Format                                   : Matroska
Format version                           : Version 4 / Version 2
File size                                : 7.65 GiB
Duration                                 : 1 h 38 min
Overall bit rate                         : 11.1 Mb/s
Encoded date                             : UTC 2016-11-12 00:00:22
Writing application                      : mkvmerge v8.5.2 ('DiAMOND') 64bit
Writing library                          : libebml v1.3.3 + libmatroska v1.4.4

Video
ID                                       : 1
Format                                   : AVC
Format/Info                              : Advanced Video Codec
Format profile                           : High@L4.1
Format settings, CABAC                   : Yes
Format settings, ReFrames                : 5 frames
Codec ID                                 : V_MPEG4/ISO/AVC
Duration                                 : 1 h 38 min
Bit rate                                 : 10.5 Mb/s
Width                                    : 1 920 pixels
Height                                   : 808 pixels
Display aspect ratio                     : 2.40:1
Frame rate mode                          : Constant
Frame rate                               : 23.976 (24000/1001) FPS
Color space                              : YUV
Chroma subsampling                       : 4:2:0
Bit depth                                : 8 bits
Scan type                                : Progressive
Bits/(Pixel*Frame)                       : 0.281
Stream size                              : 7.06 GiB (92%)
Writing library                          : x264 core 148 r2721 72d53ab
Encoding settings                        : cabac=1 / ref=5 / deblock=1:0:0 / analyse=0x3:0x113 / me=umh / subme=8 / psy=1 / psy_rd=1.00:0.00 / mixed_ref=1 / me_range=16 / chroma_me=1 / trellis=2 / 8x8dct=1 / cqm=0 / deadzone=21,11 / fast_pskip=0 / chroma_qp_offset=-2 / threads=24 / lookahead_threads=4 / sliced_threads=0 / nr=0 / decimate=1 / interlaced=0 / bluray_compat=0 / constrained_intra=0 / bframes=3 / b_pyramid=2 / b_adapt=1 / b_bias=0 / direct=3 / weightb=1 / open_gop=0 / weightp=2 / keyint=250 / keyint_min=23 / scenecut=40 / intra_refresh=0 / rc_lookahead=50 / rc=2pass / mbtree=1 / bitrate=10466 / ratetol=1.0 / qcomp=0.60 / qpmin=0 / qpmax=69 / qpstep=4 / cplxblur=20.0 / qblur=0.5 / ip_ratio=1.40 / aq=1:1.00
Language                                 : English
Default                                  : Yes
Forced                                   : No

Audio
ID                                       : 2
Format                                   : AC-3
Format/Info                              : Audio Coding 3
Mode extension                           : CM (complete main)
Format settings, Endianness              : Big
Codec ID                                 : A_AC3
Duration                                 : 1 h 38 min
Bit rate mode                            : Constant
Bit rate                                 : 640 kb/s
Channel(s)                               : 6 channels
Channel positions                        : Front: L C R, Side: L R, LFE
Sampling rate                            : 48.0 kHz
Frame rate                               : 31.250 FPS (1536 spf)
Compression mode                         : Lossy
Stream size                              : 452 MiB (6%)
Language                                 : English
Default                                  : Yes
Forced                                   : No

Text #1
ID                                       : 3
Format                                   : UTF-8
Codec ID                                 : S_TEXT/UTF8
Codec ID/Info                            : UTF-8 Plain Text
Title                                    : English regular
Language                                 : English
Default                                  : No
Forced                                   : No

Text #2
ID                                       : 4
Format                                   : UTF-8
Codec ID                                 : S_TEXT/UTF8
Codec ID/Info                            : UTF-8 Plain Text
Title                                    : English sdh
Language                                 : English
Default                                  : No
Forced                                   : No

Menu
00:00:00.000                             : en:00:00:00.000
00:06:34.936                             : en:00:06:34.936
00:11:51.336                             : en:00:11:51.336
00:18:31.277                             : en:00:18:31.277
00:26:04.897                             : en:00:26:04.897
00:31:57.540                             : en:00:31:57.540
00:38:31.267                             : en:00:38:31.267
00:43:35.696                             : en:00:43:35.696
00:49:23.210                             : en:00:49:23.210
00:54:20.382                             : en:00:54:20.382
01:00:09.856                             : en:01:00:09.856
01:05:50.446                             : en:01:05:50.446
01:10:25.429                             : en:01:10:25.429
01:14:52.363                             : en:01:14:52.363
01:21:04.860                             : en:01:21:04.860
01:31:38.785                             : en:01:31:38.785

Скриншоты:



Все одноименные релизы в Клубе

Время раздачи: с 13:00 до 23:00
[NNMClub.to]_mechanic.resurrection.2016.1080p.mkv.torrent
 Торрент: Золотая раздача  Зарегистрирован
 
Примагнититься
Free Leech
Зарегистрируйтесь и скачайте торрент!
38,4 KB
 Зарегистрирован:   12 Ноя 2016 09:11:28
 Размер:   7,65 GB  (
 Рейтинг:   4,6 (Голосов: 11)
 Поблагодарили:   42
 Проверка:   Оформление проверено модератором 12 Ноя 2016 09:12:00
Как cкачать  ·  Как раздать  ·  Правильно оформить  ·  Поднять ратио!  
MsRasta
Стаж: 3 года
Сообщений: 4
Ratio: 0,78
0%
Отличный фильм!
Psyd0zer
Стаж: 3 года 10 мес.
Сообщений: 51
Ratio: 22,298
0.11%
ukraine.gif
Снято все конечно круто, НО сюжет просто отвратный
Silen​tWitn​ess​
Стаж: 5 лет
Сообщений: 18
Ratio: 297,02
26.32%
Откуда: Москва
ussr.gif
За оригинал -- моё почтение.
Показать сообщения:   
Начать новую тему   Ответить на тему    Торрент-трекер NNM-Club -> Зарубежное кино -> Фильмы в оригинале (HD) Часовой пояс: GMT + 3
Страница 1 из 1