Интеллигентный торрент-трекер
canvas not supported
Нас вместе: 4 105 894

Toytronic - Label-Pack 22 Releases (1997-2009) [FLAC|Lossless|tracks+.cue, tracks] <IDM, Downtempo, Glitch, Leftfield, Electro>


 
 
RSS
Начать новую тему   Ответить на тему    Торрент-трекер NNM-Club -> Electronic -> IDM (Lossless)
Автор Сообщение
vilator ®
Модератор Музыки
RG Музыки
 
Стаж: 7 лет 7 мес.
Сообщений: 5413
Ratio: 117,583
Поблагодарили: 104039
100%
Откуда: Minsk
pirates.png


The Toytronic label was founded in 1998 by Martin Haidinger (Gimmik) and Tony Douglas and at the time of the first release Chris Cunningham (now the current label owner) was working at Sister Ray records in Soho London. Chris was introduced to Martin and Tony by Jem Dodson, their connection at Sister Ray and he played a major part in the growth of Toytronic, acting as a mediator between the 3 guys and helping to start the music venture that makes the label what it is today. The name Toytronic was originally thought up by Martin and comes from his love for toy gadgets and electronics’ Martin is also responsible for some of the label’s finest releases to date. Tony initially set the foundation for the label as front man, personally hand delivering every copy of the first 4 releases to London’s local independent record stores and organizing distribution with Metropolis Record Distribution.
Жанр: IDM, Downtempo, Glitch, Leftfield, Electro, Techno, Experimental, Abstract • Страна: UK • Год: 1997-2009 • Тип релиза: CD, WEB, Vinyl
Аудио кодек: FLAC (*.flac) • Тип рипа: tracks+.cue, tracks • Битрейт: lossless • Источник: What • Продолжительность: 15:39:42

Год выпуска: 2005
Продолжительность: 00:33:01
Треклист:

01. Little Computer People (03:46)
02. Sister Moon (02:34)
03. Soft Drink (03:17)
04. Floppy Disk (03:32)
05. Thing On A Spring (03:03)
06. Floppy Disk (Load Error Mix) (03:05)
07. Berts Toybox Tales (01:47)
08. Monitor (V 0.9 - Easy Sunday Mix) (03:52)
09. Hallo Testbild (03:47)
10. 1 Min. Journey (01:00)
11. Ernie & Bert (02:32)
12. Toytronic Theme (00:46)

Exact Audio Copy V0.99 prebeta 4 from 23. January 2008

EAC extraction logfile from 8. May 2009, 23:35

Gimmik / Load Error

Used drive : Optiarc DVD RW AD-5200A Adapter: 4 ID: 0

Read mode : Secure
Utilize accurate stream : Yes
Defeat audio cache : Yes
Make use of C2 pointers : No

Read offset correction : 48
Overread into Lead-In and Lead-Out : No
Fill up missing offset samples with silence : Yes
Delete leading and trailing silent blocks : No
Null samples used in CRC calculations : Yes
Used interface : Native Win32 interface for Win NT & 2000
Gap handling : Appended to previous track

Used output format : User Defined Encoder
Selected bitrate : 128 kBit/s
Quality : High
Add ID3 tag : No
Command line compressor : D:\Exact Audio Copy\flac.exe
Additional command line options : -V -8 -T "artist=%a" -T "title=%t" -T "album=%g" -T "date=%y" -T "tracknumber=%n" -T "genre=%m" %s

TOC of the extracted CD

Track | Start | Length | Start sector | End sector
---------------------------------------------------------
1 | 0:00.00 | 3:48.01 | 0 | 17100
2 | 3:48.01 | 2:35.67 | 17101 | 28792
3 | 6:23.68 | 3:19.13 | 28793 | 43730
4 | 9:43.06 | 3:33.71 | 43731 | 59776
5 | 13:17.02 | 3:05.10 | 59777 | 73661
6 | 16:22.12 | 3:06.51 | 73662 | 87662
7 | 19:28.63 | 1:49.33 | 87663 | 95870
8 | 21:18.21 | 3:54.01 | 95871 | 113421
9 | 25:12.22 | 3:48.49 | 113422 | 130570
10 | 29:00.71 | 1:02.34 | 130571 | 135254
11 | 30:03.30 | 2:34.18 | 135255 | 146822
12 | 32:37.48 | 0:46.23 | 146823 | 150295

Track 1

Filename D:\EACrips\01 Little Computer People.wav

Pre-gap length 0:00:02.00

Peak level 99.4 %
Track quality 100.0 %
Test CRC 4861EC2F
Copy CRC 4861EC2F
Accurately ripped (confidence 4) [103C99D7]
Copy OK

Track 2

Filename D:\EACrips\02 Sister Moon.wav

Pre-gap length 0:00:02.00

Peak level 99.4 %
Track quality 100.0 %
Test CRC 210A6DDE
Copy CRC 210A6DDE
Accurately ripped (confidence 4) [EE574942]
Copy OK

Track 3

Filename D:\EACrips\03 Soft Drink.wav

Pre-gap length 0:00:02.00

Peak level 99.4 %
Track quality 100.0 %
Test CRC E2DFBDBC
Copy CRC E2DFBDBC
Accurately ripped (confidence 4) [0E954386]
Copy OK

Track 4

Filename D:\EACrips\04 Floppy Disk.wav

Pre-gap length 0:00:02.00

Peak level 99.4 %
Track quality 100.0 %
Test CRC 3143F14A
Copy CRC 3143F14A
Accurately ripped (confidence 4) [38FD7CD4]
Copy OK

Track 5

Filename D:\EACrips\05 Thing on a Spring.wav

Pre-gap length 0:00:02.00

Peak level 99.4 %
Track quality 100.0 %
Test CRC 6A4D733A
Copy CRC 6A4D733A
Accurately ripped (confidence 4) [DFF5125D]
Copy OK

Track 6

Filename D:\EACrips\06 Floppy Disk (L.E. Mix).wav

Pre-gap length 0:00:02.00

Peak level 99.4 %
Track quality 100.0 %
Test CRC CBE044E9
Copy CRC CBE044E9
Accurately ripped (confidence 4) [5EADFF19]
Copy OK

Track 7

Filename D:\EACrips\07 Berts Toybox Tales.wav

Pre-gap length 0:00:02.00

Peak level 99.0 %
Track quality 100.0 %
Test CRC A5D532D6
Copy CRC A5D532D6
Accurately ripped (confidence 4) [CEB1159A]
Copy OK

Track 8

Filename D:\EACrips\08 Monitor (V 0.9 - E.S. Mix).wav

Pre-gap length 0:00:02.00

Peak level 99.4 %
Track quality 100.0 %
Test CRC 4AD099B1
Copy CRC 4AD099B1
Accurately ripped (confidence 4) [4294E0FA]
Copy OK

Track 9

Filename D:\EACrips\09 Hallo Testbild.wav

Pre-gap length 0:00:02.00

Peak level 99.4 %
Track quality 100.0 %
Test CRC 1E6021FC
Copy CRC 1E6021FC
Accurately ripped (confidence 4) [91CBB5F6]
Copy OK

Track 10

Filename D:\EACrips\10 1 Min. Journey.wav

Pre-gap length 0:00:02.00

Peak level 50.6 %
Track quality 99.8 %
Test CRC A0A80DC3
Copy CRC A0A80DC3
Accurately ripped (confidence 4) [790A38D9]
Copy OK

Track 11

Filename D:\EACrips\11 Ernie & Bert.wav

Pre-gap length 0:00:02.00

Peak level 79.4 %
Track quality 100.0 %
Test CRC 0672BA04
Copy CRC 0672BA04
Accurately ripped (confidence 4) [45FB475A]
Copy OK

Track 12

Filename D:\EACrips\12 Toytronic Theme.wav

Pre-gap length 0:00:02.00

Peak level 99.9 %
Track quality 100.0 %
Test CRC 656EA70D
Copy CRC 656EA70D
Accurately ripped (confidence 4) [C3534503]
Copy OK

All tracks accurately ripped

No errors occurred

End of status report

REM GENRE Electronic
REM DATE 2005
REM DISCID AA07D30C
REM COMMENT "ExactAudioCopy v0.99pb4"
FILE "01 Little Computer People.wav" WAVE
TRACK 01 AUDIO
FLAGS DCP
INDEX 01 00:00:00
TRACK 02 AUDIO
FLAGS DCP
INDEX 00 03:46:01
FILE "02 Sister Moon.wav" WAVE
INDEX 01 00:00:00
TRACK 03 AUDIO
FLAGS DCP
INDEX 00 02:33:67
FILE "03 Soft Drink.wav" WAVE
INDEX 01 00:00:00
TRACK 04 AUDIO
FLAGS DCP
INDEX 00 03:17:13
FILE "04 Floppy Disk.wav" WAVE
INDEX 01 00:00:00
TRACK 05 AUDIO
FLAGS DCP
INDEX 00 03:31:71
FILE "05 Thing on a Spring.wav" WAVE
INDEX 01 00:00:00
TRACK 06 AUDIO
FLAGS DCP
INDEX 00 03:03:10
FILE "06 Floppy Disk (L.E. Mix).wav" WAVE
INDEX 01 00:00:00
TRACK 07 AUDIO
FLAGS DCP
INDEX 00 03:04:51
FILE "07 Berts Toybox Tales.wav" WAVE
INDEX 01 00:00:00
TRACK 08 AUDIO
FLAGS DCP
INDEX 00 01:47:33
FILE "08 Monitor (V 0.9 - E.S. Mix).wav" WAVE
INDEX 01 00:00:00
TRACK 09 AUDIO
FLAGS DCP
INDEX 00 03:52:01
FILE "09 Hallo Testbild.wav" WAVE
INDEX 01 00:00:00
TRACK 10 AUDIO
FLAGS DCP
INDEX 00 03:46:49
FILE "10 1 Min. Journey.wav" WAVE
INDEX 01 00:00:00
TRACK 11 AUDIO
FLAGS DCP
INDEX 00 01:00:34
FILE "11 Ernie & Bert.wav" WAVE
INDEX 01 00:00:00
TRACK 12 AUDIO
FLAGS DCP
INDEX 00 02:32:18
FILE "12 Toytronic Theme.wav" WAVE
INDEX 01 00:00:00

Год выпуска: 1997
Продолжительность: 00:19:17
Треклист:

01. Little Computer People (03:46)
02. Sister Moon (02:29)
03. Soft Drink (03:20)
04. Floppy Disk (03:31)
05. Thing On A Spring (03:03)
06. Floppy Disk (?!load-error Mix) (03:08)

-----------------------

DON'T MODIFY THIS FILE

-----------------------

PERFORMER: auCDtect Task Manager, ver. 1.5.1RC6 build 1.5.1.7
Copyright (c) 2008-2010 y-soft. All rights reserved
http://y-soft.org

ANALYZER: auCDtect: CD records authenticity detector, version 0.8.2
Copyright (c) 2004 Oleg Berngardt. All rights reserved.
Copyright (c) 2004 Alexander Djourik. All rights reserved.

FILE: 02. Sister Moon.flac
Size: 15625245 Hash: AE72CEFCC889E201D344789482C6F9B7 Accuracy: -m0
Conclusion: CDDA 100%
Signature: C45FF8054681E6E4A3D750235911FD3468EDF560
FILE: 01. Little Computer People.flac
Size: 28373403 Hash: F7D37B3948C0CA5A4D24DA5598880CD5 Accuracy: -m0
Conclusion: CDDA 100%
Signature: 5D62F06527703E5435D276078B432DDA7C952CB8
FILE: 06. Floppy Disk (!!load-error Mix).flac
Size: 21160110 Hash: 08975EA49C38088AE2ECA3B0233EFB11 Accuracy: -m0
Conclusion: CDDA 100%
Signature: 5F4173A81380BE961E2B045B9011A68EA5B6B10D
FILE: 05. Thing On A Spring.flac
Size: 21102223 Hash: 049E541784CF4AB02759FDBD86FB0FB3 Accuracy: -m0
Conclusion: CDDA 100%
Signature: 29742515FE85A59F1F5D1EBDEC298CFFD828EAD6
FILE: 04. Floppy Disk.flac
Size: 26015966 Hash: FDAF31893B5005D9D3BDA0BF9613EE0B Accuracy: -m0
Conclusion: CDDA 100%
Signature: 4B9CCC48A04863BFFF6CA8F1AFBC11EA141F4573
FILE: 03. Soft Drink.flac
Size: 19872388 Hash: DB78B98698D007E0C146F91BC37AA927 Accuracy: -m0
Conclusion: CDDA 100%
Signature: 71A46FCD9FFDFDFD716FEE2C2B9E67D3FBC40576

Turntable: Technics SL-1200 MK2 with Stanton D5100AL cartridge & Stanton 500 MkII headshell
Preamp: Numark DM3002X
Soundcard: M-Audio Fasttrack Pro
Vinyl condition: GOOD
Год выпуска: 2005
Продолжительность: 00:12:13
Треклист:

01. Hi-Num 4.1 (05:16)
02. If Q Was H (03:35)
03. South Quay (03:22)

-----------------------

DON'T MODIFY THIS FILE

-----------------------

PERFORMER: auCDtect Task Manager, ver. 1.5.1RC6 build 1.5.1.7
Copyright (c) 2008-2010 y-soft. All rights reserved
http://y-soft.org

ANALYZER: auCDtect: CD records authenticity detector, version 0.8.2
Copyright (c) 2004 Oleg Berngardt. All rights reserved.
Copyright (c) 2004 Alexander Djourik. All rights reserved.

FILE: 03. South Quay.flac
Size: 20505154 Hash: CC744DC832F281FB4F78FBFE2C05D671 Accuracy: -m0
Conclusion: CDDA 99%
Signature: FDCA0D8C82846AEEF222A5A2D2248924C859FF07
FILE: 02. If Q Was H.flac
Size: 22506224 Hash: 7C59202261DEF5071B16331AB177C7E7 Accuracy: -m0
Conclusion: CDDA 42%
Signature: 4266E0532CB974F9ABFDBAA371EB494D1E916B81
FILE: 01. Hi-Num 4.1.flac
Size: 35412570 Hash: E37CA1CD9FA33616C2024A3D921A98E5 Accuracy: -m0
Conclusion: CDDA 62%
Signature: 2A15E92D5660ACE331D5FDE9536C5B949A56E0F7

Год выпуска: 1999
Продолжительность: 00:38:54
Треклист:

01. Mr. Projectile - Bleepy Pooh (05:35)
02. E.O.G. - Bulb (06:27)
03. Num Num - Bias (03:39)
04. Braille mdxx - Conviction (04:00)
05. Accelera Deck - U Can't Scam The Twin (06:11)
06. Multiplex - Caps Lock (04:35)
07. Abfahrt Hinwil - Sonic Surface (04:46)
08. Gimmik - Resonance (03:41)

-----------------------

DON'T MODIFY THIS FILE

-----------------------

PERFORMER: auCDtect Task Manager, ver. 1.5.1RC6 build 1.5.1.7
Copyright (c) 2008-2010 y-soft. All rights reserved
http://y-soft.org

ANALYZER: auCDtect: CD records authenticity detector, version 0.8.2
Copyright (c) 2004 Oleg Berngardt. All rights reserved.
Copyright (c) 2004 Alexander Djourik. All rights reserved.

FILE: B4 - Gimmik - Resonance.flac
Size: 17872357 Hash: F78E3245D9D3E48AE642E2297C49E728 Accuracy: -m0
Conclusion: CDDA 100%
Signature: A087DACFF3EE5C1773A18439A171F270847E66D7
FILE: B3 - Abfahrt Hinwil - Sonic Surface.flac
Size: 25438991 Hash: 27D0C295C8C11385EE9ECA061C4AFCA1 Accuracy: -m0
Conclusion: CDDA 100%
Signature: 4F24D24BF7C3D792A7CC3971AD51F0407B1B565D
FILE: B2 - Multiplex - Caps Lock.flac
Size: 27495291 Hash: A06C0EF4F1B6B71FFDFAC3FA59F1713A Accuracy: -m0
Conclusion: CDDA 100%
Signature: AE22AA666AC6D5CA3BB2CAAF70C4D42D9463E3F3
FILE: B1 - Accelera Deck - U Can't Scam The Twin.flac
Size: 37950511 Hash: F729B49D56B9712B77893A4C5216B358 Accuracy: -m0
Conclusion: CDDA 100%
Signature: 89D6CB5061B02EC1B534747D165458850AFF7121
FILE: A4 - Braile Mddx - Conviction.flac
Size: 21476260 Hash: 47B979A99F2EA1AAD456BB06454F29B0 Accuracy: -m0
Conclusion: CDDA 100%
Signature: 76200B74BF9D143FE11DF4E44DC7FF819091F94E
FILE: A3 - Num Num - Bias.flac
Size: 20040931 Hash: 0CA26A0E7B1FE6AC2A67B3E612B0527E Accuracy: -m0
Conclusion: CDDA 100%
Signature: A165309F3C6B367721390EA5AD8E8615C04951ED
FILE: A2 - E.O.G. - Bulb.flac
Size: 33660716 Hash: 58F605E9E553EE51DB5B5357A9174AA3 Accuracy: -m0
Conclusion: CDDA 100%
Signature: F42ABB6FA3D8FD8E278024FF7F41F29E8D9E5378
FILE: A1 - Mr. Projectile - Bleepy Pooh.flac
Size: 35046870 Hash: F23083DC21876BF8A6AC5D7FFE9BF60C Accuracy: -m0
Conclusion: CDDA 100%
Signature: ACF9D2A4723651D971243A0AD154E9CEA73AC6F5

Turntable: Technics SL-1200 MK2 with Stanton D5100AL cartridge & Stanton 500 MkII headshell
Preamp: Numark DM3002X
Soundcard: M-Audio Fasttrack Pro
Vinyl condition: GOOD
Год выпуска: 1999
Продолжительность: 00:30:03
Треклист:

01. Area To Area (03:38)
02. Gravity X (03:58)
03. System 7.9 (02:47)
04. Induction (02:15)
05. Caps Lock (04:39)
06. Velocity Mind (04:25)
07. Lunar Active (02:17)
08. Compuphonic (Gimmik Rmx) (04:28)
09. System 2.8 (01:36)

-----------------------

DON'T MODIFY THIS FILE

-----------------------

PERFORMER: auCDtect Task Manager, ver. 1.5.1RC6 build 1.5.1.7
Copyright (c) 2008-2010 y-soft. All rights reserved
http://y-soft.org

ANALYZER: auCDtect: CD records authenticity detector, version 0.8.2
Copyright (c) 2004 Oleg Berngardt. All rights reserved.
Copyright (c) 2004 Alexander Djourik. All rights reserved.

FILE: 09. System 2.8.flac
Size: 7075469 Hash: 8DB736E7AD52D522B051A7E02FE07E35 Accuracy: -m0
Conclusion: CDDA 100%
Signature: CC64052D1E798DFD82FDB3CB4C70FCB43BD884FD
FILE: 08. Compuphonic (Gimmik Rmx).flac
Size: 33967530 Hash: 9FD0B764863560C686AB780031A84FA5 Accuracy: -m0
Conclusion: CDDA 86%
Signature: 5CE2A9DCA150CEF7A7066F95B67E553144C42C24
FILE: 07. Lunar Active.flac
Size: 11880616 Hash: A5230D71BB1D5641EEFF87341464B454 Accuracy: -m0
Conclusion: CDDA 100%
Signature: 3EFEC7FF7A6626F466D4630DC6D7968A4A36F53D
FILE: 06. Velocity Mind.flac
Size: 30379733 Hash: 559703317C749EADC85865E5BF671AC0 Accuracy: -m0
Conclusion: CDDA 100%
Signature: 03DF839BD71D9D5FA2C5001B1804B3B5BD57A006
FILE: 05. Caps Lock.flac
Size: 31687725 Hash: 8D03A1C496B47CE2D0EFD68036255B9E Accuracy: -m0
Conclusion: CDDA 100%
Signature: EE508417FBE9B954664C6D65F4EA6CF5CE894EE6
FILE: 04. Induction.flac
Size: 9823141 Hash: E6A07578DBC5DCC99994128B10FA6BA1 Accuracy: -m0
Conclusion: CDDA 100%
Signature: 5344848344EB610EB67D748A91E3F2C6EC542AE3
FILE: 03. System 7.9.flac
Size: 15529783 Hash: 0EB0A06EA08AC247168C232D4F38549A Accuracy: -m0
Conclusion: CDDA 99%
Signature: 3994789857DB2BDEF5B3BE31150AA9E90FD2E808
FILE: 02. Gravity X.flac
Size: 27550804 Hash: CAEA14BA96AFF36D505511001AFEB714 Accuracy: -m0
Conclusion: CDDA 100%
Signature: B51CAA2749B44C5358A3BF9DB65FBD11DA2EC06D
FILE: 01. Area To Area.flac
Size: 22844840 Hash: 4DE629A21439E81F8FD2B24F2F738B79 Accuracy: -m0
Conclusion: CDDA 100%
Signature: FB6D8D8DC9361F08E192145F0084DEBF0EAC46C1

Год выпуска: 2000
Продолжительность: 01:17:26
Треклист:

01. Dude - Wave1 (06:40)
02. CiM - Shift (04:26)
03. Arovane - Actrel (05:43)
04. Funckarma - Nushuz (2000 Mix) (05:13)
05. Mr. Projectile - Impregnator (07:10)
06. Gimmik - Wavefiles (05:43)
07. Abfahrt Hinwil - Syntax Data (03:30)
08. M - Francoise (01:07)
09. Multiplex - Compuphonic (Edit) (03:53)
10. Num Num - Fictional Reality (05:06)
11. Proem - Glass (04:22)
12. Quench - Charge (05:32)
13. Novel 23 - Blink Run Away To East (03:42)
14. M-Tec - Nitch (05:33)
15. Digitonal - Drencrom (04:24)
16. Fizzarum - Microphorus (05:22)

EAC extraction logfile from 11. July 2006, 20:14 for CD
Various / neurokinetic - Toytronic compilation

Used drive : PLEXTOR CD-R PREMIUM Adapter: 1 ID: 1
Read mode : Secure with NO C2, accurate stream, disable cache
Read offset correction : 30
Overread into Lead-In and Lead-Out : Yes

Used output format : C:\Program Files\FLAC\flac.exe (User Defined Encoder)
320 kBit/s
Additional command line options : --best -T "ARTIST=%a" -T "TITLE=%t" -T "ALBUM=%g" -T "TRACKNUMBER=%n" %s

Other options :
Fill up missing offset samples with silence : Yes
Delete leading and trailing silent blocks : No
Native Win32 interface for Win NT & 2000

Track 1
Filename C:\rip\01-dude-wave1.wav

Pre-gap length 0:00:02.00

Peak level 89.1 %
Track quality 100.0 %
Test CRC 36545979
Copy CRC 36545979
Copy OK

Track 2
Filename C:\rip\02-cim-shift.wav

Peak level 100.0 %
Track quality 100.0 %
Test CRC E049DB69
Copy CRC E049DB69
Copy OK

Track 3
Filename C:\rip\03-arovane-actrel.wav

Peak level 100.0 %
Track quality 100.0 %
Test CRC D8D66CF6
Copy CRC D8D66CF6
Copy OK

Track 4
Filename C:\rip\04-funckarma-nushuz_(2000_Mix).wav

Peak level 100.0 %
Track quality 100.0 %
Test CRC 96AB438E
Copy CRC 96AB438E
Copy OK

Track 5
Filename C:\rip\05-mr_projectile-impregnator.wav

Peak level 100.0 %
Track quality 100.0 %
Test CRC A402CA9F
Copy CRC A402CA9F
Copy OK

Track 6
Filename C:\rip\06-gimmik-wavefiles.wav

Peak level 100.0 %
Track quality 100.0 %
Test CRC 88B99DA3
Copy CRC 88B99DA3
Copy OK

Track 7
Filename C:\rip\07-abfahrt_hinwil-syntax_data.wav

Peak level 100.0 %
Track quality 100.0 %
Test CRC 34CBF976
Copy CRC 34CBF976
Copy OK

Track 8
Filename C:\rip\08-m-francoise.wav

Peak level 43.3 %
Track quality 100.0 %
Test CRC 0126C5FD
Copy CRC 0126C5FD
Copy OK

Track 9
Filename C:\rip\09-multiplex-compuphonic_(edit).wav

Peak level 100.0 %
Track quality 99.9 %
Test CRC A1505CF0
Copy CRC A1505CF0
Copy OK

Track 10
Filename C:\rip\10-nam_nam-fictional_reality.wav

Peak level 100.0 %
Track quality 99.9 %
Test CRC 6002A534
Copy CRC 6002A534
Copy OK

Track 11
Filename C:\rip\11-proem-glass.wav

Peak level 100.0 %
Track quality 100.0 %
Test CRC 5D6D67EE
Copy CRC 5D6D67EE
Copy OK

Track 12
Filename C:\rip\12-quench-charge.wav

Peak level 100.0 %
Track quality 100.0 %
Test CRC 5113E825
Copy CRC 5113E825
Copy OK

Track 13
Filename C:\rip\13-novel23-blink_run_away_to_east.wav

Peak level 89.0 %
Track quality 100.0 %
Test CRC 77C2EC2B
Copy CRC 77C2EC2B
Copy OK

Track 14
Filename C:\rip\14-m-tech-nitch.wav

Peak level 100.0 %
Track quality 100.0 %
Test CRC 46C28609
Copy CRC 46C28609
Copy OK

Track 15
Filename C:\rip\15-digitonal-drencrom.wav

Peak level 100.0 %
Track quality 100.0 %
Test CRC 78AAE461
Copy CRC 78AAE461
Copy OK

Track 16
Filename C:\rip\16-fizzarum-microphorus.wav

Peak level 100.0 %
Track quality 100.0 %
Test CRC E72D1C5A
Copy CRC E72D1C5A
Copy OK

No errors occured

End of status report


REM GENRE misc
REM DISCID D5122610
REM COMMENT "ExactAudioCopy v0.95b4"
CATALOG 0000000000000
PERFORMER "Various"
TITLE "neurokinetic - Toytronic compilation"
FILE "01-The_Dude-Wave1.wav" WAVE
TRACK 01 AUDIO
TITLE "wave1"
PERFORMER "dude"
INDEX 01 00:00:00
FILE "02-CiM-Shift.wav" WAVE
TRACK 02 AUDIO
TITLE "shift"
PERFORMER "cim"
INDEX 01 00:00:00
FILE "03-Arovane-Actrel.wav" WAVE
TRACK 03 AUDIO
TITLE "actrel"
PERFORMER "arovane"
INDEX 01 00:00:00
FILE "04-Funckarma-Nushuz_2000_mix.wav" WAVE
TRACK 04 AUDIO
TITLE "nushuz (2000 Mix)"
PERFORMER "funckarma"
INDEX 01 00:00:00
FILE "05-Mr_Projectile-Impregnator.wav" WAVE
TRACK 05 AUDIO
TITLE "impregnator"
PERFORMER "mr projectile"
INDEX 01 00:00:00
FILE "06-Gimmik-Wavefiles.wav" WAVE
TRACK 06 AUDIO
TITLE "wavefiles"
PERFORMER "gimmik"
INDEX 01 00:00:00
FILE "07-Abfahrt_Hinwil-Syntax_Data.wav" WAVE
TRACK 07 AUDIO
TITLE "syntax data"
PERFORMER "abfahrt hinwil"
INDEX 01 00:00:00
FILE "08-M-Francoise.wav" WAVE
TRACK 08 AUDIO
TITLE "francoise"
PERFORMER "m"
INDEX 01 00:00:00
FILE "09-Multiplex-Compuphonic_edit.wav" WAVE
TRACK 09 AUDIO
TITLE "compuphonic (edit)"
PERFORMER "multiplex"
INDEX 01 00:00:00
FILE "10-Num_Num-Fictional_Reality.wav" WAVE
TRACK 10 AUDIO
TITLE "fictional reality"
PERFORMER "nam nam"
INDEX 01 00:00:00
FILE "11-Proem-Glass.wav" WAVE
TRACK 11 AUDIO
TITLE "glass"
PERFORMER "proem"
INDEX 01 00:00:00
FILE "12-Quench-Charge.wav" WAVE
TRACK 12 AUDIO
TITLE "charge"
PERFORMER "quench"
INDEX 01 00:00:00
FILE "13-Novel23-Blink_Run_Away_to_East.wav" WAVE
TRACK 13 AUDIO
TITLE "blink run away to east"
PERFORMER "novel23"
INDEX 01 00:00:00
FILE "14-M-Tech-Nitch.wav" WAVE
TRACK 14 AUDIO
TITLE "nitch"
PERFORMER "m-tech"
INDEX 01 00:00:00
FILE "15-Digitonal-Drencrom.wav" WAVE
TRACK 15 AUDIO
TITLE "drencrom"
PERFORMER "digitonal"
INDEX 01 00:00:00
FILE "16-Fizzarum-Microphorus.wav" WAVE
TRACK 16 AUDIO
TITLE "microphorus"
PERFORMER "fizzarum"
INDEX 01 00:00:00

Год выпуска: 2001
Продолжительность: 00:24:47
Треклист:

01. Ausland (04:58)
02. Eine Geschichte (03:42)
03. Ich Bin Du (03:10)
04. Im Sommer (04:29)
05. Ohne Raum (03:08)
06. Rythmus Der Stadt (05:20)

-----------------------

DON'T MODIFY THIS FILE

-----------------------

PERFORMER: auCDtect Task Manager, ver. 1.5.1RC6 build 1.5.1.7
Copyright (c) 2008-2010 y-soft. All rights reserved
http://y-soft.org

ANALYZER: auCDtect: CD records authenticity detector, version 0.8.2
Copyright (c) 2004 Oleg Berngardt. All rights reserved.
Copyright (c) 2004 Alexander Djourik. All rights reserved.

FILE: 06. Rythmus Der Stadt.flac
Size: 31355766 Hash: F94AC41F8A9EDCA41780933620C39E93 Accuracy: -m0
Conclusion: CDDA 100%
Signature: FAFA58598AFFFBFE2641ADB8D86DDCA076CE7871
FILE: 05. Ohne Raum.flac
Size: 14199678 Hash: A8062C9ECD46D9C370A72DB128A609B5 Accuracy: -m0
Conclusion: CDDA 100%
Signature: CE3AA369172201A1F8F749CCBB04BE733D343EEF
FILE: 04. Im Sommer.flac
Size: 26859805 Hash: 79FE5515741B65B2CE2B78C3D2E86A55 Accuracy: -m0
Conclusion: CDDA 100%
Signature: B3DEB5AF722000D1CA8C83D9A97B6AC01A388144
FILE: 03. Ich Bin Du.flac
Size: 16132173 Hash: 3BB4C1C704AB2FDBA3FA85C7909E6C89 Accuracy: -m0
Conclusion: CDDA 100%
Signature: 68BC58EC5D20F29D45839152E4D553FE7809842C
FILE: 02. Eine Geschichte.flac
Size: 25336576 Hash: 253099D8EF8607B331A2BCD165C21050 Accuracy: -m0
Conclusion: CDDA 100%
Signature: 2D3E44B7A319F56ABEA4EC02E0616C9B945868CB
FILE: 01. Ausland.flac
Size: 32221267 Hash: BA77FE91C9FD81FAB514208FB7E66A20 Accuracy: -m0
Conclusion: CDDA 99%
Signature: 7380C46910B41E1341B72F50238A741244D9FCE3

Год выпуска: 2001
Продолжительность: 00:12:25
Треклист:

01. Triology (04:11)
02. Tech 10 (03:51)
03. Radiowellen (03:47)
04. Untitled (00:36)

-----------------------

DON'T MODIFY THIS FILE

-----------------------

PERFORMER: auCDtect Task Manager, ver. 1.5.1RC6 build 1.5.1.7
Copyright (c) 2008-2010 y-soft. All rights reserved
http://y-soft.org

ANALYZER: auCDtect: CD records authenticity detector, version 0.8.2
Copyright (c) 2004 Oleg Berngardt. All rights reserved.
Copyright (c) 2004 Alexander Djourik. All rights reserved.

FILE: 04. Untitled.flac
Size: 4302421 Hash: 4C76E0578AD6F274A11AB1134153CA4B Accuracy: -m0
Conclusion: CDDA 100%
Signature: 5FBFC8A5DDFA3F5AECAFFD3D05FDE71D4D445A7F
FILE: 03. Radiowellen.flac
Size: 16963383 Hash: 3AA54CE9EEF808DF1BCDD5B460413D76 Accuracy: -m0
Conclusion: CDDA 99%
Signature: 25E88D4968D4AD09C375BE265CFD05576D208F88
FILE: 02. Tech 10.flac
Size: 21537452 Hash: EBB08833C2E1A2673E301AF36BF0F9A8 Accuracy: -m0
Conclusion: CDDA 100%
Signature: 141012019D4DE405BE50794C12DA46C9FAD6B5F9
FILE: 01. Triology.flac
Size: 25045092 Hash: 52A52C2E5E36C7DC0C1ED0C3483A351C Accuracy: -m0
Conclusion: CDDA 100%
Signature: E1C9CA65485F7B69AB25EA02CBD4C58576631C56

Turntable: Yamaha PX-3 Linear Tracking
Cart: Audio-Technica AT440MLa
Record Clamp: VPI HR-X Center Record Weight
Phono Preamp: Bellari VP129 Tube Phono Preamp
Line Stage: Vincent SA-31
Card: M-Audio 2496
Cables: Oehlbach NF 214 Audio cable
Record Cleaning Machine: Nitty Gritty Record Master
Год выпуска: 2001
Продолжительность: 00:37:08
Треклист:

01. Jelly Fish (03:14)
02. Jumble (06:27)
03. Pug Times (06:06)
04. Lulwample (03:05)
05. Bypass (06:29)
06. Capcavernal (04:36)
07. Deep Water (04:40)
08. Bacon Lips (02:31)

-----------------------

DON'T MODIFY THIS FILE

-----------------------

PERFORMER: auCDtect Task Manager, ver. 1.5.1RC6 build 1.5.1.7
Copyright (c) 2008-2010 y-soft. All rights reserved
http://y-soft.org

ANALYZER: auCDtect: CD records authenticity detector, version 0.8.2
Copyright (c) 2004 Oleg Berngardt. All rights reserved.
Copyright (c) 2004 Alexander Djourik. All rights reserved.

FILE: 08. Bacon Lips.flac
Size: 18198665 Hash: 4E8DFA1C2AE47924032D76F76C57D56E Accuracy: -m0
Conclusion: CDDA 100%
Signature: C376EFF7C4ADCFCD7CED22B1329377C396AC43DE
FILE: 07. Deep Water.flac
Size: 30210423 Hash: 8E610F59DA6CD97D6150BB28429ABC16 Accuracy: -m0
Conclusion: CDDA 85%
Signature: 443FC6876A4DA17E1C5572178A6487B965C81578
FILE: 06. Capcavernal.flac
Size: 30497947 Hash: 45F7A83ED2C53CBB68D4274CBB582AEF Accuracy: -m0
Conclusion: MPEG 95%
Signature: D6FCFF364B92306B047F930B452F1956E31D6055
FILE: 05. Bypass.flac
Size: 38974296 Hash: 7F86291668C7942C10DFCC39698EFD84 Accuracy: -m0
Conclusion: CDDA 100%
Signature: 3F5BBBD6E801093ACB846582A99CF9E78C5DE19C
FILE: 04. Lulwample.flac
Size: 22673587 Hash: AF82C8D46CA7DA6DD49F0D27A94CC5E1 Accuracy: -m0
Conclusion: MPEG 100%
Signature: 0AF0658232048452A889FEF68D32534D51F92013
FILE: 03. Pug Times.flac
Size: 39129478 Hash: E3E45E39027DDAAB294F94AD2AD992B3 Accuracy: -m0
Conclusion: CDDA 94%
Signature: 9360963B5BAC74BAA3F6164D78ACCA1EE5C02051
FILE: 02. Jumble.flac
Size: 41212290 Hash: E20F71002F8BB06E380658F83D695148 Accuracy: -m0
Conclusion: CDDA 100%
Signature: F2B0C6625356FDA2F5811CC2028418CF99B9E1B0
FILE: 01. Jelly Fish.flac
Size: 19231232 Hash: 638545DFDE1A513D35C337FE9AF52731 Accuracy: -m0
Conclusion: CDDA 100%
Signature: E52264A22DBC0EB1BDECBF2CAA1FB49DBE2675D7

Год выпуска: 2002
Продолжительность: 00:13:16
Треклист:

01. Untitled (06:02)
02. Untitled (07:14)

-----------------------

DON'T MODIFY THIS FILE

-----------------------

PERFORMER: auCDtect Task Manager, ver. 1.5.1RC6 build 1.5.1.7
Copyright (c) 2008-2010 y-soft. All rights reserved
http://y-soft.org

ANALYZER: auCDtect: CD records authenticity detector, version 0.8.2
Copyright (c) 2004 Oleg Berngardt. All rights reserved.
Copyright (c) 2004 Alexander Djourik. All rights reserved.

FILE: 02. Untitled.flac
Size: 50821961 Hash: 7D1DE60E4F5CEBF310B549C51DC2FA70 Accuracy: -m0
Conclusion: CDDA 100%
Signature: ECB63BF314836142F1114E01B0F3BC80F312C46E
FILE: 01. Untitled.flac
Size: 30306319 Hash: 4EF2CAA2EF9D60C45918F51A9C531908 Accuracy: -m0
Conclusion: CDDA 99%
Signature: 6979708D54CA575EB254BCA686826C0991B79907

Год выпуска: 2002
Продолжительность: 00:49:30
Треклист:

01. Bumperstufe2 (03:21)
02. Sonic Surface (04:45)
03. The Light (05:01)
04. Planquadrat (03:49)
05. Tech10 (03:48)
06. Triology (04:09)
07. Tech8 (04:09)
08. Links Oben (03:39)
09. Phase4 (02:55)
10. Tech7 (03:56)
11. Syntax Data (03:29)
12. Radiowellen (03:29)
13. Untitled (03:00)

Exact Audio Copy V0.99 prebeta 4 from 23. January 2008

EAC extraction logfile from 6. April 2009, 0:01

Abfahrt Hinwil / Links Berge Rechts Seen

Used drive : TSSTcorpCDDVDW SH-S202J Adapter: 0 ID: 0

Read mode : Secure
Utilize accurate stream : Yes
Defeat audio cache : No
Make use of C2 pointers : No

Read offset correction : 6
Overread into Lead-In and Lead-Out : No
Fill up missing offset samples with silence : Yes
Delete leading and trailing silent blocks : No
Null samples used in CRC calculations : Yes
Used interface : Native Win32 interface for Win NT & 2000
Gap handling : Appended to previous track

Used output format : User Defined Encoder
Selected bitrate : 320 kBit/s
Quality : High
Add ID3 tag : No
Command line compressor : C:\Program Files\FLAC\flac.exe
Additional command line options : -V -8 -T "artist=%a" -T "title=%t" -T "album=%g" -T "date=%y" -T "tracknumber=%n" -T "genre=%m" %s

TOC of the extracted CD

Track | Start | Length | Start sector | End sector
---------------------------------------------------------
1 | 0:00.00 | 3:21.08 | 0 | 15082
2 | 3:21.08 | 4:45.18 | 15083 | 36475
3 | 8:06.26 | 5:01.23 | 36476 | 59073
4 | 13:07.49 | 3:48.73 | 59074 | 76246
5 | 16:56.47 | 3:47.41 | 76247 | 93312
6 | 20:44.13 | 4:09.33 | 93313 | 112020
7 | 24:53.46 | 4:08.62 | 112021 | 130682
8 | 29:02.33 | 3:38.69 | 130683 | 147101
9 | 32:41.27 | 2:55.24 | 147102 | 160250
10 | 35:36.51 | 3:56.07 | 160251 | 177957
11 | 39:32.58 | 3:28.53 | 177958 | 193610
12 | 43:01.36 | 3:29.03 | 193611 | 209288
13 | 46:30.39 | 3:00.15 | 209289 | 222803

Track 1

Filename I:\FLAC\Upload\Abfahrt Hinwil - (2002) Links Berge Rechts Seen\Abfahrt Hinwil - Links Berge Rechts Seen - 01 - Bumperstufe2.wav

Pre-gap length 0:00:02.00

Peak level 99.8 %
Track quality 100.0 %
Test CRC AEAE5750
Copy CRC AEAE5750
Accurately ripped (confidence 2) [E6E5B8E6]
Copy OK

Track 2

Filename I:\FLAC\Upload\Abfahrt Hinwil - (2002) Links Berge Rechts Seen\Abfahrt Hinwil - Links Berge Rechts Seen - 02 - Sonic Surface.wav

Peak level 100.0 %
Track quality 99.9 %
Test CRC B07F331B
Copy CRC B07F331B
Accurately ripped (confidence 2) [334CC2D3]
Copy OK

Track 3

Filename I:\FLAC\Upload\Abfahrt Hinwil - (2002) Links Berge Rechts Seen\Abfahrt Hinwil - Links Berge Rechts Seen - 03 - The Light.wav

Peak level 97.7 %
Track quality 100.0 %
Test CRC E1C1AEE0
Copy CRC E1C1AEE0
Accurately ripped (confidence 2) [0908513C]
Copy OK

Track 4

Filename I:\FLAC\Upload\Abfahrt Hinwil - (2002) Links Berge Rechts Seen\Abfahrt Hinwil - Links Berge Rechts Seen - 04 - Planquadrat.wav

Peak level 99.8 %
Track quality 100.0 %
Test CRC 39E68B9D
Copy CRC 39E68B9D
Accurately ripped (confidence 2) [A2BB69D5]
Copy OK

Track 5

Filename I:\FLAC\Upload\Abfahrt Hinwil - (2002) Links Berge Rechts Seen\Abfahrt Hinwil - Links Berge Rechts Seen - 05 - Tech10.wav

Peak level 100.0 %
Track quality 100.0 %
Test CRC 7BFEE4EF
Copy CRC 7BFEE4EF
Accurately ripped (confidence 2) [64BD8727]
Copy OK

Track 6

Filename I:\FLAC\Upload\Abfahrt Hinwil - (2002) Links Berge Rechts Seen\Abfahrt Hinwil - Links Berge Rechts Seen - 06 - Triology.wav

Peak level 99.8 %
Track quality 100.0 %
Test CRC 880DFB7D
Copy CRC 880DFB7D
Accurately ripped (confidence 2) [76B2E4D0]
Copy OK

Track 7

Filename I:\FLAC\Upload\Abfahrt Hinwil - (2002) Links Berge Rechts Seen\Abfahrt Hinwil - Links Berge Rechts Seen - 07 - Tech8.wav

Peak level 98.8 %
Track quality 100.0 %
Test CRC 8C92D9A1
Copy CRC 8C92D9A1
Accurately ripped (confidence 2) [8E053828]
Copy OK

Track 8

Filename I:\FLAC\Upload\Abfahrt Hinwil - (2002) Links Berge Rechts Seen\Abfahrt Hinwil - Links Berge Rechts Seen - 08 - Links Oben.wav

Peak level 99.8 %
Track quality 100.0 %
Test CRC CC52DE8C
Copy CRC CC52DE8C
Accurately ripped (confidence 2) [C3E50D6E]
Copy OK

Track 9

Filename I:\FLAC\Upload\Abfahrt Hinwil - (2002) Links Berge Rechts Seen\Abfahrt Hinwil - Links Berge Rechts Seen - 09 - Phase4.wav

Peak level 83.1 %
Track quality 99.9 %
Test CRC FD175FD1
Copy CRC FD175FD1
Accurately ripped (confidence 2) [62CB9EDB]
Copy OK

Track 10

Filename I:\FLAC\Upload\Abfahrt Hinwil - (2002) Links Berge Rechts Seen\Abfahrt Hinwil - Links Berge Rechts Seen - 10 - Tech7.wav

Peak level 99.8 %
Track quality 99.9 %
Test CRC 60511142
Copy CRC 60511142
Accurately ripped (confidence 2) [81A8D9FB]
Copy OK

Track 11

Filename I:\FLAC\Upload\Abfahrt Hinwil - (2002) Links Berge Rechts Seen\Abfahrt Hinwil - Links Berge Rechts Seen - 11 - Syntax Data.wav

Peak level 100.0 %
Track quality 100.0 %
Test CRC 0EE2ECAD
Copy CRC 0EE2ECAD
Accurately ripped (confidence 2) [018A81BF]
Copy OK

Track 12

Filename I:\FLAC\Upload\Abfahrt Hinwil - (2002) Links Berge Rechts Seen\Abfahrt Hinwil - Links Berge Rechts Seen - 12 - Radiowellen.wav

Peak level 99.8 %
Track quality 100.0 %
Test CRC BF99A515
Copy CRC BF99A515
Accurately ripped (confidence 2) [714F7C02]
Copy OK

Track 13

Filename I:\FLAC\Upload\Abfahrt Hinwil - (2002) Links Berge Rechts Seen\Abfahrt Hinwil - Links Berge Rechts Seen - 13 - [Untitled].wav

Peak level 88.3 %
Track quality 100.0 %
Test CRC 52F51ED1
Copy CRC 52F51ED1
Accurately ripped (confidence 2) [327F594E]
Copy OK

All tracks accurately ripped

No errors occurred

End of status report


REM GENRE Electronic
REM DATE 2002
REM DISCID C40B9A0D
REM COMMENT "ExactAudioCopy v0.99pb4"
PERFORMER "Abfahrt Hinwil"
TITLE "Links Berge Rechts Seen"
FILE "Abfahrt Hinwil - Links Berge Rechts Seen - 01 - Bumperstufe2.wav" WAVE
TRACK 01 AUDIO
TITLE "Bumperstufe2"
PERFORMER "Abfahrt Hinwil"
INDEX 01 00:00:00
FILE "Abfahrt Hinwil - Links Berge Rechts Seen - 02 - Sonic Surface.wav" WAVE
TRACK 02 AUDIO
TITLE "Sonic Surface"
PERFORMER "Abfahrt Hinwil"
INDEX 01 00:00:00
FILE "Abfahrt Hinwil - Links Berge Rechts Seen - 03 - The Light.wav" WAVE
TRACK 03 AUDIO
TITLE "The Light"
PERFORMER "Abfahrt Hinwil"
INDEX 01 00:00:00
FILE "Abfahrt Hinwil - Links Berge Rechts Seen - 04 - Planquadrat.wav" WAVE
TRACK 04 AUDIO
TITLE "Planquadrat"
PERFORMER "Abfahrt Hinwil"
INDEX 01 00:00:00
FILE "Abfahrt Hinwil - Links Berge Rechts Seen - 05 - Tech10.wav" WAVE
TRACK 05 AUDIO
TITLE "Tech10"
PERFORMER "Abfahrt Hinwil"
INDEX 01 00:00:00
FILE "Abfahrt Hinwil - Links Berge Rechts Seen - 06 - Triology.wav" WAVE
TRACK 06 AUDIO
TITLE "Triology"
PERFORMER "Abfahrt Hinwil"
INDEX 01 00:00:00
FILE "Abfahrt Hinwil - Links Berge Rechts Seen - 07 - Tech8.wav" WAVE
TRACK 07 AUDIO
TITLE "Tech8"
PERFORMER "Abfahrt Hinwil"
INDEX 01 00:00:00
FILE "Abfahrt Hinwil - Links Berge Rechts Seen - 08 - Links Oben.wav" WAVE
TRACK 08 AUDIO
TITLE "Links Oben"
PERFORMER "Abfahrt Hinwil"
INDEX 01 00:00:00
FILE "Abfahrt Hinwil - Links Berge Rechts Seen - 09 - Phase4.wav" WAVE
TRACK 09 AUDIO
TITLE "Phase4"
PERFORMER "Abfahrt Hinwil"
INDEX 01 00:00:00
FILE "Abfahrt Hinwil - Links Berge Rechts Seen - 10 - Tech7.wav" WAVE
TRACK 10 AUDIO
TITLE "Tech7"
PERFORMER "Abfahrt Hinwil"
INDEX 01 00:00:00
FILE "Abfahrt Hinwil - Links Berge Rechts Seen - 11 - Syntax Data.wav" WAVE
TRACK 11 AUDIO
TITLE "Syntax Data"
PERFORMER "Abfahrt Hinwil"
INDEX 01 00:00:00
FILE "Abfahrt Hinwil - Links Berge Rechts Seen - 12 - Radiowellen.wav" WAVE
TRACK 12 AUDIO
TITLE "Radiowellen"
PERFORMER "Abfahrt Hinwil"
INDEX 01 00:00:00
FILE "Abfahrt Hinwil - Links Berge Rechts Seen - 13 - [Untitled].wav" WAVE
TRACK 13 AUDIO
TITLE "[Untitled]"
PERFORMER "Abfahrt Hinwil"
INDEX 01 00:00:00

Год выпуска: 2002
Продолжительность: 00:42:26
Треклист:

01. Come And Play (05:45)
02. Seraphim (06:52)
03. Over Line (04:08)
04. Black Box (06:21)
05. Break Beat Phase (04:35)
06. Drencrom (08:16)
07. Carcause (06:29)

EAC extraction logfile from 11. June 2007, 11:44 for CD
digitonal / 23 things fall apart

Used drive : SONY DVD RW DRU-720A Adapter: 3 ID: 0
Read mode : Secure with NO C2, accurate stream, disable cache
Read offset correction : 12
Overread into Lead-In and Lead-Out : No

Used output format : C:\Program Files\FLAC\flac.exe (User Defined Encoder)
192 kBit/s
Additional command line options : -V -8 -T "artist=%a" -T "title=%t" -T "album=%g" -T "date=%y" -T "tracknumber=%n" -T "genre=%m" %s

Other options :
Fill up missing offset samples with silence : Yes
Delete leading and trailing silent blocks : No
Installed external ASPI interface

Track 1
Filename C:\A\Digitonal - 23 Things Fall Apart [flac]\01 - come and play.wav

Peak level 98.8 %
Track quality 100.0 %
Test CRC E7D87C6C
Copy CRC E7D87C6C
Copy OK

Track 2
Filename C:\A\Digitonal - 23 Things Fall Apart [flac]\02 - ceraphim.wav

Peak level 96.5 %
Track quality 100.0 %
Test CRC B34B3C88
Copy CRC B34B3C88
Copy OK

Track 3
Filename C:\A\Digitonal - 23 Things Fall Apart [flac]\03 - over line.wav

Peak level 96.5 %
Track quality 100.0 %
Test CRC 9EC10357
Copy CRC 9EC10357
Copy OK

Track 4
Filename C:\A\Digitonal - 23 Things Fall Apart [flac]\04 - black box.wav

Peak level 98.8 %
Track quality 100.0 %
Test CRC D3CE4427
Copy CRC D3CE4427
Copy OK

Track 5
Filename C:\A\Digitonal - 23 Things Fall Apart [flac]\05 - break beat phase.wav

Peak level 98.8 %
Track quality 100.0 %
Test CRC 58304B8D
Copy CRC 58304B8D
Copy OK

Track 6
Filename C:\A\Digitonal - 23 Things Fall Apart [flac]\06 - drencrom.wav

Peak level 98.8 %
Track quality 100.0 %
Test CRC CA4C1FF7
Copy CRC CA4C1FF7
Copy OK

Track 7
Filename C:\A\Digitonal - 23 Things Fall Apart [flac]\07 - carcause.wav

Peak level 98.8 %
Track quality 100.0 %
Test CRC 35A21173
Copy CRC 35A21173
Copy OK

No errors occured

End of status report


REM GENRE "Modern Classical, IDM, Ambient"
REM DATE 2002
REM DISCID 5E09F107
REM COMMENT "ExactAudioCopy v0.95b4"
PERFORMER Digitonal
TITLE "23 Things Fall Apart"
FILE "01. Come And Play.flac" WAVE
TRACK 1 AUDIO
TITLE "Come And Play"
PERFORMER Digitonal
INDEX 01 00:00:00
FILE "02. Seraphim.flac" WAVE
TRACK 2 AUDIO
TITLE Seraphim
PERFORMER Digitonal
INDEX 01 00:00:00
FILE "03. Over Line.flac" WAVE
TRACK 3 AUDIO
TITLE "Over Line"
PERFORMER Digitonal
INDEX 01 00:00:00
FILE "04. Black Box.flac" WAVE
TRACK 4 AUDIO
TITLE "Black Box"
PERFORMER Digitonal
INDEX 01 00:00:00
FILE "05. Break Beat Phase.flac" WAVE
TRACK 5 AUDIO
TITLE "Break Beat Phase"
PERFORMER Digitonal
INDEX 01 00:00:00
FILE "06. Drencrom.flac" WAVE
TRACK 6 AUDIO
TITLE Drencrom
PERFORMER Digitonal
INDEX 01 00:00:00
FILE "07. Carcause.flac" WAVE
TRACK 7 AUDIO
TITLE Carcause
PERFORMER Digitonal
INDEX 01 00:00:00

Год выпуска: 2002
Продолжительность: 01:00:58
Треклист:

01. After One (04:04)
02. AOB (Ewok Rmx) (06:33)
03. All Within You (06:09)
04. Rock Robot (Scape One Rmx) (06:38)
05. Vortak (04:00)
06. Oe36dy (02:44)
07. Secrete (04:08)
08. String Sun (01:36)
09. Lextik (02:56)
10. Mainline (Ambidextrous Rmx) (04:35)
11. Bevel (04:49)
12. Neuteq (05:04)
13. Terrar (02:12)
14. Patients (05:30)

Exact Audio Copy V0.99 prebeta 4 from 23. January 2008

EAC extraction logfile from 3. April 2009, 22:41

Multiplex / Pinghaus Frequencies

Used drive : TSSTcorpCDDVDW SH-S202J Adapter: 0 ID: 0

Read mode : Secure
Utilize accurate stream : Yes
Defeat audio cache : No
Make use of C2 pointers : No

Read offset correction : 6
Overread into Lead-In and Lead-Out : No
Fill up missing offset samples with silence : Yes
Delete leading and trailing silent blocks : No
Null samples used in CRC calculations : Yes
Used interface : Native Win32 interface for Win NT & 2000
Gap handling : Appended to previous track

Used output format : User Defined Encoder
Selected bitrate : 320 kBit/s
Quality : High
Add ID3 tag : No
Command line compressor : C:\Program Files\FLAC\flac.exe
Additional command line options : -V -8 -T "artist=%a" -T "title=%t" -T "album=%g" -T "date=%y" -T "tracknumber=%n" -T "genre=%m" %s

TOC of the extracted CD

Track | Start | Length | Start sector | End sector
---------------------------------------------------------
1 | 0:00.00 | 4:03.56 | 0 | 18280
2 | 4:03.56 | 6:32.38 | 18281 | 47718
3 | 10:36.19 | 6:09.07 | 47719 | 75400
4 | 16:45.26 | 6:37.62 | 75401 | 105237
5 | 23:23.13 | 3:59.51 | 105238 | 123213
6 | 27:22.64 | 2:43.44 | 123214 | 135482
7 | 30:06.33 | 4:07.46 | 135483 | 154053
8 | 34:14.04 | 1:35.52 | 154054 | 161230
9 | 35:49.56 | 2:56.25 | 161231 | 174455
10 | 38:46.06 | 4:35.36 | 174456 | 195116
11 | 43:21.42 | 4:49.37 | 195117 | 216828
12 | 48:11.04 | 5:03.70 | 216829 | 239623
13 | 53:14.74 | 2:11.68 | 239624 | 249516
14 | 55:26.67 | 5:30.36 | 249517 | 274302

Track 1

Filename I:\FLAC\Upload\Multiplex - (2002) Pinghaus Frequencies\Multiplex - Pinghaus Frequencies - 01 - After One.wav

Pre-gap length 0:00:02.00

Peak level 100.0 %
Track quality 99.9 %
Test CRC A4788B6C
Copy CRC A4788B6C
Accurately ripped (confidence 2) [A9750AB2]
Copy OK

Track 2

Filename I:\FLAC\Upload\Multiplex - (2002) Pinghaus Frequencies\Multiplex - Pinghaus Frequencies - 02 - AOB (Ewok Rmx).wav

Pre-gap length 0:00:02.00

Peak level 98.8 %
Track quality 99.9 %
Test CRC 51F017A7
Copy CRC 51F017A7
Accurately ripped (confidence 2) [7F10C5FE]
Copy OK

Track 3

Filename I:\FLAC\Upload\Multiplex - (2002) Pinghaus Frequencies\Multiplex - Pinghaus Frequencies - 03 - All Within You.wav

Pre-gap length 0:00:02.00

Peak level 89.8 %
Track quality 100.0 %
Test CRC CB0ECAD0
Copy CRC CB0ECAD0
Accurately ripped (confidence 2) [55146E53]
Copy OK

Track 4

Filename I:\FLAC\Upload\Multiplex - (2002) Pinghaus Frequencies\Multiplex - Pinghaus Frequencies - 04 - Rock Robot (Scape Rmx).wav

Pre-gap length 0:00:02.00

Peak level 94.2 %
Track quality 99.9 %
Test CRC EDFB15A6
Copy CRC EDFB15A6
Accurately ripped (confidence 2) [A981B08E]
Copy OK

Track 5

Filename I:\FLAC\Upload\Multiplex - (2002) Pinghaus Frequencies\Multiplex - Pinghaus Frequencies - 05 - Vortak.wav

Pre-gap length 0:00:02.00

Peak level 99.8 %
Track quality 100.0 %
Test CRC 4B89BD9E
Copy CRC 4B89BD9E
Accurately ripped (confidence 2) [D7702D81]
Copy OK

Track 6

Filename I:\FLAC\Upload\Multiplex - (2002) Pinghaus Frequencies\Multiplex - Pinghaus Frequencies - 06 - OE36DY.wav

Pre-gap length 0:00:02.00

Peak level 94.2 %
Track quality 100.0 %
Test CRC 0D9A75A0
Copy CRC 0D9A75A0
Accurately ripped (confidence 2) [27B765F6]
Copy OK

Track 7

Filename I:\FLAC\Upload\Multiplex - (2002) Pinghaus Frequencies\Multiplex - Pinghaus Frequencies - 07 - Secrete.wav

Pre-gap length 0:00:02.00

Peak level 91.5 %
Track quality 100.0 %
Test CRC D695992E
Copy CRC D695992E
Accurately ripped (confidence 2) [010D10CD]
Copy OK

Track 8

Filename I:\FLAC\Upload\Multiplex - (2002) Pinghaus Frequencies\Multiplex - Pinghaus Frequencies - 08 - String Sun.wav

Pre-gap length 0:00:02.00

Peak level 91.5 %
Track quality 100.0 %
Test CRC 6F7F75C4
Copy CRC 6F7F75C4
Accurately ripped (confidence 2) [3D913B30]
Copy OK

Track 9

Filename I:\FLAC\Upload\Multiplex - (2002) Pinghaus Frequencies\Multiplex - Pinghaus Frequencies - 09 - Lextik.wav

Pre-gap length 0:00:02.00

Peak level 94.3 %
Track quality 99.9 %
Test CRC 998B36A1
Copy CRC 998B36A1
Accurately ripped (confidence 2) [ABDBBA59]
Copy OK

Track 10

Filename I:\FLAC\Upload\Multiplex - (2002) Pinghaus Frequencies\Multiplex - Pinghaus Frequencies - 10 - Mainline (Ambidextrous Remix).wav

Pre-gap length 0:00:02.00

Peak level 94.2 %
Track quality 100.0 %
Test CRC 5F2A62F4
Copy CRC 5F2A62F4
Accurately ripped (confidence 2) [F8000C00]
Copy OK

Track 11

Filename I:\FLAC\Upload\Multiplex - (2002) Pinghaus Frequencies\Multiplex - Pinghaus Frequencies - 11 - Bevel.wav

Pre-gap length 0:00:02.00

Peak level 98.8 %
Track quality 100.0 %
Test CRC E8A291B7
Copy CRC E8A291B7
Accurately ripped (confidence 2) [C0AB137C]
Copy OK

Track 12

Filename I:\FLAC\Upload\Multiplex - (2002) Pinghaus Frequencies\Multiplex - Pinghaus Frequencies - 12 - Neuteq.wav

Pre-gap length 0:00:02.00

Peak level 99.8 %
Track quality 100.0 %
Test CRC DB3B7AEE
Copy CRC DB3B7AEE
Accurately ripped (confidence 2) [4ABB009D]
Copy OK

Track 13

Filename I:\FLAC\Upload\Multiplex - (2002) Pinghaus Frequencies\Multiplex - Pinghaus Frequencies - 13 - Terrar.wav

Pre-gap length 0:00:02.00

Peak level 81.6 %
Track quality 100.0 %
Test CRC A8E057FA
Copy CRC A8E057FA
Accurately ripped (confidence 2) [312FE7E7]
Copy OK

Track 14

Filename I:\FLAC\Upload\Multiplex - (2002) Pinghaus Frequencies\Multiplex - Pinghaus Frequencies - 14 - Patients.wav

Pre-gap length 0:00:02.00

Peak level 98.8 %
Track quality 100.0 %
Test CRC 5B3E511A
Copy CRC 5B3E511A
Accurately ripped (confidence 2) [8D0801A6]
Copy OK

All tracks accurately ripped

No errors occurred

End of status report


REM GENRE Electronic
REM DATE 2002
REM DISCID B90E490E
REM COMMENT "ExactAudioCopy v0.99pb4"
PERFORMER "Multiplex"
TITLE "Pinghaus Frequencies"
FILE "Multiplex - Pinghaus Frequencies - 01 - After One.wav" WAVE
TRACK 01 AUDIO
TITLE "After One"
PERFORMER "Multiplex"
FLAGS DCP
INDEX 01 00:00:00
TRACK 02 AUDIO
TITLE "AOB (Ewok Rmx)"
PERFORMER "Multiplex"
FLAGS DCP
INDEX 00 04:01:56
FILE "Multiplex - Pinghaus Frequencies - 02 - AOB (Ewok Rmx).wav" WAVE
INDEX 01 00:00:00
TRACK 03 AUDIO
TITLE "All Within You"
PERFORMER "Multiplex"
FLAGS DCP
INDEX 00 06:30:38
FILE "Multiplex - Pinghaus Frequencies - 03 - All Within You.wav" WAVE
INDEX 01 00:00:00
TRACK 04 AUDIO
TITLE "Rock Robot (Scape Rmx)"
PERFORMER "Multiplex"
FLAGS DCP
INDEX 00 06:07:07
FILE "Multiplex - Pinghaus Frequencies - 04 - Rock Robot (Scape Rmx).wav" WAVE
INDEX 01 00:00:00
TRACK 05 AUDIO
TITLE "Vortak"
PERFORMER "Multiplex"
FLAGS DCP
INDEX 00 06:35:62
FILE "Multiplex - Pinghaus Frequencies - 05 - Vortak.wav" WAVE
INDEX 01 00:00:00
TRACK 06 AUDIO
TITLE "OE36DY"
PERFORMER "Multiplex"
FLAGS DCP
INDEX 00 03:57:51
FILE "Multiplex - Pinghaus Frequencies - 06 - OE36DY.wav" WAVE
INDEX 01 00:00:00
TRACK 07 AUDIO
TITLE "Secrete"
PERFORMER "Multiplex"
FLAGS DCP
INDEX 00 02:41:44
FILE "Multiplex - Pinghaus Frequencies - 07 - Secrete.wav" WAVE
INDEX 01 00:00:00
TRACK 08 AUDIO
TITLE "String Sun"
PERFORMER "Multiplex"
FLAGS DCP
INDEX 00 04:05:46
FILE "Multiplex - Pinghaus Frequencies - 08 - String Sun.wav" WAVE
INDEX 01 00:00:00
TRACK 09 AUDIO
TITLE "Lextik"
PERFORMER "Multiplex"
FLAGS DCP
INDEX 00 01:33:52
FILE "Multiplex - Pinghaus Frequencies - 09 - Lextik.wav" WAVE
INDEX 01 00:00:00
TRACK 10 AUDIO
TITLE "Mainline (Ambidextrous Remix)"
PERFORMER "Multiplex"
FLAGS DCP
INDEX 00 02:54:25
FILE "Multiplex - Pinghaus Frequencies - 10 - Mainline (Ambidextrous Remix).wav" WAVE
INDEX 01 00:00:00
TRACK 11 AUDIO
TITLE "Bevel"
PERFORMER "Multiplex"
FLAGS DCP
INDEX 00 04:33:36
FILE "Multiplex - Pinghaus Frequencies - 11 - Bevel.wav" WAVE
INDEX 01 00:00:00
TRACK 12 AUDIO
TITLE "Neuteq"
PERFORMER "Multiplex"
FLAGS DCP
INDEX 00 04:47:37
FILE "Multiplex - Pinghaus Frequencies - 12 - Neuteq.wav" WAVE
INDEX 01 00:00:00
TRACK 13 AUDIO
TITLE "Terrar"
PERFORMER "Multiplex"
FLAGS DCP
INDEX 00 05:01:70
FILE "Multiplex - Pinghaus Frequencies - 13 - Terrar.wav" WAVE
INDEX 01 00:00:00
TRACK 14 AUDIO
TITLE "Patients"
PERFORMER "Multiplex"
FLAGS DCP
INDEX 00 02:09:68
FILE "Multiplex - Pinghaus Frequencies - 14 - Patients.wav" WAVE
INDEX 01 00:00:00

Год выпуска: 2003
Продолжительность: 00:32:36
Треклист:

01. Retinue (05:23)
02. Sofar (04:28)
03. Viscer (06:20)
04. Alt.Tone.Two (08:10)
05. Sixt (08:15)

-----------------------

DON'T MODIFY THIS FILE

-----------------------

PERFORMER: auCDtect Task Manager, ver. 1.5.1RC6 build 1.5.1.7
Copyright (c) 2008-2010 y-soft. All rights reserved
http://y-soft.org

ANALYZER: auCDtect: CD records authenticity detector, version 0.8.2
Copyright (c) 2004 Oleg Berngardt. All rights reserved.
Copyright (c) 2004 Alexander Djourik. All rights reserved.

FILE: 05. Sixt.flac
Size: 40470291 Hash: 054E1E8C40A6F69594A3839B278BAB8C Accuracy: -m0
Conclusion: CDDA 100%
Signature: 199BEB64BED192C4DB18A3D7FF8C6B706844997C
FILE: 04. Alt.Tone.Two.flac
Size: 36167970 Hash: 33749D260091B71C7D2B894D29324D58 Accuracy: -m0
Conclusion: CDDA 100%
Signature: 2E42993FBC581557882F15E9347DB4AF8C3ED523
FILE: 03. Viscer.flac
Size: 34667275 Hash: 589748A5A235CDA0B6063D97C12B493D Accuracy: -m0
Conclusion: CDDA 100%
Signature: 59B059457335861202E7261437E1021D21064F63
FILE: 02. Sofar.flac
Size: 28601280 Hash: 09F17FCF44C94030ACCDC782BCCEF5AC Accuracy: -m0
Conclusion: CDDA 100%
Signature: 1A0D8CB412AD1B0F74B3C7B22A64478C460EBAD5
FILE: 01. Retinue.flac
Size: 27826438 Hash: 2E0D0187B75A3ED4316D84F7B90E8567 Accuracy: -m0
Conclusion: CDDA 100%
Signature: C0EBAC9595CEF77DEC36D397A02291B6E68A5E9C

Год выпуска: 2004
Продолжительность: 01:01:01+00:51:43
Треклист:

CD1 (Miles Tillman & Loess)
01. Miles Tilmann - Middle Fields (04:51)
02. Miles Tilmann - The Big Swim (03:55)
03. Miles Tilmann - Through The Tubes (05:24)
04. Miles Tilmann - Particle 3 (03:53)
05. Miles Tilmann - Smallest Flame (03:53)
06. Miles Tilmann - Mid Point (06:29)
07. Loess - Retinue (05:23)
08. Loess - Sofar (04:28)
09. Loess - Viscer (06:20)
10. Loess - Alt.Tone.Two (08:10)
11. Loess - Sixt (08:15)

CD2 (Low Profile Society)
01. In (03:40)
02. Example 2 (03:19)
03. Example 3 (05:55)
04. Example 4 (03:36)
05. Example 5 (01:04)
06. Example 6 (06:56)
07. Example 7 (03:25)
08. Example 8 (03:44)
09. Out (03:01)
10. Example 10 (04:00)
11. Example 11 (05:59)
12. Example 12 (03:29)
13. Example 13 (03:35)

Exact Audio Copy V0.99 prebeta 5 from 4. May 2009

EAC extraction logfile from 19. October 2009, 0:36

Various / 3D Concepts CD1

Used drive : HL-DT-STDVDRAM GMA-4082N Adapter: 0 ID: 0

Read mode : Secure
Utilize accurate stream : Yes
Defeat audio cache : Yes
Make use of C2 pointers : No

Read offset correction : 667
Overread into Lead-In and Lead-Out : No
Fill up missing offset samples with silence : Yes
Delete leading and trailing silent blocks : No
Null samples used in CRC calculations : Yes
Used interface : Installed external ASPI interface
Gap handling : Appended to previous track

Used output format : User Defined Encoder
Selected bitrate : 320 kBit/s
Quality : High
Add ID3 tag : No
Command line compressor : C:\Program Files\Exact Audio Copy\FLAC\FLAC.EXE
Additional command line options : -V -8 -T "artist=%a" -T "title=%t" -T "album=%g" -T "date=%y" -T "tracknumber=%n" -T "genre=%m" %s

TOC of the extracted CD

Track | Start | Length | Start sector | End sector
---------------------------------------------------------
1 | 0:00.00 | 4:51.28 | 0 | 21852
2 | 4:51.28 | 3:55.12 | 21853 | 39489
3 | 8:46.40 | 5:24.37 | 39490 | 63826
4 | 14:11.02 | 3:53.19 | 63827 | 81320
5 | 18:04.21 | 3:53.37 | 81321 | 98832
6 | 21:57.58 | 6:29.01 | 98833 | 128008
7 | 28:26.59 | 5:22.59 | 128009 | 152217
8 | 33:49.43 | 4:28.24 | 152218 | 172341
9 | 38:17.67 | 6:20.02 | 172342 | 200843
10 | 44:37.69 | 8:10.35 | 200844 | 237628
11 | 52:48.29 | 8:14.59 | 237629 | 274737

Track 1

Filename G:\1_My Music\VUZE Uploads\3D Concepts CD1 (2004)\01 - Miles Tilman - Middle Fields.wav

Pre-gap length 0:00:02.00

Peak level 96.5 %
Track quality 100.0 %
Test CRC 745E354E
Copy CRC 745E354E
Accurately ripped (confidence 3) [0764ECA8]
Copy OK

Track 2

Filename G:\1_My Music\VUZE Uploads\3D Concepts CD1 (2004)\02 - Miles Tilman - The Big Swim.wav

Pre-gap length 0:00:02.00

Peak level 96.5 %
Track quality 100.0 %
Test CRC 1F693A6A
Copy CRC 1F693A6A
Accurately ripped (confidence 3) [960BCE1E]
Copy OK

Track 3

Filename G:\1_My Music\VUZE Uploads\3D Concepts CD1 (2004)\03 - Miles Tilman - Through The Tubes.wav

Pre-gap length 0:00:02.00

Peak level 96.5 %
Track quality 100.0 %
Test CRC 67FAA5A7
Copy CRC 67FAA5A7
Accurately ripped (confidence 3) [DF25A6AB]
Copy OK

Track 4

Filename G:\1_My Music\VUZE Uploads\3D Concepts CD1 (2004)\04 - Miles Tilman - Particle 3.wav

Pre-gap length 0:00:02.00

Peak level 96.5 %
Track quality 100.0 %
Test CRC FEF1A82A
Copy CRC FEF1A82A
Accurately ripped (confidence 3) [734D0EEC]
Copy OK

Track 5

Filename G:\1_My Music\VUZE Uploads\3D Concepts CD1 (2004)\05 - Miles Tilman - Smallest Flame.wav

Pre-gap length 0:00:02.00

Peak level 96.5 %
Track quality 100.0 %
Test CRC ECFA9FAD
Copy CRC ECFA9FAD
Accurately ripped (confidence 3) [451DB7E8]
Copy OK

Track 6

Filename G:\1_My Music\VUZE Uploads\3D Concepts CD1 (2004)\06 - Miles Tilman - Mid Point.wav

Pre-gap length 0:00:02.00

Peak level 87.8 %
Track quality 100.0 %
Test CRC 8326272B
Copy CRC 8326272B
Accurately ripped (confidence 3) [DC0A75C5]
Copy OK

Track 7

Filename G:\1_My Music\VUZE Uploads\3D Concepts CD1 (2004)\07 - Loess - Retinue.wav

Pre-gap length 0:00:02.00

Peak level 96.5 %
Track quality 100.0 %
Test CRC AF3F5AF6
Copy CRC AF3F5AF6
Accurately ripped (confidence 3) [A310B057]
Copy OK

Track 8

Filename G:\1_My Music\VUZE Uploads\3D Concepts CD1 (2004)\08 - Loess - Sofar.wav

Pre-gap length 0:00:02.00

Peak level 96.5 %
Track quality 99.9 %
Test CRC BE8D2CD4
Copy CRC BE8D2CD4
Accurately ripped (confidence 3) [8E12093B]
Copy OK

Track 9

Filename G:\1_My Music\VUZE Uploads\3D Concepts CD1 (2004)\09 - Loess - Viscer.wav

Pre-gap length 0:00:02.00

Peak level 96.5 %
Track quality 100.0 %
Test CRC FF4BFFFC
Copy CRC FF4BFFFC
Accurately ripped (confidence 3) [CD33E885]
Copy OK

Track 10

Filename G:\1_My Music\VUZE Uploads\3D Concepts CD1 (2004)\10 - Loess - Alt.Tone.Two.wav

Pre-gap length 0:00:02.00

Peak level 96.5 %
Track quality 99.9 %
Test CRC E8B8C0D8
Copy CRC E8B8C0D8
Accurately ripped (confidence 3) [6BEA6139]
Copy OK

Track 11

Filename G:\1_My Music\VUZE Uploads\3D Concepts CD1 (2004)\11 - Loess - Sixt.wav

Pre-gap length 0:00:02.00

Peak level 96.5 %
Track quality 99.9 %
Test CRC 42E77DC1
Copy CRC 42E77DC1
Accurately ripped (confidence 3) [AC253BE0]
Copy OK

All tracks accurately ripped

No errors occurred

End of status report
----------------------------------------------------------------------------

Exact Audio Copy V0.99 prebeta 5 from 4. May 2009

EAC extraction logfile from 19. October 2009, 1:27

Various / 3D Concepts CD2

Used drive : HL-DT-STDVDRAM GMA-4082N Adapter: 0 ID: 0

Read mode : Secure
Utilize accurate stream : Yes
Defeat audio cache : Yes
Make use of C2 pointers : No

Read offset correction : 667
Overread into Lead-In and Lead-Out : No
Fill up missing offset samples with silence : Yes
Delete leading and trailing silent blocks : No
Null samples used in CRC calculations : Yes
Used interface : Installed external ASPI interface
Gap handling : Appended to previous track

Used output format : User Defined Encoder
Selected bitrate : 320 kBit/s
Quality : High
Add ID3 tag : No
Command line compressor : C:\Program Files\Exact Audio Copy\FLAC\FLAC.EXE
Additional command line options : -V -8 -T "artist=%a" -T "title=%t" -T "album=%g" -T "date=%y" -T "tracknumber=%n" -T "genre=%m" %s

TOC of the extracted CD

Track | Start | Length | Start sector | End sector
---------------------------------------------------------
1 | 0:00.00 | 3:40.19 | 0 | 16518
2 | 3:40.19 | 3:19.11 | 16519 | 31454
3 | 6:59.30 | 5:55.15 | 31455 | 58094
4 | 12:54.45 | 3:36.17 | 58095 | 74311
5 | 16:30.62 | 1:04.25 | 74312 | 79136
6 | 17:35.12 | 6:56.16 | 79137 | 110352
7 | 24:31.28 | 3:25.04 | 110353 | 125731
8 | 27:56.32 | 3:44.23 | 125732 | 142554
9 | 31:40.55 | 3:01.34 | 142555 | 156163
10 | 34:42.14 | 3:59.39 | 156164 | 174127
11 | 38:41.53 | 5:59.36 | 174128 | 201088
12 | 44:41.14 | 3:29.32 | 201089 | 216795
13 | 48:10.46 | 3:35.09 | 216796 | 232929

Track 1

Filename G:\1_My Music\VUZE Uploads\3D Concepts CD2 (2004)\01 - Low Profile Society - In.wav

Pre-gap length 0:00:02.00

Peak level 96.5 %
Track quality 100.0 %
Test CRC 352D8712
Copy CRC 352D8712
Accurately ripped (confidence 3) [44FF20EA]
Copy OK

Track 2

Filename G:\1_My Music\VUZE Uploads\3D Concepts CD2 (2004)\02 - Low Profile Society - Example 2.wav

Pre-gap length 0:00:02.00

Peak level 96.5 %
Track quality 100.0 %
Test CRC 92F0081C
Copy CRC 92F0081C
Accurately ripped (confidence 3) [B70FF09E]
Copy OK

Track 3

Filename G:\1_My Music\VUZE Uploads\3D Concepts CD2 (2004)\03 - Low Profile Society - Example 3.wav

Pre-gap length 0:00:02.00

Peak level 91.1 %
Track quality 100.0 %
Test CRC BAC31781
Copy CRC BAC31781
Accurately ripped (confidence 3) [64D3457B]
Copy OK

Track 4

Filename G:\1_My Music\VUZE Uploads\3D Concepts CD2 (2004)\04 - Low Profile Society - Example 4.wav

Pre-gap length 0:00:02.00

Peak level 90.4 %
Track quality 100.0 %
Test CRC CB4A3D91
Copy CRC CB4A3D91
Accurately ripped (confidence 3) [5C248386]
Copy OK

Track 5

Filename G:\1_My Music\VUZE Uploads\3D Concepts CD2 (2004)\05 - Low Profile Society - Example 5.wav

Pre-gap length 0:00:02.00

Peak level 88.8 %
Track quality 100.0 %
Test CRC 727904F2
Copy CRC 727904F2
Accurately ripped (confidence 3) [41FF9B0B]
Copy OK

Track 6

Filename G:\1_My Music\VUZE Uploads\3D Concepts CD2 (2004)\06 - Low Profile Society - Example 6.wav

Pre-gap length 0:00:02.00

Peak level 96.5 %
Track quality 100.0 %
Test CRC 5B70358B
Copy CRC 5B70358B
Accurately ripped (confidence 3) [8D8471EE]
Copy OK

Track 7

Filename G:\1_My Music\VUZE Uploads\3D Concepts CD2 (2004)\07 - Low Profile Society - Example 7.wav

Pre-gap length 0:00:02.00

Peak level 96.5 %
Track quality 100.0 %
Test CRC 3FFF3264
Copy CRC 3FFF3264
Accurately ripped (confidence 3) [7FBBDD5C]
Copy OK

Track 8

Filename G:\1_My Music\VUZE Uploads\3D Concepts CD2 (2004)\08 - Low Profile Society - Example 8.wav

Pre-gap length 0:00:02.00

Peak level 96.5 %
Track quality 100.0 %
Test CRC 630A06B8
Copy CRC 630A06B8
Accurately ripped (confidence 3) [2ABE39E3]
Copy OK

Track 9

Filename G:\1_My Music\VUZE Uploads\3D Concepts CD2 (2004)\09 - Low Profile Society - Out.wav

Pre-gap length 0:00:02.00

Peak level 96.5 %
Track quality 100.0 %
Test CRC 1D21A97C
Copy CRC 1D21A97C
Accurately ripped (confidence 3) [49717870]
Copy OK

Track 10

Filename G:\1_My Music\VUZE Uploads\3D Concepts CD2 (2004)\10 - Low Profile Society - Example 10.wav

Pre-gap length 0:00:02.00

Peak level 96.4 %
Track quality 100.0 %
Test CRC 5E730151
Copy CRC 5E730151
Accurately ripped (confidence 3) [2FF2B731]
Copy OK

Track 11

Filename G:\1_My Music\VUZE Uploads\3D Concepts CD2 (2004)\11 - Low Profile Society - Example 11.wav

Pre-gap length 0:00:02.00

Peak level 96.5 %
Track quality 100.0 %
Test CRC 541CA919
Copy CRC 541CA919
Accurately ripped (confidence 3) [4BAA63CB]
Copy OK

Track 12

Filename G:\1_My Music\VUZE Uploads\3D Concepts CD2 (2004)\12 - Low Profile Society - Example 12.wav

Pre-gap length 0:00:02.00

Peak level 86.0 %
Track quality 100.0 %
Test CRC 32FA38FF
Copy CRC 32FA38FF
Accurately ripped (confidence 3) [0660C4C5]
Copy OK

Track 13

Filename G:\1_My Music\VUZE Uploads\3D Concepts CD2 (2004)\13 - Low Profile Society - Example 13.wav

Pre-gap length 0:00:02.00

Peak level 96.5 %
Track quality 100.0 %
Test CRC 2EBF1330
Copy CRC 2EBF1330
Accurately ripped (confidence 3) [426F47B3]
Copy OK

All tracks accurately ripped

No errors occurred

End of status report


REM GENRE Electronic
REM DATE 2004
REM DISCID 9B0E4F0B
REM COMMENT "ExactAudioCopy v0.99pb5"
FILE "01 - Middle Fields.wav" WAVE
TRACK 01 AUDIO
FLAGS DCP
INDEX 01 00:00:00
TRACK 02 AUDIO
FLAGS DCP
INDEX 00 04:49:28
FILE "02 - The Big Swim.wav" WAVE
INDEX 01 00:00:00
TRACK 03 AUDIO
FLAGS DCP
INDEX 00 03:53:12
FILE "03 - Through The Tubes.wav" WAVE
INDEX 01 00:00:00
TRACK 04 AUDIO
FLAGS DCP
INDEX 00 05:22:37
FILE "04 - Particle 3.wav" WAVE
INDEX 01 00:00:00
TRACK 05 AUDIO
FLAGS DCP
INDEX 00 03:51:19
FILE "05 - Smallest Flame.wav" WAVE
INDEX 01 00:00:00
TRACK 06 AUDIO
FLAGS DCP
INDEX 00 03:51:37
FILE "06 - Mid Point.wav" WAVE
INDEX 01 00:00:00
TRACK 07 AUDIO
FLAGS DCP
INDEX 00 06:27:01
FILE "07 - Retinue.wav" WAVE
INDEX 01 00:00:00
TRACK 08 AUDIO
FLAGS DCP
INDEX 00 05:20:59
FILE "08 - Sofar.wav" WAVE
INDEX 01 00:00:00
TRACK 09 AUDIO
FLAGS DCP
INDEX 00 04:26:24
FILE "09 - Viscer.wav" WAVE
INDEX 01 00:00:00
TRACK 10 AUDIO
FLAGS DCP
INDEX 00 06:18:02
FILE "10 - Alt.Tone.Two.wav" WAVE
INDEX 01 00:00:00
TRACK 11 AUDIO
FLAGS DCP
INDEX 00 08:08:35
FILE "11 - Sixt.wav" WAVE
INDEX 01 00:00:00
------------------------------------------------------------------

REM GENRE Electronic
REM DATE 2004
REM DISCID B50C210D
REM COMMENT "ExactAudioCopy v0.99pb5"
FILE "01 - In.wav" WAVE
TRACK 01 AUDIO
FLAGS DCP
INDEX 01 00:00:00
TRACK 02 AUDIO
FLAGS DCP
INDEX 00 03:38:19
FILE "02 - Example 2.wav" WAVE
INDEX 01 00:00:00
TRACK 03 AUDIO
FLAGS DCP
INDEX 00 03:17:11
FILE "03 - Example 3.wav" WAVE
INDEX 01 00:00:00
TRACK 04 AUDIO
FLAGS DCP
INDEX 00 05:53:15
FILE "04 - Example 4.wav" WAVE
INDEX 01 00:00:00
TRACK 05 AUDIO
FLAGS DCP
INDEX 00 03:34:17
FILE "05 - Example 5.wav" WAVE
INDEX 01 00:00:00
TRACK 06 AUDIO
FLAGS DCP
INDEX 00 01:02:25
FILE "06 - Example 6.wav" WAVE
INDEX 01 00:00:00
TRACK 07 AUDIO
FLAGS DCP
INDEX 00 06:54:16
FILE "07 - Example 7.wav" WAVE
INDEX 01 00:00:00
TRACK 08 AUDIO
FLAGS DCP
INDEX 00 03:23:04
FILE "08 - Example 8.wav" WAVE
INDEX 01 00:00:00
TRACK 09 AUDIO
FLAGS DCP
INDEX 00 03:42:23
FILE "09 - Out.wav" WAVE
INDEX 01 00:00:00
TRACK 10 AUDIO
FLAGS DCP
INDEX 00 02:59:34
FILE "10 - Example 10.wav" WAVE
INDEX 01 00:00:00
TRACK 11 AUDIO
FLAGS DCP
INDEX 00 03:57:39
FILE "11 - Example 11.wav" WAVE
INDEX 01 00:00:00
TRACK 12 AUDIO
FLAGS DCP
INDEX 00 05:57:36
FILE "12 - Example 12.wav" WAVE
INDEX 01 00:00:00
TRACK 13 AUDIO
FLAGS DCP
INDEX 00 03:27:32
FILE "13 - Example 13.wav" WAVE
INDEX 01 00:00:00

Год выпуска: 2003
Продолжительность: 00:40:17
Треклист:

01. Let's Play Cricket (04:33)
02. Un Jour (03:16)
03. Le Ciel (05:30)
04. Qoui Donc M'Importe, Godot?! (01:22)
05. Booga (03:54)
06. L'Appel Des Cors (03:25)
07. Square Two (05:02)
08. From A-5310 To TW2 7Q7 (01:22)
09. Syntax (03:31)
10. 7th Of May (03:50)
11. Back To Basics (04:32)

Exact Audio Copy V0.99 prebeta 4 from 23. January 2008

EAC extraction logfile from 23. April 2009, 14:21

Gimmik / (Back To Basics)

Used drive : TSSTcorpCDDVDW SH-S223F Adapter: 2 ID: 0

Read mode : Secure
Utilize accurate stream : Yes
Defeat audio cache : Yes
Make use of C2 pointers : No

Read offset correction : 6
Overread into Lead-In and Lead-Out : No
Fill up missing offset samples with silence : Yes
Delete leading and trailing silent blocks : No
Null samples used in CRC calculations : Yes
Used interface : Native Win32 interface for Win NT & 2000
Gap handling : Appended to previous track

Used output format : User Defined Encoder
Selected bitrate : 768 kBit/s
Quality : High
Add ID3 tag : No
Command line compressor : C:\Program Files\Exact Audio Copy\FLAC\FLAC.EXE
Additional command line options : -V -8 -T "artist=%a" -T "title=%t" -T "album=%g" -T "date=%y" -T "tracknumber=%n" -T "genre=%m" %s

TOC of the extracted CD

Track | Start | Length | Start sector | End sector
---------------------------------------------------------
1 | 0:00.00 | 4:32.71 | 0 | 20470
2 | 4:32.71 | 3:16.02 | 20471 | 35172
3 | 7:48.73 | 5:30.05 | 35173 | 59927
4 | 13:19.03 | 1:21.45 | 59928 | 66047
5 | 14:40.48 | 3:53.49 | 66048 | 83571
6 | 18:34.22 | 3:24.45 | 83572 | 98916
7 | 21:58.67 | 5:01.72 | 98917 | 121563
8 | 27:00.64 | 1:22.07 | 121564 | 127720
9 | 28:22.71 | 3:30.41 | 127721 | 143511
10 | 31:53.37 | 3:49.44 | 143512 | 160730
11 | 35:43.06 | 4:32.31 | 160731 | 181161

Track 1

Filename I:\FLAC\Upload\Gimmik - (2003) (Back To Basics)\Gimmik - (Back To Basics) - 01 - Let's Play Cricket.wav

Pre-gap length 0:00:02.00

Peak level 96.5 %
Track quality 99.9 %
Test CRC FB11F7AD
Copy CRC FB11F7AD
Accurately ripped (confidence 1) [B4A4FA79]
Copy OK

Track 2

Filename I:\FLAC\Upload\Gimmik - (2003) (Back To Basics)\Gimmik - (Back To Basics) - 02 - Un jour.wav

Pre-gap length 0:00:02.00

Peak level 84.8 %
Track quality 100.0 %
Test CRC 582E8D8B
Copy CRC 582E8D8B
Accurately ripped (confidence 1) [57C3AFA7]
Copy OK

Track 3

Filename I:\FLAC\Upload\Gimmik - (2003) (Back To Basics)\Gimmik - (Back To Basics) - 03 - Le Ciel.wav

Pre-gap length 0:00:02.00

Peak level 96.5 %
Track quality 99.9 %
Test CRC 7E838374
Copy CRC 7E838374
Accurately ripped (confidence 1) [14D652DA]
Copy OK

Track 4

Filename I:\FLAC\Upload\Gimmik - (2003) (Back To Basics)\Gimmik - (Back To Basics) - 04 - Qoui donc m'importe, Godot !.wav

Pre-gap length 0:00:01.69

Peak level 76.7 %
Track quality 100.0 %
Test CRC 9688089F
Copy CRC 9688089F
Accurately ripped (confidence 1) [E1F32A15]
Copy OK

Track 5

Filename I:\FLAC\Upload\Gimmik - (2003) (Back To Basics)\Gimmik - (Back To Basics) - 05 - Booga.wav

Pre-gap length 0:00:02.00

Peak level 94.3 %
Track quality 100.0 %
Test CRC 76809030
Copy CRC 76809030
Accurately ripped (confidence 1) [B7F323C7]
Copy OK

Track 6

Filename I:\FLAC\Upload\Gimmik - (2003) (Back To Basics)\Gimmik - (Back To Basics) - 06 - L'appel des cors.wav

Pre-gap length 0:00:02.00

Peak level 79.1 %
Track quality 100.0 %
Test CRC BCA2D954
Copy CRC BCA2D954
Accurately ripped (confidence 1) [18C52422]
Copy OK

Track 7

Filename I:\FLAC\Upload\Gimmik - (2003) (Back To Basics)\Gimmik - (Back To Basics) - 07 - Square Two.wav

Pre-gap length 0:00:02.00

Peak level 96.7 %
Track quality 100.0 %
Test CRC 4EC677C0
Copy CRC 4EC677C0
Accurately ripped (confidence 1) [F9A1BAE6]
Copy OK

Track 8

Filename I:\FLAC\Upload\Gimmik - (2003) (Back To Basics)\Gimmik - (Back To Basics) - 08 - From A-5310 To TW2 7Q7.wav

Pre-gap length 0:00:02.00

Peak level 91.3 %
Track quality 100.0 %
Test CRC 3700FE5C
Copy CRC 3700FE5C
Accurately ripped (confidence 1) [D74F8521]
Copy OK

Track 9

Filename I:\FLAC\Upload\Gimmik - (2003) (Back To Basics)\Gimmik - (Back To Basics) - 09 - Syntax.wav

Pre-gap length 0:00:02.00

Peak level 96.5 %
Track quality 100.0 %
Test CRC CD99C277
Copy CRC CD99C277
Accurately ripped (confidence 1) [8D9EEF57]
Copy OK

Track 10

Filename I:\FLAC\Upload\Gimmik - (2003) (Back To Basics)\Gimmik - (Back To Basics) - 10 - 7th Of May.wav

Pre-gap length 0:00:02.00

Peak level 96.5 %
Track quality 100.0 %
Test CRC A3B8657E
Copy CRC A3B8657E
Accurately ripped (confidence 1) [20EF3B63]
Copy OK

Track 11

Filename I:\FLAC\Upload\Gimmik - (2003) (Back To Basics)\Gimmik - (Back To Basics) - 11 - Back To Basics.wav

Pre-gap length 0:00:02.00

Peak level 96.5 %
Track quality 100.0 %
Test CRC 388CF1F6
Copy CRC 388CF1F6
Accurately ripped (confidence 1) [E2554E37]
Copy OK

All tracks accurately ripped

No errors occurred

End of status report


REM GENRE Electronic
REM DATE 2003
REM DISCID 77096F0B
REM COMMENT "ExactAudioCopy v0.99pb4"
PERFORMER "Gimmik"
TITLE "(Back To Basics)"
FILE "Gimmik - (Back To Basics) - 01 - Let's Play Cricket.wav" WAVE
TRACK 01 AUDIO
TITLE "Let's Play Cricket"
PERFORMER "Gimmik"
FLAGS DCP
INDEX 01 00:00:00
TRACK 02 AUDIO
TITLE "Un jour"
PERFORMER "Gimmik"
FLAGS DCP
INDEX 00 04:30:71
FILE "Gimmik - (Back To Basics) - 02 - Un jour.wav" WAVE
INDEX 01 00:00:00
TRACK 03 AUDIO
TITLE "Le Ciel"
PERFORMER "Gimmik"
FLAGS DCP
INDEX 00 03:14:02
FILE "Gimmik - (Back To Basics) - 03 - Le Ciel.wav" WAVE
INDEX 01 00:00:00
TRACK 04 AUDIO
TITLE "Qoui donc m'importe, Godot?!"
PERFORMER "Gimmik"
FLAGS DCP
INDEX 00 05:28:11
FILE "Gimmik - (Back To Basics) - 04 - Qoui donc m'importe, Godot !.wav" WAVE
INDEX 01 00:00:00
TRACK 05 AUDIO
TITLE "Booga"
PERFORMER "Gimmik"
FLAGS DCP
INDEX 00 01:19:45
FILE "Gimmik - (Back To Basics) - 05 - Booga.wav" WAVE
INDEX 01 00:00:00
TRACK 06 AUDIO
TITLE "L'appel des cors"
PERFORMER "Gimmik"
FLAGS DCP
INDEX 00 03:51:49
FILE "Gimmik - (Back To Basics) - 06 - L'appel des cors.wav" WAVE
INDEX 01 00:00:00
TRACK 07 AUDIO
TITLE "Square Two"
PERFORMER "Gimmik"
FLAGS DCP
INDEX 00 03:22:45
FILE "Gimmik - (Back To Basics) - 07 - Square Two.wav" WAVE
INDEX 01 00:00:00
TRACK 08 AUDIO
TITLE "From A-5310 To TW2 7Q7"
PERFORMER "Gimmik"
FLAGS DCP
INDEX 00 04:59:72
FILE "Gimmik - (Back To Basics) - 08 - From A-5310 To TW2 7Q7.wav" WAVE
INDEX 01 00:00:00
TRACK 09 AUDIO
TITLE "Syntax"
PERFORMER "Gimmik"
FLAGS DCP
INDEX 00 01:20:07
FILE "Gimmik - (Back To Basics) - 09 - Syntax.wav" WAVE
INDEX 01 00:00:00
TRACK 10 AUDIO
TITLE "7th Of May"
PERFORMER "Gimmik"
FLAGS DCP
INDEX 00 03:28:41
FILE "Gimmik - (Back To Basics) - 10 - 7th Of May.wav" WAVE
INDEX 01 00:00:00
TRACK 11 AUDIO
TITLE "Back To Basics"
PERFORMER "Gimmik"
FLAGS DCP
INDEX 00 03:47:44
FILE "Gimmik - (Back To Basics) - 11 - Back To Basics.wav" WAVE
INDEX 01 00:00:00

Год выпуска: 2004
Продолжительность: 00:24:26
Треклист:

01. Lappi Inzoo (06:54)
02. Tak-Ap (05:16)
03. Lappi Inzoo (Roger That Jr. Remix) (08:17)
04. Eerikson (03:59)

-----------------------

DON'T MODIFY THIS FILE

-----------------------

PERFORMER: auCDtect Task Manager, ver. 1.5.1RC6 build 1.5.1.7
Copyright (c) 2008-2010 y-soft. All rights reserved
http://y-soft.org

ANALYZER: auCDtect: CD records authenticity detector, version 0.8.2
Copyright (c) 2004 Oleg Berngardt. All rights reserved.
Copyright (c) 2004 Alexander Djourik. All rights reserved.

FILE: 04. Eerikson.flac
Size: 21578416 Hash: 0D3EE3F782478B1F1FB4FC66236A3831 Accuracy: -m0
Conclusion: CDDA 100%
Signature: C0E51DDA3CD9CE8521ACB2943F2EADDC935517BF
FILE: 03. Lappi Inzoo (Roger That Jr. Remix).flac
Size: 54225654 Hash: 90E2F1D8DC33248D6C3459575ACFEF49 Accuracy: -m0
Conclusion: CDDA 76%
Signature: 121EF4B11579372BDDBFB9A370FEA39D370EC2C4
FILE: 02. Tak-Ap.flac
Size: 33888543 Hash: CEC4B4AF8CA2728074D02ED69B1E7132 Accuracy: -m0
Conclusion: CDDA 100%
Signature: D67886A7DD190C2BD37BC6B59FDBDCE8B411F002
FILE: 01. Lappi Inzoo.flac
Size: 45193264 Hash: C6AC1D1F976FE195CF49C39E644F67AC Accuracy: -m0
Conclusion: CDDA 100%
Signature: 3E8C1171AE7364A599C66B35521217E5AC97FA64

Год выпуска: 2004
Продолжительность: 01:18:25
Треклист:

01. Koordinate Of Wonder - Horizontal Rain (+5U Pro) (05:44)
02. Abfahrt Hinwil - Everything Is Green (04:25)
03. Num Num - Foot Switch (05:16)
04. Phase Mojo - Resistant Access (07:07)
05. Ochre - Sticklebrick Symphony (04:36)
06. Gimmik - 20th Of June (03:24)
07. Point 7 - Higher Contrast Information (04:39)
08. What Kind Of Sound - Recital (04:39)
09. Koordinate Of Wonder - Seventh Spectrum (04:45)
10. Maps And Diagrams - Movepast (03:47)
11. Sovacusa - Moom (05:03)
12. Cultek - Minds Beyond (10:35)
13. Abfahrt Hinwil - Of 1 (05:05)
14. Boc Scadet - Sel Alterat (04:31)
15. Low Profile Society - Running For Headroom (02:16)
16. Marvin Kirk - 256 Volts For Breakfast (02:33)

EAC extraction logfile from 12. June 2007, 17:37 for CD
Various / Everything Is Green

Used drive : JE6645Q AUS080B Adapter: 5 ID: 0
Read mode : Secure with NO C2, accurate stream, disable cache
Read offset correction : 102
Overread into Lead-In and Lead-Out : No

Used output format : C:\Program Files\FLAC\flac.exe (User Defined Encoder)
128 kBit/s
Additional command line options : -8 -V -T "ARTIST=%a" -T "TITLE=%t" -T "ALBUM=%g" -T "DATE=%y" -T "TRACKNUMBER=%n" -T "GENRE=%m" -T "COMMENT=EAC Flac 1.1.4 -8" %s

Other options :
Fill up missing offset samples with silence : Yes
Delete leading and trailing silent blocks : No
Native Win32 interface for Win NT & 2000

Track 1
Filename Z:\Various - Everything Is Green (2004) [FLAC]\01 - Koordinate Of Wonder - Horizontal Rain (+5U Pro).wav

Peak level 89.5 %
Track quality 99.9 %
Copy CRC 7A8999B4
Copy OK

Track 2
Filename Z:\Various - Everything Is Green (2004) [FLAC]\02 - Abfahrt Hinwil - Everything Is Green.wav

Peak level 98.8 %
Track quality 100.0 %
Copy CRC 4A6E2E02
Copy OK

Track 3
Filename Z:\Various - Everything Is Green (2004) [FLAC]\03 - Num Num - Foot Switch.wav

Peak level 98.8 %
Track quality 99.9 %
Copy CRC F43A991E
Copy OK

Track 4
Filename Z:\Various - Everything Is Green (2004) [FLAC]\04 - Phase Mojo - Resistant Access.wav

Peak level 94.3 %
Track quality 100.0 %
Copy CRC F02CA632
Copy OK

Track 5
Filename Z:\Various - Everything Is Green (2004) [FLAC]\05 - Ochre - Sticklebrick Symphony.wav

Peak level 96.5 %
Track quality 100.0 %
Copy CRC F3E89F14
Copy OK

Track 6
Filename Z:\Various - Everything Is Green (2004) [FLAC]\06 - Gimmik - 20Th Of June.wav

Peak level 96.5 %
Track quality 100.0 %
Copy CRC 9F00557D
Copy OK

Track 7
Filename Z:\Various - Everything Is Green (2004) [FLAC]\07 - Point 7 - Higher Contrast Information.wav

Peak level 90.6 %
Track quality 100.0 %
Copy CRC 5C32F518
Copy OK

Track 8
Filename Z:\Various - Everything Is Green (2004) [FLAC]\08 - What Kind Of Sound - Recital.wav

Peak level 96.5 %
Track quality 100.0 %
Copy CRC 0DBFEB69
Copy OK

Track 9
Filename Z:\Various - Everything Is Green (2004) [FLAC]\09 - Koordinate Of Wonder - Seventh Spectrum.wav

Peak level 84.0 %
Track quality 100.0 %
Copy CRC 51DDFF44
Copy OK

Track 10
Filename Z:\Various - Everything Is Green (2004) [FLAC]\10 - Maps And Diagrams - Movepast.wav

Peak level 81.7 %
Track quality 100.0 %
Copy CRC 5F05B744
Copy OK

Track 11
Filename Z:\Various - Everything Is Green (2004) [FLAC]\11 - Sovacusa - Moom.wav

Peak level 94.3 %
Track quality 100.0 %
Copy CRC E88796B2
Copy OK

Track 12
Filename Z:\Various - Everything Is Green (2004) [FLAC]\12 - Cultek - Minds Beyond.wav

Peak level 95.3 %
Track quality 100.0 %
Copy CRC 381746B4
Copy OK

Track 13
Filename Z:\Various - Everything Is Green (2004) [FLAC]\13 - Abfahrt Hinwil - Of 1.wav

Peak level 98.8 %
Track quality 100.0 %
Copy CRC E0E0BB93
Copy OK

Track 14
Filename Z:\Various - Everything Is Green (2004) [FLAC]\14 - Boc Scadet - Sel Alterat.wav

Peak level 97.1 %
Track quality 100.0 %
Copy CRC CCDA6608
Copy OK

Track 15
Filename Z:\Various - Everything Is Green (2004) [FLAC]\15 - Low Profile Society - Running For Headroom.wav

Peak level 82.2 %
Track quality 100.0 %
Copy CRC 0E546038
Copy OK

Track 16
Filename Z:\Various - Everything Is Green (2004) [FLAC]\16 - Marvin Kirk - 256 Volts For Breakfast.wav

Peak level 98.8 %
Track quality 100.0 %
Copy CRC 8D8062A1
Copy OK

No errors occured

End of status report

------------------------------------------------------------

EAC extraction logfile from 12. June 2007, 17:45 for CD
Various / Everything Is Green

Used drive : JE6645Q AUS080B Adapter: 5 ID: 0
Read mode : Secure with NO C2, accurate stream, disable cache
Read offset correction : 102
Overread into Lead-In and Lead-Out : No

Used output format : C:\Program Files\FLAC\flac.exe (User Defined Encoder)
128 kBit/s
Additional command line options : -8 -V -T "ARTIST=%a" -T "TITLE=%t" -T "ALBUM=%g" -T "DATE=%y" -T "TRACKNUMBER=%n" -T "GENRE=%m" -T "COMMENT=EAC Flac 1.1.4 -8" %s

Other options :
Fill up missing offset samples with silence : Yes
Delete leading and trailing silent blocks : No
Native Win32 interface for Win NT & 2000

Track 1
Filename Z:\Various - Everything Is Green (2004) [FLAC]\01 - Koordinate Of Wonder - Horizontal Rain (+5U Pro).wav

Pre-gap length 0:00:02.00

Peak level 89.5 %
Track quality 99.9 %
Test CRC 7A8999B4
Copy CRC 7A8999B4
Copy OK

Track 2
Filename Z:\Various - Everything Is Green (2004) [FLAC]\02 - Abfahrt Hinwil - Everything Is Green.wav

Pre-gap length 0:00:02.00

Peak level 98.8 %
Track quality 100.0 %
Test CRC 4A6E2E02
Copy CRC 4A6E2E02
Copy OK

Track 3
Filename Z:\Various - Everything Is Green (2004) [FLAC]\03 - Num Num - Foot Switch.wav

Pre-gap length 0:00:02.00

Peak level 98.8 %
Track quality 99.9 %
Test CRC F43A991E
Copy CRC F43A991E
Copy OK

Track 4
Filename Z:\Various - Everything Is Green (2004) [FLAC]\04 - Phase Mojo - Resistant Access.wav

Pre-gap length 0:00:02.00

Peak level 94.3 %
Track quality 100.0 %
Test CRC F02CA632
Copy CRC F02CA632
Copy OK

Track 5
Filename Z:\Various - Everything Is Green (2004) [FLAC]\05 - Ochre - Sticklebrick Symphony.wav

Pre-gap length 0:00:02.00

Peak level 96.5 %
Track quality 100.0 %
Test CRC F3E89F14
Copy CRC F3E89F14
Copy OK

Track 6
Filename Z:\Various - Everything Is Green (2004) [FLAC]\06 - Gimmik - 20Th Of June.wav

Pre-gap length 0:00:02.00

Peak level 96.5 %
Track quality 100.0 %
Test CRC 9F00557D
Copy CRC 9F00557D
Copy OK

Track 7
Filename Z:\Various - Everything Is Green (2004) [FLAC]\07 - Point 7 - Higher Contrast Information.wav

Pre-gap length 0:00:02.00

Peak level 90.6 %
Track quality 100.0 %
Test CRC 5C32F518
Copy CRC 5C32F518
Copy OK

Track 8
Filename Z:\Various - Everything Is Green (2004) [FLAC]\08 - What Kind Of Sound - Recital.wav

Pre-gap length 0:00:02.00

Peak level 96.5 %
Track quality 100.0 %
Test CRC 0DBFEB69
Copy CRC 0DBFEB69
Copy OK

Track 9
Filename Z:\Various - Everything Is Green (2004) [FLAC]\09 - Koordinate Of Wonder - Seventh Spectrum.wav

Pre-gap length 0:00:02.00

Peak level 84.0 %
Track quality 100.0 %
Test CRC 51DDFF44
Copy CRC 51DDFF44
Copy OK

Track 10
Filename Z:\Various - Everything Is Green (2004) [FLAC]\10 - Maps And Diagrams - Movepast.wav

Pre-gap length 0:00:02.00

Peak level 81.7 %
Track quality 100.0 %
Test CRC 5F05B744
Copy CRC 5F05B744
Copy OK

Track 11
Filename Z:\Various - Everything Is Green (2004) [FLAC]\11 - Sovacusa - Moom.wav

Pre-gap length 0:00:02.00

Peak level 94.3 %
Track quality 100.0 %
Test CRC E88796B2
Copy CRC E88796B2
Copy OK

Track 12
Filename Z:\Various - Everything Is Green (2004) [FLAC]\12 - Cultek - Minds Beyond.wav

Pre-gap length 0:00:02.00

Peak level 95.3 %
Track quality 100.0 %
Test CRC 381746B4
Copy CRC 381746B4
Copy OK

Track 13
Filename Z:\Various - Everything Is Green (2004) [FLAC]\13 - Abfahrt Hinwil - Of 1.wav

Pre-gap length 0:00:02.00

Peak level 98.8 %
Track quality 100.0 %
Test CRC E0E0BB93
Copy CRC E0E0BB93
Copy OK

Track 14
Filename Z:\Various - Everything Is Green (2004) [FLAC]\14 - Boc Scadet - Sel Alterat.wav

Pre-gap length 0:00:02.00

Peak level 97.1 %
Track quality 100.0 %
Test CRC CCDA6608
Copy CRC CCDA6608
Copy OK

Track 15
Filename Z:\Various - Everything Is Green (2004) [FLAC]\15 - Low Profile Society - Running For Headroom.wav

Pre-gap length 0:00:02.00

Peak level 82.2 %
Track quality 100.0 %
Test CRC 0E546038
Copy CRC 0E546038
Copy OK

Track 16
Filename Z:\Various - Everything Is Green (2004) [FLAC]\16 - Marvin Kirk - 256 Volts For Breakfast.wav

Pre-gap length 0:00:02.00

Peak level 98.8 %
Track quality 100.0 %
Test CRC 8D8062A1
Copy CRC 8D8062A1
Copy OK

No errors occured

End of status report


REM GENRE Electronic
REM DATE 2004
REM DISCID D8126210
REM COMMENT "ExactAudioCopy v0.95b4"
PERFORMER "Various"
TITLE "Everything Is Green"
FILE "01 - Koordinate Of Wonder - Horizontal Rain (+5U Pro).wav" WAVE
TRACK 01 AUDIO
TITLE "Horizontal Rain (+5U Pro)"
PERFORMER "Koordinate Of Wonder"
INDEX 01 00:00:00
TRACK 02 AUDIO
TITLE "Everything Is Green"
PERFORMER "Abfahrt Hinwil"
INDEX 00 05:41:48
FILE "02 - Abfahrt Hinwil - Everything Is Green.wav" WAVE
INDEX 01 00:00:00
TRACK 03 AUDIO
TITLE "Foot Switch"
PERFORMER "Num Num"
INDEX 00 04:23:07
FILE "03 - Num Num - Foot Switch.wav" WAVE
INDEX 01 00:00:00
TRACK 04 AUDIO
TITLE "Resistant Access"
PERFORMER "Phase Mojo"
INDEX 00 05:14:07
FILE "04 - Phase Mojo - Resistant Access.wav" WAVE
INDEX 01 00:00:00
TRACK 05 AUDIO
TITLE "Sticklebrick Symphony"
PERFORMER "Ochre"
INDEX 00 07:04:67
FILE "05 - Ochre - Sticklebrick Symphony.wav" WAVE
INDEX 01 00:00:00
TRACK 06 AUDIO
TITLE "20Th Of June"
PERFORMER "Gimmik"
INDEX 00 04:34:36
FILE "06 - Gimmik - 20Th Of June.wav" WAVE
INDEX 01 00:00:00
TRACK 07 AUDIO
TITLE "Higher Contrast Information"
PERFORMER "Point 7"
INDEX 00 03:22:27
FILE "07 - Point 7 - Higher Contrast Information.wav" WAVE
INDEX 01 00:00:00
TRACK 08 AUDIO
TITLE "Recital"
PERFORMER "What Kind Of Sound"
INDEX 00 04:36:58
FILE "08 - What Kind Of Sound - Recital.wav" WAVE
INDEX 01 00:00:00
TRACK 09 AUDIO
TITLE "Seventh Spectrum"
PERFORMER "Koordinate Of Wonder"
INDEX 00 04:37:26
FILE "09 - Koordinate Of Wonder - Seventh Spectrum.wav" WAVE
INDEX 01 00:00:00
TRACK 10 AUDIO
TITLE "Movepast"
PERFORMER "Maps And Diagrams"
INDEX 00 04:43:28
FILE "10 - Maps And Diagrams - Movepast.wav" WAVE
INDEX 01 00:00:00
TRACK 11 AUDIO
TITLE "Moom"
PERFORMER "Sovacusa"
INDEX 00 03:44:49
FILE "11 - Sovacusa - Moom.wav" WAVE
INDEX 01 00:00:00
TRACK 12 AUDIO
TITLE "Minds Beyond"
PERFORMER "Cultek"
INDEX 00 05:00:39
FILE "12 - Cultek - Minds Beyond.wav" WAVE
INDEX 01 00:00:00
TRACK 13 AUDIO
TITLE "Of 1"
PERFORMER "Abfahrt Hinwil"
INDEX 00 10:32:53
FILE "13 - Abfahrt Hinwil - Of 1.wav" WAVE
INDEX 01 00:00:00
TRACK 14 AUDIO
TITLE "Sel Alterat"
PERFORMER "Boc Scadet"
INDEX 00 05:03:33
FILE "14 - Boc Scadet - Sel Alterat.wav" WAVE
INDEX 01 00:00:00
TRACK 15 AUDIO
TITLE "Running For Headroom"
PERFORMER "Low Profile Society"
INDEX 00 04:29:19
FILE "15 - Low Profile Society - Running For Headroom.wav" WAVE
INDEX 01 00:00:00
TRACK 16 AUDIO
TITLE "256 Volts For Breakfast"
PERFORMER "Marvin Kirk"
INDEX 00 02:14:17
FILE "16 - Marvin Kirk - 256 Volts For Breakfast.wav" WAVE
INDEX 01 00:00:00

Год выпуска: 2004
Продолжительность: 01:06:19
Треклист:

01. Overlapse (06:19)
02. Yugen (05:40)
03. Low Grav Freefall (High Altitude Mix) (04:32)
04. Revolver (06:24)
05. REM Sleep Research (05:54)
06. Brancaster Coast (03:59)
07. Drink Malk (04:45)
08. Involution (05:29)
09. Eleven (03:02)
10. Seesoar (05:15)
11. Saturniner (02:44)
12. Sticklebrick Symphony (04:36)
13. Summer Lusk (04:50)
14. A Midsummer Nice Dream (02:50)

Ochre / A Midsummer Nice Dream

Used drive : PLEXTOR CD-R PREMIUM Adapter: 1 ID: 1
Read mode : Secure with NO C2, accurate stream, disable cache
Read offset correction : 30
Overread into Lead-In and Lead-Out : Yes

Used output format : Internal WAV Routines
44.100 Hz; 16 Bit; Stereo

Other options :
Fill up missing offset samples with silence : Yes
Delete leading and trailing silent blocks : No
Native Win32 interface for Win NT & 2000

Range status and errors
Selected range
Filename C:\00-Overlapse.wav

Peak level 98.8 %
Range quality 100.0 %
CRC BA28DCA6
Copy OK

No errors occured

End of status report

------------------------------------------------------------

Ochre / A Midsummer Nice Dream

Used drive : PLEXTOR CD-R PREMIUM Adapter: 1 ID: 1
Read mode : Secure with NO C2, accurate stream, disable cache
Read offset correction : 30
Overread into Lead-In and Lead-Out : Yes

Used output format : C:\Program Files\FLAC\flac.exe (User Defined Encoder)
320 kBit/s
Additional command line options : --best -T "ARTIST=%a" -T "TITLE=%t" -T "ALBUM=%g" -T "TRACKNUMBER=%n" %s

Other options :
Fill up missing offset samples with silence : Yes
Delete leading and trailing silent blocks : No
Native Win32 interface for Win NT & 2000

Range status and errors
Selected range
Filename C:\00-Overlapse.wav

Peak level 98.8 %
Range quality 100.0 %
CRC BA28DCA6
Copy OK

No errors occured

End of status report

------------------------------------------------------------

Ochre / A Midsummer Nice Dream

Used drive : PLEXTOR CD-R PREMIUM Adapter: 1 ID: 1
Read mode : Secure with NO C2, accurate stream, disable cache
Read offset correction : 30
Overread into Lead-In and Lead-Out : Yes

Used output format : C:\Program Files\FLAC\flac.exe (User Defined Encoder)
320 kBit/s
Additional command line options : --best -T "ARTIST=%a" -T "TITLE=%t" -T "ALBUM=%g" -T "TRACKNUMBER=%n" %s

Other options :
Fill up missing offset samples with silence : Yes
Delete leading and trailing silent blocks : No
Native Win32 interface for Win NT & 2000

Track 1
Filename C:\01-Yugen.wav

Pre-gap length 0:06:21.00

Peak level 98.8 %
Track quality 100.0 %
Test CRC 693DBA74
Copy CRC 693DBA74
Copy OK

Track 2
Filename C:\02-Low Grav Freefall (High Altitude Mix).wav

Peak level 98.8 %
Track quality 100.0 %
Test CRC BB88CC60
Copy CRC BB88CC60
Copy OK

Track 3
Filename C:\03-Revolver.wav

Peak level 98.8 %
Track quality 100.0 %
Test CRC 282A6329
Copy CRC 282A6329
Copy OK

Track 4
Filename C:\04-REM Sleep Research.wav

Peak level 98.8 %
Track quality 100.0 %
Test CRC 26F759BD
Copy CRC 26F759BD
Copy OK

Track 5
Filename C:\05-Brancaster Coast.wav

Peak level 83.8 %
Track quality 100.0 %
Test CRC C9CE3E9D
Copy CRC C9CE3E9D
Copy OK

Track 6
Filename C:\06-Drink Malk.wav

Peak level 98.9 %
Track quality 100.0 %
Test CRC 12AE2215
Copy CRC 12AE2215
Copy OK

Track 7
Filename C:\07-Involution.wav

Peak level 98.8 %
Track quality 100.0 %
Test CRC 2AA9EA77
Copy CRC 2AA9EA77
Copy OK

Track 8
Filename C:\08-Eleven.wav

Peak level 78.5 %
Track quality 100.0 %
Test CRC 9BE1E6BD
Copy CRC 9BE1E6BD
Copy OK

Track 9
Filename C:\09-Seesoar.wav

Peak level 98.8 %
Track quality 100.0 %
Test CRC 11A8CCA0
Copy CRC 11A8CCA0
Copy OK

Track 10
Filename C:\10-Saturniner.wav

Peak level 73.2 %
Track quality 99.9 %
Test CRC C9BE5FFD
Copy CRC C9BE5FFD
Copy OK

Track 11
Filename C:\11-Sticklebrick Symphony.wav

Peak level 98.8 %
Track quality 100.0 %
Test CRC 7D9149F3
Copy CRC 7D9149F3
Copy OK

Track 12
Filename C:\12-Summer Lusk.wav

Peak level 98.8 %
Track quality 100.0 %
Test CRC 5FB96AB1
Copy CRC 5FB96AB1
Copy OK

Track 13
Filename C:\13-A Midsummer Nice Dream.wav

Peak level 71.4 %
Track quality 99.9 %
Test CRC 2D9052E5
Copy CRC 2D9052E5
Copy OK

No errors occured

End of status report


REM GENRE IDM
REM DATE 2004
REM DISCID C10E100D
REM COMMENT "ExactAudioCopy v0.95b4"
PERFORMER Ochre
TITLE "A Midsummer Nice Dream"
FILE "00. Overlapse.flac" WAVE
TRACK 1 AUDIO
TITLE Overlapse
PERFORMER Ochre
INDEX 01 00:00:00
FILE "01. Yugen.flac" WAVE
TRACK 2 AUDIO
TITLE Yugen
PERFORMER Ochre
INDEX 01 00:00:00
FILE "02. Low Grav Freefall (High Altitude Mix).flac" WAVE
TRACK 3 AUDIO
TITLE "Low Grav Freefall (High Altitude Mix)"
PERFORMER Ochre
INDEX 01 00:00:00
FILE "03. Revolver.flac" WAVE
TRACK 4 AUDIO
TITLE Revolver
PERFORMER Ochre
INDEX 01 00:00:00
FILE "04. REM Sleep Research.flac" WAVE
TRACK 5 AUDIO
TITLE "Rem Sleep Research"
PERFORMER Ochre
INDEX 01 00:00:00
FILE "05. Brancaster Coast.flac" WAVE
TRACK 6 AUDIO
TITLE "Brancaster Coast"
PERFORMER Ochre
INDEX 01 00:00:00
FILE "06. Drink Malk.flac" WAVE
TRACK 7 AUDIO
TITLE "Drink Malk"
PERFORMER Ochre
INDEX 01 00:00:00
FILE "07. Involution.flac" WAVE
TRACK 8 AUDIO
TITLE Involution
PERFORMER Ochre
INDEX 01 00:00:00
FILE "08. Eleven.flac" WAVE
TRACK 9 AUDIO
TITLE Eleven
PERFORMER Ochre
INDEX 01 00:00:00
FILE "09. Seesoar.flac" WAVE
TRACK 10 AUDIO
TITLE Seesoar
PERFORMER Ochre
INDEX 01 00:00:00
FILE "10. Saturniner.flac" WAVE
TRACK 11 AUDIO
TITLE Saturniner
PERFORMER Ochre
INDEX 01 00:00:00
FILE "11. Sticklebrick Symphony.flac" WAVE
TRACK 12 AUDIO
TITLE "Sticklebrick Symphony"
PERFORMER Ochre
INDEX 01 00:00:00
FILE "12. Summer Lusk.flac" WAVE
TRACK 13 AUDIO
TITLE "Summer Lusk"
PERFORMER Ochre
INDEX 01 00:00:00
FILE "13. A Midsummer Nice Dream.flac" WAVE
TRACK 14 AUDIO
TITLE "A Midsummer Nice Dream"
PERFORMER Ochre
INDEX 01 00:00:00

Год выпуска: 2005
Продолжительность: 00:29:22
Треклист:

01. Acoustic Snails (06:51)
02. Ghost (04:44)
03. In Motion (03:43)
04. Plrkel (05:31)
05. Fade (04:32)
06. Jaw Break (04:01)

Exact Audio Copy V0.99 prebeta 5 from 4. May 2009

EAC extraction logfile from 24. July 2010, 14:36

Infinite Scale / Sound Sensor

Used drive : TSSTcorpCDDVDW TS-L633C Adapter: 1 ID: 0

Read mode : Secure
Utilize accurate stream : Yes
Defeat audio cache : Yes
Make use of C2 pointers : No

Read offset correction : 6
Overread into Lead-In and Lead-Out : No
Fill up missing offset samples with silence : Yes
Delete leading and trailing silent blocks : No
Null samples used in CRC calculations : Yes
Used interface : Native Win32 interface for Win NT & 2000
Gap handling : Appended to previous track

Used output format : User Defined Encoder
Selected bitrate : 320 kBit/s
Quality : High
Add ID3 tag : No
Command line compressor : C:\Program Files\Exact Audio Copy\Flac\flac.exe
Additional command line options : -V -8 -T "artist=%a" -T "title=%t" -T "album=%g" -T "date=%y" -T "tracknumber=%n" -T "genre=%m" %s

TOC of the extracted CD

Track | Start | Length | Start sector | End sector
---------------------------------------------------------
1 | 0:00.00 | 6:51.04 | 0 | 30828
2 | 6:51.04 | 4:43.62 | 30829 | 52115
3 | 11:34.66 | 3:42.38 | 52116 | 68803
4 | 15:17.29 | 5:31.05 | 68804 | 93633
5 | 20:48.34 | 4:32.00 | 93634 | 114033
6 | 25:20.34 | 4:00.64 | 114034 | 132097

Track 1

Filename C:\eacrips\01 - Infinite Scale - Acoustic Snails.wav

Pre-gap length 0:00:02.00

Peak level 99.4 %
Track quality 100.0 %
Test CRC 69B84DF2
Copy CRC 69B84DF2
Accurately ripped (confidence 8) [CBC5D176]
Copy OK

Track 2

Filename C:\eacrips\02 - Infinite Scale - Ghost.wav

Pre-gap length 0:00:02.00

Peak level 99.4 %
Track quality 100.0 %
Test CRC B401383E
Copy CRC B401383E
Accurately ripped (confidence 8) [B4CD2CEF]
Copy OK

Track 3

Filename C:\eacrips\03 - Infinite Scale - In Motion.wav

Pre-gap length 0:00:02.00

Peak level 99.4 %
Track quality 99.9 %
Test CRC 73BD5205
Copy CRC 73BD5205
Accurately ripped (confidence 8) [CAD85BCE]
Copy OK

Track 4

Filename C:\eacrips\04 - Infinite Scale - Pirkel.wav

Pre-gap length 0:00:02.00

Peak level 99.4 %
Track quality 99.9 %
Test CRC 50518E4D
Copy CRC 50518E4D
Accurately ripped (confidence 8) [1C1CB6B9]
Copy OK

Track 5

Filename C:\eacrips\05 - Infinite Scale - Fade.wav

Pre-gap length 0:00:02.00

Peak level 99.4 %
Track quality 100.0 %
Test CRC EE4B3938
Copy CRC EE4B3938
Accurately ripped (confidence 8) [2A525140]
Copy OK

Track 6

Filename C:\eacrips\06 - Infinite Scale - Jaw Break.wav

Pre-gap length 0:00:02.00

Peak level 99.4 %
Track quality 100.0 %
Test CRC D410AE1E
Copy CRC D410AE1E
Accurately ripped (confidence 8) [26CCA201]
Copy OK

All tracks accurately ripped

No errors occurred

End of status report


REM GENRE IDM
REM DATE 2005
REM DISCID 4406E106
REM COMMENT "ExactAudioCopy v0.99pb5"
FILE "01 - Infinite Scale - Acoustic Snails.wav" WAVE
TRACK 01 AUDIO
FLAGS DCP
INDEX 01 00:00:00
TRACK 02 AUDIO
FLAGS DCP
INDEX 00 06:49:04
FILE "02 - Infinite Scale - Ghost.wav" WAVE
INDEX 01 00:00:00
TRACK 03 AUDIO
FLAGS DCP
INDEX 00 04:41:62
FILE "03 - Infinite Scale - In Motion.wav" WAVE
INDEX 01 00:00:00
TRACK 04 AUDIO
FLAGS DCP
INDEX 00 03:40:38
FILE "04 - Infinite Scale - Pirkel.wav" WAVE
INDEX 01 00:00:00
TRACK 05 AUDIO
FLAGS DCP
INDEX 00 05:29:05
FILE "05 - Infinite Scale - Fade.wav" WAVE
INDEX 01 00:00:00
TRACK 06 AUDIO
FLAGS DCP
INDEX 00 04:30:00
FILE "06 - Infinite Scale - Jaw Break.wav" WAVE
INDEX 01 00:00:00

Год выпуска: 2005
Продолжительность: 00:26:44
Треклист:

01. Floating Clear (1998) (04:13)
02. Share Some Grammar (1995) (05:54)
03. Typologic (1999) (03:54)
04. Diving-Pool (Num Num RMX) (2000) (04:11)
05. Radar Aviation (1994) (05:31)
06. Scope (1997) (03:01)

-----------------------

DON'T MODIFY THIS FILE

-----------------------

PERFORMER: auCDtect Task Manager, ver. 1.5.1RC6 build 1.5.1.7
Copyright (c) 2008-2010 y-soft. All rights reserved
http://y-soft.org

ANALYZER: auCDtect: CD records authenticity detector, version 0.8.2
Copyright (c) 2004 Oleg Berngardt. All rights reserved.
Copyright (c) 2004 Alexander Djourik. All rights reserved.

FILE: 06. Scope (1997).flac
Size: 11411773 Hash: 3151ECF0892219A742B6DD338325A2D2 Accuracy: -m0
Conclusion: MPEG 100%
Signature: E3E912C9E6C1A9BA22D8FC0BF925EBF88DCCBAE8
FILE: 05. Radar Aviation (1994).flac
Size: 37094097 Hash: 642F282FD84E82B42C6D55A8389684C4 Accuracy: -m0
Conclusion: CDDA 100%
Signature: E5129972888AD5101BF1CEF8F898C206C7E442E2
FILE: 04. Diving-Pool (Num Num RMX) (2000).flac
Size: 26797742 Hash: 1CFA9DD4EF0661D412042D7AE57B6DC0 Accuracy: -m0
Conclusion: CDDA 100%
Signature: 419A29AF83B57B68DDAF162F4904150182A3C398
FILE: 03. Typologic (1999).flac
Size: 28527204 Hash: B393CE33CBE8AE782372B3FF311CB7D5 Accuracy: -m0
Conclusion: CDDA 100%
Signature: F18E4F50CC282454B3833262DD129978EE135FA0
FILE: 02. Share Some Grammar (1995).flac
Size: 42599485 Hash: 0287E56F6BA7BD75DD419C4336C92299 Accuracy: -m0
Conclusion: CDDA 100%
Signature: F4D4E00C6ED1234528D990FD04CBE5294376B89C
FILE: 01. Floating Clear (1998).flac
Size: 29811193 Hash: C6F62BD5B6DBE43F1448346B2E056EE3 Accuracy: -m0
Conclusion: CDDA 100%
Signature: A727DF992E4980E1AB23316C3855964E6DCC4007

Год выпуска: 2009
Продолжительность: 01:17:22
Треклист:

01. Remember Now (07:28)
02. X Insert (06:03)
03. A Computer (09:02)
04. One Movie (03:47)
05. Bit Loop Eddie (07:55)
06. 15th Of July (05:16)
07. Hacker IP (04:18)
08. Dna Conflict (06:17)
09. Ous (08:58)
10. Space Formula (18:18)

Exact Audio Copy V0.99 prebeta 5 from 4. May 2009

EAC extraction logfile from 18. October 2009, 2:44

Point 7 / What?*

Used drive : HL-DT-STDVDRAM GMA-4082N Adapter: 0 ID: 0

Read mode : Secure
Utilize accurate stream : Yes
Defeat audio cache : Yes
Make use of C2 pointers : No

Read offset correction : 667
Overread into Lead-In and Lead-Out : No
Fill up missing offset samples with silence : Yes
Delete leading and trailing silent blocks : No
Null samples used in CRC calculations : Yes
Used interface : Installed external ASPI interface
Gap handling : Appended to previous track

Used output format : User Defined Encoder
Selected bitrate : 320 kBit/s
Quality : High
Add ID3 tag : No
Command line compressor : C:\Program Files\Exact Audio Copy\FLAC\FLAC.EXE
Additional command line options : -V -8 -T "artist=%a" -T "title=%t" -T "album=%g" -T "date=%y" -T "tracknumber=%n" -T "genre=%m" %s

TOC of the extracted CD

Track | Start | Length | Start sector | End sector
---------------------------------------------------------
1 | 0:00.00 | 7:27.39 | 0 | 33563
2 | 7:27.39 | 6:03.07 | 33564 | 60795
3 | 13:30.46 | 9:02.35 | 60796 | 101480
4 | 22:33.06 | 3:46.69 | 101481 | 118499
5 | 26:20.00 | 7:54.49 | 118500 | 154098
6 | 34:14.49 | 5:16.01 | 154099 | 177799
7 | 39:30.50 | 4:18.00 | 177800 | 197149
8 | 43:48.50 | 6:16.54 | 197150 | 225403
9 | 50:05.29 | 8:57.65 | 225404 | 265743
10 | 59:03.19 | 18:17.56 | 265744 | 348074

Track 1

Filename G:\1_My Music\VUZE Uploads\Point 7 - 2009 - What x\01 - Remember Now.wav

Pre-gap length 0:00:02.00

Peak level 99.4 %
Track quality 100.0 %
Test CRC 77975795
Copy CRC 77975795
Track not present in AccurateRip database
Copy OK

Track 2

Filename G:\1_My Music\VUZE Uploads\Point 7 - 2009 - What x\02 - X Insert.wav

Peak level 99.4 %
Track quality 100.0 %
Test CRC 1AC62833
Copy CRC 1AC62833
Track not present in AccurateRip database
Copy OK

Track 3

Filename G:\1_My Music\VUZE Uploads\Point 7 - 2009 - What x\03 - A Computer.wav

Peak level 99.4 %
Track quality 100.0 %
Test CRC D50E7026
Copy CRC D50E7026
Track not present in AccurateRip database
Copy OK

Track 4

Filename G:\1_My Music\VUZE Uploads\Point 7 - 2009 - What x\04 - One Movie.wav

Peak level 99.4 %
Track quality 100.0 %
Test CRC EEFEB8F5
Copy CRC EEFEB8F5
Track not present in AccurateRip database
Copy OK

Track 5

Filename G:\1_My Music\VUZE Uploads\Point 7 - 2009 - What x\05 - Bit Loop Eddie.wav

Peak level 99.4 %
Track quality 100.0 %
Test CRC 00E8D492
Copy CRC 00E8D492
Track not present in AccurateRip database
Copy OK

Track 6

Filename G:\1_My Music\VUZE Uploads\Point 7 - 2009 - What x\06 - 15th Of July.wav

Peak level 99.4 %
Track quality 100.0 %
Test CRC 1ACC6AC5
Copy CRC 1ACC6AC5
Track not present in AccurateRip database
Copy OK

Track 7

Filename G:\1_My Music\VUZE Uploads\Point 7 - 2009 - What x\07 - Hacker IP.wav

Peak level 99.4 %
Track quality 99.9 %
Test CRC B218FCA5
Copy CRC B218FCA5
Track not present in AccurateRip database
Copy OK

Track 8

Filename G:\1_My Music\VUZE Uploads\Point 7 - 2009 - What x\08 - DNA Conflict.wav

Peak level 99.4 %
Track quality 100.0 %
Test CRC 645086C6
Copy CRC 645086C6
Track not present in AccurateRip database
Copy OK

Track 9

Filename G:\1_My Music\VUZE Uploads\Point 7 - 2009 - What x\09 - Ous.wav

Peak level 99.4 %
Track quality 100.0 %
Test CRC 506A21A3
Copy CRC 506A21A3
Track not present in AccurateRip database
Copy OK

Track 10

Filename G:\1_My Music\VUZE Uploads\Point 7 - 2009 - What x\10 - Space Formula, [What [Hidden Track]].wav

Peak level 99.4 %
Track quality 100.0 %
Test CRC E8343616
Copy CRC E8343616
Track not present in AccurateRip database
Copy OK

None of the tracks are present in the AccurateRip database

No errors occurred

End of status report


REM GENRE Electronic
REM DATE 2009
REM DISCID 7D12210A
REM COMMENT "ExactAudioCopy v0.99pb5"
PERFORMER "Point 7"
TITLE "What?"
FILE "01 - Remember Now.flac" WAVE
TRACK 01 AUDIO
TITLE "Remember Now"
PERFORMER "Point 7"
INDEX 01 00:00:00
FILE "02 - X Insert.flac" WAVE
TRACK 02 AUDIO
TITLE "X Insert"
PERFORMER "Point 7"
INDEX 01 00:00:00
FILE "03 - A Computer.flac" WAVE
TRACK 03 AUDIO
TITLE "A Computer"
PERFORMER "Point 7"
INDEX 01 00:00:00
FILE "04 - One Movie.flac" WAVE
TRACK 04 AUDIO
TITLE "One Movie"
PERFORMER "Point 7"
INDEX 01 00:00:00
FILE "05 - Bit Loop Eddie.flac" WAVE
TRACK 05 AUDIO
TITLE "Bit Loop Eddie"
PERFORMER "Point 7"
INDEX 01 00:00:00
FILE "06 - 15th Of July.flac" WAVE
TRACK 06 AUDIO
TITLE "15th Of July"
PERFORMER "Point 7"
INDEX 01 00:00:00
FILE "07 - Hacker IP.flac" WAVE
TRACK 07 AUDIO
TITLE "Hacker IP"
PERFORMER "Point 7"
INDEX 01 00:00:00
FILE "08 - DNA Conflict.flac" WAVE
TRACK 08 AUDIO
TITLE "DNA Conflict"
PERFORMER "Point 7"
INDEX 01 00:00:00
FILE "09 - Ous.flac" WAVE
TRACK 09 AUDIO
TITLE "Ous"
PERFORMER "Point 7"
INDEX 01 00:00:00
FILE "10 - Space Formula [What [Hidden Track]].flac" WAVE
TRACK 10 AUDIO
TITLE "Space Formula [What [Hidden Track]]"
PERFORMER "Point 7"
INDEX 01 00:00:00

Время раздачи: 12/7
[NNMClub.to]_Toytronic FLAC.torrent
 Торрент: Серебряная раздча  Зарегистрирован
 
Примагнититься
Free Leech
Зарегистрируйтесь и скачайте торрент!
58,9 KB
 Зарегистрирован:   20 Ноя 2016 20:07:30
 Размер:   5,27 GB  (
 Рейтинг:    (Голосов: 7)
 Поблагодарили:   21
 Проверка:   Оформление проверено модератором 20 Ноя 2016 20:09:20
Как cкачать  ·  Как раздать  ·  Правильно оформить  ·  Поднять ратио!  
dabud​ashki​n​
Стаж: 4 мес. 20 дней
Сообщений: 21
Ratio: 2,952
26.67%
russia.gif
Высшая проба ! Спасибо большое !
vilator ®
Модератор Музыки
RG Музыки
 
Стаж: 7 лет 7 мес.
Сообщений: 5413
Ratio: 117,583
Поблагодарили: 104039
100%
Откуда: Minsk
pirates.png
dabudashkin писал(а): Перейти к сообщению
Высшая проба

полностью согласен)
MDRobotics
Стаж: 11 мес. 16 дней
Сообщений: 3
Ratio: 23,484
78.75%
Мечтал об этом много лет! Спасибо!
Показать сообщения:   
Начать новую тему   Ответить на тему    Торрент-трекер NNM-Club -> Electronic -> IDM (Lossless) Часовой пояс: GMT + 3
Страница 1 из 1