Интеллигентный торрент-трекер
canvas not supported
Нас вместе: 4 114 816

Грешники и праведники / Outlaws and Angels (2016) BDRip [H.264/720p] [EN]


 
 
RSS
Начать новую тему   Ответить на тему    Торрент-трекер NNM-Club -> Зарубежное кино -> Фильмы в оригинале (HD)
Автор Сообщение
smaster67 ®
Модератор Видео
Покровитель талантов Uploader 300+
Стаж: 7 лет 5 мес.
Сообщений: 6275
Ratio: 180,999
Поблагодарили: 174684
100%
Грешники и праведники / Outlaws and Angels (2016) BDRip [H.264/720p] [EN]

Производство: США
Жанр: триллер, драма, вестерн

Режиссер: ДжейТи Мольнер
Актеры: Чад Майкл Мюррэй, Франческа Фишер-Иствуд, Тери Поло, Фрэнсис Фишер, Люк Уилсон, Бен Браудер, Мэдисен Бити, Река Рене, Стивен Майкл Квезада, Кит Лонекер, Люче Рэйнс, Чейен Филлипс

Описание:
Удирая от погони, шайка преступников, забирается в дом ничего не подозревающего семейства, чтобы укрыться на ночь. Появление непрошенных гостей влечет за собой необратимые последствия для всех членов семьи.



Продолжительность: 01:59:36
Качество видео: BDRip 720p
Перевод: Отсутствует
Язык озвучки: Английский

Видео: AVC, 1280x496 (2.581), 5010 kbps, 23,976 fps, 0,329 bpp
Аудио: DTS / 5.1 / 48 kHz / 1509 kbps / 16 bit
Код: выделить все
General
Unique ID                              Outlaws and Angels_720p.mkv
Format                                   : Matroska
Format version                           : Version 4 / Version 2
File size                                : 5.45 GiB
Duration                                 : 1 h 59 min
Overall bit rate                         : 6 521 kb/s
Encoded date                             : UTC 2016-10-27 11:18:55
Writing application                      : mkvmerge v8.5.0 ('Vanishing Act') 64bit
Writing library                          : libebml v1.3.1 + libmatroska v1.4.2

Video
ID                                       : 1
Format                                   : AVC
Format/Info                              : Advanced Video Codec
Format profile                           : High@L4.1
Format settings, CABAC                   : Yes
Format settings, ReFrames                : 5 frames
Codec ID                                 : V_MPEG4/ISO/AVC
Duration                                 : 1 h 59 min
Bit rate                                 : 5 010 kb/s
Width                                    : 1 280 pixels
Height                                   : 496 pixels
Display aspect ratio                     : 2.581
Frame rate mode                          : Constant
Frame rate                               : 23.976 FPS
Color space                              : YUV
Chroma subsampling                       : 4:2:0
Bit depth                                : 8 bits
Scan type                                : Progressive
Bits/(Pixel*Frame)                       : 0.329
Stream size                              : 4.19 GiB (77%)
Writing library                          : x264 core 148 r2705 3f5ed56
Encoding settings                        : cabac=1 / ref=5 / deblock=1:0:0 / analyse=0x3:0x133 / me=umh / subme=8 / psy=1 / psy_rd=1.00:0.00 / mixed_ref=1 / me_range=16 / chroma_me=1 / trellis=1 / 8x8dct=1 / cqm=0 / deadzone=21,11 / fast_pskip=0 / chroma_qp_offset=-2 / threads=12 / lookahead_threads=2 / sliced_threads=0 / nr=0 / decimate=1 / interlaced=0 / bluray_compat=0 / constrained_intra=0 / bframes=3 / b_pyramid=2 / b_adapt=1 / b_bias=0 / direct=1 / weightb=1 / open_gop=0 / weightp=2 / keyint=250 / keyint_min=23 / scenecut=40 / intra_refresh=0 / rc_lookahead=40 / rc=2pass / mbtree=1 / bitrate=5010 / ratetol=1.0 / qcomp=0.60 / qpmin=0 / qpmax=69 / qpstep=4 / cplxblur=20.0 / qblur=0.5 / ip_ratio=1.40 / aq=1:1.00
Language                                 : English
Default                                  : Yes
Forced                                   : No

Audio
ID                                       : 2
Format                                   : DTS
Format/Info                              : Digital Theater Systems
Mode                                     : 16
Format settings, Endianness              : Big
Codec ID                                 : A_DTS
Duration                                 : 1 h 59 min
Bit rate mode                            : Constant
Bit rate                                 : 1 509 kb/s
Channel(s)                               : 6 channels
Channel positions                        : Front: L C R, Side: L R, LFE
Sampling rate                            : 48.0 kHz
Frame rate                               : 93.750 FPS (512 spf)
Bit depth                                : 16 bits
Compression mode                         : Lossy
Stream size                              : 1.26 GiB (23%)
Default                                  : Yes
Forced                                   : No

Скриншоты:



Все одноименные релизы в Клубе

Время раздачи: с 13:00 до 23:00
[NNMClub.to]_Outlaws and Angels_720p.mkv.torrent
 Торрент: Серебряная раздча  Зарегистрирован
 
Примагнититься
Free Leech
Зарегистрируйтесь и скачайте торрент!
27,4 KB
 Зарегистрирован:   22 Ноя 2016 13:46:15
 Размер:   5,45 GB  (
 Рейтинг:    (Голосов: 8)
 Поблагодарили:   47
 Проверка:   Оформление проверено модератором 22 Ноя 2016 13:47:10
Как cкачать  ·  Как раздать  ·  Правильно оформить  ·  Поднять ратио!  
viktors2
Стаж: 5 лет 1 мес.
Сообщений: 1
Ratio: 31,966
97.42%
mzemze
Стаж: 9 лет 7 мес.
Сообщений: 91
Ratio: 0,995
Поблагодарили: 63
0.7%
Рейтинг на IMDB 5.4, а не 7.1... судя по всему, очччень слабое кинцо...
Cergei1010
Стаж: 7 лет 6 мес.
Сообщений: 135
Ratio: 4,561
0.2%
russia.gif
mzemze писал(а): Перейти к сообщению
Рейтинг на IMDB 5.4, а не 7.1... судя по всему, очччень слабое кинцо...


Как Вы легко слепо верите чужому мнению. Со своим мнением вероятно все плохо :задумался:

_________________
Windows 7 Ultimate SP1 (x64), Блок питания: Corsair TX 850 W, Процессор: Intel(R) Core(TM) i7 CPU 950 @ 3.07GHz
Материнская плата: Gigabyte x58a-ud3r, Видео: Sapphire Radeon HD 7970 1000Mhz 6144Mb 6000Mhz 384 bit, Память: Corsair Vengeance 16 ГБ.
andre​yka28​4​
Стаж: 1 год 2 мес.
Сообщений: 20
Ratio: 4,306
97.87%
Фильм снят в стиле вестерна. В принципе в серых тонах. Смотреть тяжело но интересно. Английский тоже воспринимается не очень "с ходу". Раскрыт конфликт родителей и их детей в свете морали того времени. Можно отнести и к жанру психологического триллера. Спасибо за раздачу smaster67 ®.
Показать сообщения:   
Начать новую тему   Ответить на тему    Торрент-трекер NNM-Club -> Зарубежное кино -> Фильмы в оригинале (HD) Часовой пояс: GMT + 3
Страница 1 из 1