Интеллигентный торрент-трекер
canvas not supported
Нас вместе: 4 328 662

Саутсайд с тобой / Southside with You (2016) BDRip [H.264/720p] [EN / EN Sub]


 
 
RSS
Начать новую тему   Ответить на тему    Торрент-трекер NNM-Club -> Зарубежное кино -> Фильмы в оригинале (HD)
Автор Сообщение
smaster67 ®
Модератор Видео
Покровитель талантов Uploader 300+
Стаж: 8 лет
Сообщений: 6671
Ratio: 202,81
Поблагодарили: 194170
100%
Саутсайд с тобой / Southside with You (2016) BDRip [H.264/720p] [EN / EN Sub]

Производство: США
Жанр: драма, мелодрама, биография

Режиссер: Ричард Танн
Актеры: Тика Самптер, Ванесса Белл Кэллоуэй, Паркер Сойерс, Филлип Эдвард Ван Леар, Дебора Геффнер, Алекс Зеленка, Престон Тейт мл., Джерод Хэйнс, Томас Эдсон МакЭлрой, Джереми Майкл Перейра, Дианна Рид Фостер

Описание:
Чикаго, 1989 год. Молодой студент, Барак Обама, знакомится с начинающим юристом Мишель Робинсон.



Продолжительность: 01:24:00
Качество видео: BDRip
Перевод: Отсутствует
Язык озвучки: Английский
Язык субтитров: английский
Вид субтитров: Вшитые

Видео: AVC, 1280x536 (2.40:1), 5942 kbps, 23,976 fps, 0,361 bpp
Аудио: английский / DTS / 5.1 / 48 kHz / 1509 kbps / 24 bit
Код: выделить все
General
Unique ID                                Southside with You.720p.mkv
Format                                   : Matroska
Format version                           : Version 4 / Version 2
File size                                : 4.37 GiB
Duration                                 : 1 h 24 min
Overall bit rate                         : 7 446 kb/s
Encoded date                             : UTC 2016-12-02 23:59:41
Writing application                      : mkvmerge v8.5.2 ('DiAMOND') 64bit
Writing library                          : libebml v1.3.3 + libmatroska v1.4.4

Video
ID                                       : 1
Format                                   : AVC
Format/Info                              : Advanced Video Codec
Format profile                           : High@L4.1
Format settings, CABAC                   : Yes
Format settings, ReFrames                : 5 frames
Codec ID                                 : V_MPEG4/ISO/AVC
Duration                                 : 1 h 24 min
Bit rate                                 : 5 942 kb/s
Width                                    : 1 280 pixels
Height                                   : 536 pixels
Display aspect ratio                     : 2.40:1
Frame rate mode                          : Constant
Frame rate                               : 23.976 (24000/1001) FPS
Color space                              : YUV
Chroma subsampling                       : 4:2:0
Bit depth                                : 8 bits
Scan type                                : Progressive
Bits/(Pixel*Frame)                       : 0.361
Stream size                              : 3.40 GiB (78%)
Writing library                          : x264 core 148 r2721 72d53ab
Encoding settings                        : cabac=1 / ref=5 / deblock=1:0:0 / analyse=0x3:0x113 / me=umh / subme=8 / psy=1 / psy_rd=1.00:0.00 / mixed_ref=1 / me_range=16 / chroma_me=1 / trellis=1 / 8x8dct=1 / cqm=0 / deadzone=21,11 / fast_pskip=1 / chroma_qp_offset=-2 / threads=24 / lookahead_threads=4 / sliced_threads=0 / nr=0 / decimate=1 / interlaced=0 / bluray_compat=0 / constrained_intra=0 / bframes=3 / b_pyramid=2 / b_adapt=1 / b_bias=0 / direct=3 / weightb=1 / open_gop=0 / weightp=2 / keyint=240 / keyint_min=24 / scenecut=40 / intra_refresh=0 / rc_lookahead=50 / rc=2pass / mbtree=1 / bitrate=5942 / ratetol=1.0 / qcomp=0.60 / qpmin=0 / qpmax=69 / qpstep=4 / cplxblur=20.0 / qblur=0.5 / ip_ratio=1.40 / aq=1:1.00
Language                                 : English
Default                                  : Yes
Forced                                   : No

Audio
ID                                       : 2
Format                                   : DTS
Format/Info                              : Digital Theater Systems
Mode                                     : 16
Format settings, Endianness              : Big
Codec ID                                 : A_DTS
Duration                                 : 1 h 24 min
Bit rate mode                            : Constant
Bit rate                                 : 1 509 kb/s
Channel(s)                               : 6 channels
Channel positions                        : Front: L C R, Side: L R, LFE
Sampling rate                            : 48.0 kHz
Frame rate                               : 93.750 FPS (512 spf)
Bit depth                                : 24 bits
Compression mode                         : Lossy
Stream size                              : 907 MiB (20%)
Language                                 : English
Default                                  : Yes
Forced                                   : No

Text #1
ID                                       : 3
Format                                   : UTF-8
Codec ID                                 : S_TEXT/UTF8
Codec ID/Info                            : UTF-8 Plain Text
Title                                    : English regular
Language                                 : English
Default                                  : No
Forced                                   : No

Text #2
ID                                       : 4
Format                                   : UTF-8
Codec ID                                 : S_TEXT/UTF8
Codec ID/Info                            : UTF-8 Plain Text
Title                                    : English SDH
Language                                 : English
Default                                  : No
Forced                                   : No

Menu
00:00:00.000                             : en:00:00:00.000
00:09:37.243                             : en:00:09:37.243
00:13:50.455                             : en:00:13:50.455
00:22:14.583                             : en:00:22:14.583
00:28:40.385                             : en:00:28:40.385
00:31:54.329                             : en:00:31:54.329
00:40:49.614                             : en:00:40:49.614
00:46:49.932                             : en:00:46:49.932
00:55:45.092                             : en:00:55:45.092
01:02:06.473                             : en:01:02:06.473
01:09:52.897                             : en:01:09:52.897
01:16:11.776                             : en:01:16:11.776
01:20:56.226                             : en:01:20:56.226

Скриншоты:



Все одноименные релизы в Клубе

Время раздачи: с 13:00 до 23:00
[NNMClub.to]_Southside with You.720p.mkv.torrent
 Торрент: Серебряная раздча  Зарегистрирован
 
Примагнититься

Зарегистрируйтесь и скачайте торрент!
22 KB
 Зарегистрирован:   03 Дек 2016 10:10:21
 Размер:   4,37 GB  (
 Рейтинг:   2,6 (Голосов: 11)
 Поблагодарили:   27
 Проверка:   Оформление проверено модератором 03 Дек 2016 10:11:40
Как cкачать  ·  Как раздать  ·  Правильно оформить  ·  Поднять ратио!  
CrashMaker
Только чтение
Стаж: 6 лет 3 мес.
Сообщений: 490
Ratio: 21,727
Раздал: 27,41 TB
Поблагодарили: 65
100%
Откуда: рожденный в СССР
ussr.gif
without comments, I in horror

_________________
„Народ, не имеющий национального самосознания — есть навоз, на котором произрастают другие народы.“
П.А. Столыпин.
Государство-агрессор - это государство, напавшее на другое государство без объявления войны раньше США.
WaltMonti
Стаж: 6 лет 2 мес.
Сообщений: 32
Ratio: 2,084
65.5%
kazakhstan.gif
Прокрутил. Стер. Ну и дрянь!!!В конце титры минут на 10! Вот так и сайт для obamacare был сделан как этот фильм - он не работал. И правил лет этот поганец так же. Показали бы как он учился, с кем... Заодно включили бы почему и он и она выбрали suspend свои лицензии адвокатские.
Показать сообщения:   
Начать новую тему   Ответить на тему    Торрент-трекер NNM-Club -> Зарубежное кино -> Фильмы в оригинале (HD) Часовой пояс: GMT + 3
Страница 1 из 1