Интеллигентный торрент-трекер
canvas not supported
Нас вместе: 4 348 674

Чувство справедливости / Equity (2016) BDRip


 
 
RSS
Начать новую тему   Ответить на тему    Торрент-трекер NNM-Club -> Архив торрентов -> Архив Видео
Автор Сообщение
den-ru801 ®
Стаж: 2 года 5 мес.
Сообщений: 680
Ratio: 686,948
Поблагодарили: 249021
100%
russia.gif
Чувство справедливости / Equity (2016) BDRip

Производство: США, Broad Street Pictures
Жанр: драма

Режиссер: Мира Менон
Актеры: Анна Ганн, Джеймс Пьюрфой, Сара Меган Томас, Алисия Райнер, Крэйг Бирко, Маргарет Колин, Нэйт Корддри, Ник Гелфусс, Кэрри Престон, Сэмюэл Рукин, Трейси Томс, Ли Тергесен

Описание:
История старшего инвестиционного банкира, которой вопреки нависшему над ней финансовому скандалу предстоит раскрыть коррупционные схемы.


Рейтинг MPAA: R (лицам до 17 лет обязательно присутствие взрослого)
Дата мировой премьеры: 26 января 2016

Релиз от: MegaPeer
Продолжительность: 01:40:21
Качество видео: BDRip
Перевод: Многоголосый закадровый, профессиональный (iTunes)
Субтитры: Отсутствуют

Видео: Xvid, 704x384, ~ 1627 kbps
Аудио: AC3, 6 ch, 384 Kbps
Код: выделить все
Общее
Полное имя                               : F:\Equity.2016.BDRip.NNM-CLUB.avi
Формат                                   : AVI
Формат/Информация                        : Audio Video Interleave
Размер файла                             : 1,41 Гбайт
Продолжительность                        : 1 ч. 40 м.
Общий поток                              : 2019 Кбит/сек

Видео
Идентификатор                            : 0
Формат                                   : MPEG-4 Visual
Профиль формата                          : Advanced Simple@L5
Параметр BVOP формата                    : 1
Параметр QPel формата                    : Нет
Параметр GMC формата                     : Без точки перехода
Параметр матрицы формата                 : Выборочная
Идентификатор кодека                     : XVID
Идентификатор кодека/Подсказка           : XviD
Продолжительность                        : 1 ч. 40 м.
Битрейт                                  : 1627 Кбит/сек
Ширина                                   : 704 пикселя
Высота                                   : 384 пикселя
Соотношение сторон                       : 1,85:1
Частота кадров                           : 23,976 (24000/1001) кадра/сек
Цветовое пространство                    : YUV
Субдискретизация насыщенности            : 4:2:0
Битовая глубина                          : 8 бит
Тип развёртки                            : Прогрессивная
Метод сжатия                             : С потерями
Бит/(Пиксели*Кадры)                      : 0.251
Размер потока                            : 1,14 Гбайт (81%)
Библиотека кодирования                   : XviD 73

Аудио
Идентификатор                            : 1
Формат                                   : AC-3
Формат/Информация                        : Audio Coding 3
Расширение режима                        : CM (complete main)
Параметр Endianness формата              : Big
Идентификатор кодека                     : 2000
Продолжительность                        : 1 ч. 40 м.
Вид битрейта                             : Постоянный
Битрейт                                  : 384 Кбит/сек
Каналы                                   : 6 каналов
Расположение каналов                     : Front: L C R, Side: L R, LFE
Частота                                  : 48,0 КГц
Частота кадров                           : 31,250 кадров/сек (1536 spf)
Метод сжатия                             : С потерями
Размер потока                            : 276 Мбайт (19%)
Выравнивание                             : Соединение по промежуткам
Продолжительность промежутка             : 64  мс. (1,53 видеокадра)
Время предзагрузки промежутка            : 192  мс.
Заголовок                                : iTunes

Скриншоты:



Все одноименные релизы в Клубе

Время раздачи: 24/7 до 10 скачавших
[NNMClub.to]_Equity.2016.BDRip.NNM-CLUB.avi.torrent
 Торрент: Платиновая раздача  Зарегистрирован
 
Примагнититься

Скачать
 Зарегистрирован:   12 Дек 2016 07:15:47
 Размер:   1,41 GB  (
 Рейтинг:   4,8 (Голосов: 25)
 Поблагодарили:   191
 Проверка:   Оформление проверено модератором 12 Дек 2016 08:50:16
Как cкачать  ·  Как раздать  ·  Правильно оформить  ·  Поднять ратио!  
Загрузка...
den-ru801 ®
Стаж: 2 года 5 мес.
Сообщений: 680
Ratio: 686,948
Поблагодарили: 249021
100%
russia.gif
http://www.imdb.com/title/tt3958780/

_________________
pkua
Стаж: 3 года 4 мес.
Сообщений: 16
Ratio: 1,785
0.08%
ukraine.gif
Скайлер (Анна Ганн) еще со Во все тяжкие бесит!
Foxivox
Стаж: 3 года 7 мес.
Сообщений: 143
Ratio: 16,254
100%
pkua писал(а): Перейти к сообщению
Скайлер (Анна Ганн) еще со Во все тяжкие бесит!

Хорошо сыграла значит. Тоже бесит)))
Топик был перенесен из форума Зарубежные Новинки (HD*Rip/LQ, DVDRip) в форум Зарубежные Фильмы (HD*Rip/LQ, DVDRip, SATRip, VHSRip)



Исправил релиз - напиши ЛС Full HD Video, дав ссылку на релиз.
Если нет ответа 24 часа - нажми на кнопку "Обратить внимание модераторов".
Топик был перенесен из форума Зарубежные Фильмы (HD*Rip/LQ, DVDRip, SATRip, VHSRip) в форум Архив Видео

Причина переноса: http://nnmclub.to/forum/viewtopic.php?t=1109157

Исправил релиз - напиши ЛС ra3wa, дав ссылку на релиз.
Если нет ответа 24 часа - нажми на кнопку "Обратить внимание модераторов".
Показать сообщения:   
Начать новую тему   Ответить на тему    Торрент-трекер NNM-Club -> Архив торрентов -> Архив Видео Часовой пояс: GMT + 3
Страница 1 из 1