Интеллигентный торрент-трекер
canvas not supported
Нас вместе: 4 348 008

Специалист | Язык программирования C# 6.0 (2016) PCRec


 
 
RSS
Начать новую тему   Ответить на тему    Торрент-трекер NNM-Club -> Обучающие видеоматериалы -> Компьютеры
Автор Сообщение
Trovel ®
Стаж: 6 лет 3 мес.
Сообщений: 3075
Ratio: 41,177
Поблагодарили: 832642
100%
Специалист | Язык программирования C# 6.0 (2016) PCRec
Автор (режиссер): Специалист
Преподаватель: Александр Кораблин
Жанр: Программирование, C#

Описание:
Язык программирования C# - один из самых востребованных и динамично развивающихся языков программирования в отрасли IT, который используется для разработки приложений на платформе Microsoft .Net.

Окончив авторский курс «Язык программирования C# 6.0», Вы освоите объектно-ориентированный язык программирования C# 6.0, научитесь использовать интегрированную среду разработки Visual Studio 2015 и приобретете базовые навыки создания объектно-ориентированных приложений.

В ходе занятий рассматриваются все элементы и конструкции языка программирования C# и возможности платформы .Net. Вам будет предложено достаточное количество примеров и лабораторных работ, что позволит практически сразу после окончания курса приступить к реальной работе.

Продолжительность: 17:06:29
Качество видео: PCRec

Видео: AVC, ~562 Kbps, 1920x1080/1278x720/1364x768
Аудио: AAC, 318 Kbps, 48.0 KHz
  • Разбираться в .Net технологиях.
  • Работать и создавать структурные типы данных.
  • Использовать ветвление и циклы.
  • Создавать методы на C#.
  • Работать с массивами и со строками.
  • Разрабатывать классы на C#.
  • Использовать наследование и полиморфизм.
  • Разрабатывать абстрактные классы и интерфейсы.
  • Обрабатывать ошибки, возникающие в программе.
  • Работать с файловой системой.
  • Пользоваться коллекциями .Net.
  • Использовать в программе параметризованные типы.
  • Работать с событиями, делегатами и лямбда-выражениями.
  • Использовать перегрузку операций и расширяющие методы.
  • Получите представление о LINQ.
Код: выделить все
General
Format                         : MPEG-4
Format profile                 : Base Media / Version 2
Codec ID                       : mp42
File size                      : 1.39 GiB
Duration                       : 3h 45mn
Overall bit rate mode          : Variable
Overall bit rate               : 882 Kbps
Encoded date                   : UTC 2016-10-02 12:36:05
Tagged date                    : UTC 2016-10-02 12:36:05

Video
ID                             : 1
Format                         : AVC
Format/Info                    : Advanced Video Codec
Format profile                 : Baseline@L4
Format settings, CABAC         : No
Format settings, ReFrames      : 3 frames
Codec ID                       : avc1
Codec ID/Info                  : Advanced Video Coding
Duration                       : 3h 45mn
Bit rate                       : 562 Kbps
Width                          : 1 920 pixels
Height                         : 1 080 pixels
Display aspect ratio           : 16:9
Frame rate mode                : Constant
Frame rate                     : 30.000 fps
Standard                       : NTSC
Color space                    : YUV
Chroma subsampling             : 4:2:0
Bit depth                      : 8 bits
Scan type                      : Progressive
Bits/(Pixel*Frame)             : 0.009
Stream size                    : 906 MiB (64%)
Language                       : English
Encoded date                   : UTC 2016-10-02 12:36:05
Tagged date                    : UTC 2016-10-02 12:36:05
Color range                    : Limited

Audio
ID                             : 2
Format                         : AAC
Format/Info                    : Advanced Audio Codec
Format profile                 : LC
Codec ID                       : 40
Duration                       : 3h 45mn
Source duration                : 3h 45mn
Bit rate mode                  : Variable
Bit rate                       : 318 Kbps
Maximum bit rate               : 414 Kbps
Channel(s)                     : 2 channels
Channel positions              : Front: L R
Sampling rate                  : 44.1 KHz
Compression mode               : Lossy
Stream size                    : 512 MiB (36%)
Source stream size             : 512 MiB (36%)
Language                       : English
Encoded date                   : UTC 2016-10-02 12:36:05
Tagged date                    : UTC 2016-10-02 12:36:05
Код: выделить все
General
Format                         : MPEG-4
Format profile                 : Base Media / Version 2
Codec ID                       : mp42
File size                      : 1.27 GiB
Duration                       : 4h 34mn
Overall bit rate mode          : Variable
Overall bit rate               : 664 Kbps
Movie name                     : day 2 (module 4-6)
Encoded date                   : UTC 2016-10-04 16:38:28
Tagged date                    : UTC 2016-10-04 16:38:28

Video
ID                             : 1
Format                         : AVC
Format/Info                    : Advanced Video Codec
Format profile                 : Baseline@L3.1
Format settings, CABAC         : No
Format settings, ReFrames      : 3 frames
Codec ID                       : avc1
Codec ID/Info                  : Advanced Video Coding
Duration                       : 4h 34mn
Bit rate                       : 343 Kbps
Width                          : 1 278 pixels
Height                         : 720 pixels
Display aspect ratio           : 16:9
Frame rate mode                : Constant
Frame rate                     : 30.000 fps
Standard                       : NTSC
Color space                    : YUV
Chroma subsampling             : 4:2:0
Bit depth                      : 8 bits
Scan type                      : Progressive
Bits/(Pixel*Frame)             : 0.012
Stream size                    : 675 MiB (52%)
Language                       : English
Encoded date                   : UTC 2016-10-04 16:38:28
Tagged date                    : UTC 2016-10-04 16:38:28
Color range                    : Limited

Audio
ID                             : 2
Format                         : AAC
Format/Info                    : Advanced Audio Codec
Format profile                 : LC
Codec ID                       : 40
Duration                       : 4h 34mn
Bit rate mode                  : Variable
Bit rate                       : 318 Kbps
Maximum bit rate               : 436 Kbps
Channel(s)                     : 2 channels
Channel positions              : Front: L R
Sampling rate                  : 44.1 KHz
Compression mode               : Lossy
Stream size                    : 625 MiB (48%)
Language                       : English
Encoded date                   : UTC 2016-10-04 16:38:28
Tagged date                    : UTC 2016-10-04 16:38:28
Код: выделить все
General
Format                         : MPEG-4
Format profile                 : Base Media / Version 2
Codec ID                       : mp42
File size                      : 879 MiB
Duration                       : 3h 5mn
Overall bit rate mode          : Variable
Overall bit rate               : 662 Kbps
Encoded date                   : UTC 2016-10-02 16:05:09
Tagged date                    : UTC 2016-10-02 16:05:09

Video
ID                             : 1
Format                         : AVC
Format/Info                    : Advanced Video Codec
Format profile                 : Baseline@L3.2
Format settings, CABAC         : No
Format settings, ReFrames      : 3 frames
Codec ID                       : avc1
Codec ID/Info                  : Advanced Video Coding
Duration                       : 3h 5mn
Bit rate                       : 342 Kbps
Width                          : 1 364 pixels
Height                         : 768 pixels
Display aspect ratio           : 16:9
Frame rate mode                : Constant
Frame rate                     : 30.000 fps
Standard                       : NTSC
Color space                    : YUV
Chroma subsampling             : 4:2:0
Bit depth                      : 8 bits
Scan type                      : Progressive
Bits/(Pixel*Frame)             : 0.011
Stream size                    : 454 MiB (52%)
Language                       : English
Encoded date                   : UTC 2016-10-02 16:05:09
Tagged date                    : UTC 2016-10-02 16:05:09
Color range                    : Limited

Audio
ID                             : 2
Format                         : AAC
Format/Info                    : Advanced Audio Codec
Format profile                 : LC
Codec ID                       : 40
Duration                       : 3h 5mn
Bit rate mode                  : Variable
Bit rate                       : 318 Kbps
Maximum bit rate               : 452 Kbps
Channel(s)                     : 2 channels
Channel positions              : Front: L R
Sampling rate                  : 44.1 KHz
Compression mode               : Lossy
Stream size                    : 422 MiB (48%)
Language                       : English
Encoded date                   : UTC 2016-10-02 16:05:09
Tagged date                    : UTC 2016-10-02 16:05:09
Код: выделить все
General
Format                         : MPEG-4
Format profile                 : Base Media / Version 2
Codec ID                       : mp42
File size                      : 343 MiB
Duration                       : 1h 10mn
Overall bit rate mode          : Variable
Overall bit rate               : 683 Kbps
Encoded date                   : UTC 2016-10-04 14:50:53
Tagged date                    : UTC 2016-10-04 14:50:53

Video
ID                             : 1
Format                         : AVC
Format/Info                    : Advanced Video Codec
Format profile                 : Baseline@L3.2
Format settings, CABAC         : No
Format settings, ReFrames      : 3 frames
Codec ID                       : avc1
Codec ID/Info                  : Advanced Video Coding
Duration                       : 1h 10mn
Bit rate                       : 362 Kbps
Width                          : 1 364 pixels
Height                         : 768 pixels
Display aspect ratio           : 16:9
Frame rate mode                : Constant
Frame rate                     : 30.000 fps
Standard                       : NTSC
Color space                    : YUV
Chroma subsampling             : 4:2:0
Bit depth                      : 8 bits
Scan type                      : Progressive
Bits/(Pixel*Frame)             : 0.012
Stream size                    : 182 MiB (53%)
Language                       : English
Encoded date                   : UTC 2016-10-04 14:50:53
Tagged date                    : UTC 2016-10-04 14:50:53
Color range                    : Limited

Audio
ID                             : 2
Format                         : AAC
Format/Info                    : Advanced Audio Codec
Format profile                 : LC
Codec ID                       : 40
Duration                       : 1h 10mn
Source duration                : 1h 10mn
Bit rate mode                  : Variable
Bit rate                       : 318 Kbps
Maximum bit rate               : 422 Kbps
Channel(s)                     : 2 channels
Channel positions              : Front: L R
Sampling rate                  : 44.1 KHz
Compression mode               : Lossy
Stream size                    : 160 MiB (47%)
Source stream size             : 160 MiB (47%)
Language                       : English
Encoded date                   : UTC 2016-10-04 14:50:53
Tagged date                    : UTC 2016-10-04 14:50:53
Код: выделить все
General
Format                         : MPEG-4
Format profile                 : Base Media / Version 2
Codec ID                       : mp42
File size                      : 1.38 GiB
Duration                       : 4h 30mn
Overall bit rate mode          : Variable
Overall bit rate               : 730 Kbps
Movie name                     : Untitled
Encoded date                   : UTC 2016-10-02 21:34:30
Tagged date                    : UTC 2016-10-02 21:34:30

Video
ID                             : 1
Format                         : AVC
Format/Info                    : Advanced Video Codec
Format profile                 : Baseline@L3.2
Format settings, CABAC         : No
Format settings, ReFrames      : 3 frames
Codec ID                       : avc1
Codec ID/Info                  : Advanced Video Coding
Duration                       : 4h 30mn
Bit rate                       : 409 Kbps
Width                          : 1 364 pixels
Height                         : 768 pixels
Display aspect ratio           : 16:9
Frame rate mode                : Constant
Frame rate                     : 30.000 fps
Standard                       : NTSC
Color space                    : YUV
Chroma subsampling             : 4:2:0
Bit depth                      : 8 bits
Scan type                      : Progressive
Bits/(Pixel*Frame)             : 0.013
Stream size                    : 791 MiB (56%)
Language                       : English
Encoded date                   : UTC 2016-10-02 21:34:30
Tagged date                    : UTC 2016-10-02 21:34:30
Color range                    : Limited

Audio
ID                             : 2
Format                         : AAC
Format/Info                    : Advanced Audio Codec
Format profile                 : LC
Codec ID                       : 40
Duration                       : 4h 30mn
Bit rate mode                  : Variable
Bit rate                       : 318 Kbps
Maximum bit rate               : 434 Kbps
Channel(s)                     : 2 channels
Channel positions              : Front: L R
Sampling rate                  : 44.1 KHz
Compression mode               : Lossy
Stream size                    : 614 MiB (44%)
Language                       : English
Encoded date                   : UTC 2016-10-02 21:34:30
Tagged date                    : UTC 2016-10-02 21:34:30
Скриншоты:

Время раздачи: 24/7 (до появления первых 3-5 скачавших)
[NNMClub.to]_YAzyik programmirovaniya C# 6.0.torrent
 Торрент: Платиновая раздача  Зарегистрирован
 
Примагнититься

Скачать
 Зарегистрирован:   24 Дек 2016 20:39:26
 Размер:   5,24 GB  (
 Рейтинг:   4,8 (Голосов: 102)
 Поблагодарили:   446
 Проверка:   Оформление проверено модератором 29 Дек 2016 12:01:54
Как cкачать  ·  Как раздать  ·  Правильно оформить  ·  Поднять ратио!  
Scorp​ionnn​87​
Стаж: 5 лет 9 мес.
Сообщений: 12
Ratio: 4,862
Поблагодарили: 520
0%
russia.gif
Кстати да. Действительно есть они в сети. Нашел правда не сразу и не сказал бы, что на известном трекере...

В общем гуглите по фразе - специалист "СЕН2" 2016

Именно с кавычками. Там на трекере зарегистрироваться надо будет, иначе вместо торрент-файла exe-шник прилетает.

P.S. Третья часть будет отображаться на том же трекере, после блока со скачиванием. Там что-то типа "похожие темы" наверное.
rasalbzya
Стаж: 5 лет 5 мес.
Сообщений: 27
Ratio: 4,419
2.05%
...вода, вода, кругом вода ...много воды в этом курсе
picas​so199​2​
Стаж: 3 года 10 мес.
Сообщений: 6
Ratio: 1,827
5.2%
russia.gif
я так понимаю с курсами от ITVDN нет смысла сравнивать?
Веди
Стаж: 5 мес. 20 дней
Сообщений: 12
100%
Годно.
djey39
Стаж: 4 года 2 мес.
Сообщений: 53
Ratio: 27,709
Поблагодарили: 6
100%
Цитата:
первую часть


https://nnmclub.to/forum/viewtopic.php?t=1073374
Arxus

Online
Стаж: 2 года 5 мес.
Сообщений: 62
Ratio: 18,701
Поблагодарили: 16915
100%
Цитата:
Запустил две ссылки magnet в uTorrent, автоматом началась закачка на сетевой диск C:/, остановил
закачку, удалил загруженные (незначительную часть) данные в корзину, удалил закачку в uTorrent. Затем зашел: Users>user(здесь у кого как)>AppData>Roaming>uTorrent и запустил два готовых торрента ( уже "соэданных" самой программой) CHFI video и ECSA Video прямо из этой папки программы уже на диск D:/ в нужную мне папочку. Может кому и пригодится... Закачка идет полным ходом на данный момент времени.

И в чем смысл данной манипуляции... Запускаете магнет ссылку, открывается торрент клиент, ждете несколько секунд, а дальше всё как обычно
renault2c
Стаж: 2 года 1 мес.
Сообщений: 72
Ratio: 1,217
21.37%
Arxus писал(а): Перейти к сообщению
Цитата:
Запустил две ссылки magnet в uTorrent, автоматом началась закачка на сетевой диск C:/, остановил
закачку, удалил загруженные (незначительную часть) данные в корзину, удалил закачку в uTorrent. Затем зашел: Users>user(здесь у кого как)>AppData>Roaming>uTorrent и запустил два готовых торрента ( уже "соэданных" самой программой) CHFI video и ECSA Video прямо из этой папки программы уже на диск D:/ в нужную мне папочку. Может кому и пригодится... Закачка идет полным ходом на данный момент времени.

И в чем смысл данной манипуляции... Запускаете магнет ссылку, открывается торрент клиент, ждете несколько секунд, а дальше всё как обычно


Торрент-клиент magnet ссылку запускает и автоматом (magnet) качает на сетевой диск (по крайней мере эти две почему то?, обычно диалоговое окно), оно мне надо... Да и торрент-клиент (и не один) у меня Portable... и думаю лучше в архиве иметь готовый торрент, чем magnet... ИМХО...
saman​taswe​ety​
Стаж: 8 лет 1 мес.
Сообщений: 1382
Ratio: 49,842
Поблагодарили: 31
100%
Откуда: наша раша
ussr.gif
picasso1992 писал(а): Перейти к сообщению
я так понимаю с курсами от ITVDN нет смысла сравнивать?

Поддерживаю вопрос!
вода?
Felox1995
Стаж: 5 мес. 16 дней
Сообщений: 1
Ratio: 13,702
100%
Подскажите, пожалуйста, кто начинал смотреть. Я дошел до 5 дня. Видео "4 день" заканчивается на модуле 10, а "5 день" начинается уже с 13 модуля. Получается, что у части презентаций нет видеообъяснения. Или я просто невнимательно смотрел?

Добавлено спустя 10 минут 46 секунд:

samantasweety писал(а): Перейти к сообщению
picasso1992 писал(а): Перейти к сообщению
я так понимаю с курсами от ITVDN нет смысла сравнивать?

Поддерживаю вопрос!
вода?


Я немного смотрел видеокурсы от ITVDN, именно для C#. В CBSystematics (ITVDN) рассказывается очень подробно с объяснениями, может быть для кого-то даже местами нудно и затянуто. И получается что, например, видеокурс "C# базовый" по продолжительности занимает часов 35 (может чуть больше или чуть меньше), но, повторюсь, тщательно и неплохо все объясняется.

Что касается этого видеокурса (от специалиста), то тут за 17 часов объясняется очень многие моменты. Конечно, не так подробно. Большинство примеров автор показывает на презентации, что-то там рисует. Изредка программирует в среде и там дает пояснения.

Если хотите более углубленно изучить язык, то лучше видеокурс от ITVDN (у них же еще есть "C# для профессионалов", там еще более углубленно дается материал), а если просто пробежаться по синтаксису, знать, что такое есть (к примеру, смотришь на код, и понимаешь - "это вот делегат, это вот интерфейс..."), то можно посмотреть видеокурс от "Специалиста".

Лично мне, как начинающему программисту, подойдет больше этот видеокурс. Во-первых, и по времени короче, во-вторых, мне хотя бы знать синтаксис (как я написал), и то будет хорошо. Кстати, практики маловато конечно в "Специалисте", в ITVDN после каждого курса есть краткое содержание урока, как конспект и домашнее задание. И не одна, а несколько заданий после каждого урока. У "Специалиста" в основном 1, иногда 2 задания после урока (и то, в основном код уже готовый, нужно что-то дописать).
church30
Стаж: 2 года 5 мес.
Сообщений: 298
Ratio: 1,687
3.8%
Felox1995 писал(а): Перейти к сообщению
Подскажите, пожалуйста, кто начинал смотреть. Я дошел до 5 дня. Видео "4 день" заканчивается на модуле 10, а "5 день" начинается уже с 13 модуля. Получается, что у части презентаций нет видеообъяснения. Или я просто невнимательно смотрел?


Ну да так и есть там минимум 2х часов в четвертом дне не хватает.
Empary
Стаж: 2 года 7 мес.
Сообщений: 1
Ratio: 0,322
0%
Скажите пожалуйста, подойдёт ли данный курс начинающим?
church30
Стаж: 2 года 5 мес.
Сообщений: 298
Ratio: 1,687
3.8%
Empary писал(а): Перейти к сообщению
Скажите пожалуйста, подойдёт ли данный курс начинающим?

пойдет, тока 2х модулей нет по коллекциям и еще какого то там. лучше шевчука смотри от itvdn
Показать сообщения:   
Начать новую тему   Ответить на тему    Торрент-трекер NNM-Club -> Обучающие видеоматериалы -> Компьютеры Часовой пояс: GMT + 3
Страница 1 из 1