Интеллигентный торрент-трекер
canvas not supported
Нас вместе: 4 309 683

Ведьма из Блэр: Новая глава / Blair Witch (2016) BDRemux [H.264/1080p] [EN / EN, Sp Sub]


 
 
RSS
Начать новую тему   Ответить на тему    Торрент-трекер NNM-Club -> Зарубежное кино -> Фильмы в оригинале (HD)
Автор Сообщение
smaster67 ®
Модератор Видео
Покровитель талантов Uploader 300+
Стаж: 7 лет 8 мес.
Сообщений: 6591
Ratio: 192,962
Поблагодарили: 190155
100%
Ведьма из Блэр: Новая глава / Blair Witch (2016) BDRemux [H.264/1080p] [EN / EN, Sp Sub]

Производство: США
Жанр: ужасы, триллер

Режиссер: Адам Вингард
Актеры: Джеймс Аллен МакКьюн, Калли Эрнандес, Корбин Рейд, Брэндон Скотт, Уэс Робинсон, Вэлори Керри

Описание:
После обнаружения загадочной видеозаписи у Джеймса появляется надежда найти свою пропавшую сестру. Вместе с группой друзей он решается отправиться в лес Блэк Хиллз, известный по легенде о ведьме из Блэр. Но никакая самая страшная легенда не сравнится с тем кошмаром, который ждет их в реальности.



Продолжительность: 01:29:11
Качество видео: BDRemux
Перевод: Отсутствует
Язык озвучки: Английский
Язык субтитров: английский, испанский
Вид субтитров: Вшитые

Видео: AVC, 1920x1080 (16:9), 33447 kbps, 23,976 fps, 0,673 bpp
Аудио №1: английский / Atmos / TrueHD / 7.1 / 4506 kbps /
Аудио №2: английский / AC3 / 5.1 / 48 kHz / 640 kbps /
Код: выделить все
General
Unique ID                               Blair.Witch.2016.REMUX.1080p.BluRay.AVC.Atmos.TrueHD7.1-iFT.mkv
Format                                   : Matroska
Format version                           : Version 4 / Version 2
File size                                : 24.1 GiB
Duration                                 : 1 h 29 min
Overall bit rate mode                    : Variable
Overall bit rate                         : 38.7 Mb/s
Encoded date                             : UTC 2016-12-24 11:12:38
Writing application                      : mkvmerge v9.4.2 ('So High') 64bit
Writing library                          : libebml v1.3.4 + libmatroska v1.4.5

Video
ID                                       : 1
Format                                   : AVC
Format/Info                              : Advanced Video Codec
Format profile                           : High@L4.1
Format settings, CABAC                   : Yes
Format settings, ReFrames                : 4 frames
Codec ID                                 : V_MPEG4/ISO/AVC
Duration                                 : 1 h 29 min
Bit rate mode                            : Variable
Bit rate                                 : 33.4 Mb/s
Maximum bit rate                         : 36.5 Mb/s
Width                                    : 1 920 pixels
Height                                   : 1 080 pixels
Display aspect ratio                     : 16:9
Frame rate mode                          : Constant
Frame rate                               : 23.976 (24000/1001) FPS
Color space                              : YUV
Chroma subsampling                       : 4:2:0
Bit depth                                : 8 bits
Scan type                                : Progressive
Bits/(Pixel*Frame)                       : 0.673
Stream size                              : 20.8 GiB (86%)
Language                                 : English
Default                                  : No
Forced                                   : No

Audio #1
ID                                       : 2
Format                                   : Atmos / TrueHD
Codec ID                                 : A_TRUEHD
Duration                                 : 1 h 29 min
Bit rate mode                            : Variable
Bit rate                                 : 4 507 kb/s
Maximum bit rate                         : 7 719 kb/s
Channel(s)                               : Object Based / 8 channels
Channel positions                        : Object Based / Front: L C R, Side: L R, Back: L R, LFE
Sampling rate                            :  / 48.0 kHz
Frame rate                               : 1 200.000 FPS (40 spf)
Compression mode                         : Lossless
Stream size                              : 2.81 GiB (12%)
Language                                 : English
Default                                  : Yes
Forced                                   : No

Audio #2
ID                                       : 3
Format                                   : AC-3
Format/Info                              : Audio Coding 3
Mode extension                           : CM (complete main)
Format settings, Endianness              : Big
Codec ID                                 : A_AC3
Duration                                 : 1 h 29 min
Bit rate mode                            : Constant
Bit rate                                 : 640 kb/s
Channel(s)                               : 6 channels
Channel positions                        : Front: L C R, Side: L R, LFE
Sampling rate                            : 48.0 kHz
Frame rate                               : 31.250 FPS (1536 spf)
Compression mode                         : Lossy
Stream size                              : 408 MiB (2%)
Language                                 : English
Default                                  : No
Forced                                   : No

Text #1
ID                                       : 4
Format                                   : PGS
Muxing mode                              : zlib
Codec ID                                 : S_HDMV/PGS
Codec ID/Info                            : Picture based subtitle format used on BDs/HD-DVDs
Duration                                 : 1 h 21 min
Bit rate                                 : 18.0 kb/s
Count of elements                        : 2786
Stream size                              : 10.5 MiB (0%)
Language                                 : English
Default                                  : No
Forced                                   : No

Text #2
ID                                       : 5
Format                                   : PGS
Muxing mode                              : zlib
Codec ID                                 : S_HDMV/PGS
Codec ID/Info                            : Picture based subtitle format used on BDs/HD-DVDs
Duration                                 : 1 h 21 min
Bit rate                                 : 12.5 kb/s
Count of elements                        : 2000
Stream size                              : 7.25 MiB (0%)
Language                                 : Spanish
Default                                  : No
Forced                                   : No

Text #3
ID                                       : 6
Format                                   : PGS
Muxing mode                              : zlib
Codec ID                                 : S_HDMV/PGS
Codec ID/Info                            : Picture based subtitle format used on BDs/HD-DVDs
Duration                                 : 58 min
Bit rate                                 : 63 b/s
Count of elements                        : 8
Stream size                              : 27.4 KiB (0%)
Language                                 : Spanish
Default                                  : No
Forced                                   : No

Menu
00:00:00.000                             : en:Chapter 01
00:05:09.350                             : en:Chapter 02
00:08:24.337                             : en:Chapter 03
00:10:57.740                             : en:Chapter 04
00:16:17.267                             : en:Chapter 05
00:21:14.439                             : en:Chapter 06
00:29:41.279                             : en:Chapter 07
00:35:57.822                             : en:Chapter 08
00:40:35.433                             : en:Chapter 09
00:46:00.257                             : en:Chapter 10
00:52:30.647                             : en:Chapter 11
00:59:20.723                             : en:Chapter 12
01:04:41.794                             : en:Chapter 13
01:09:51.478                             : en:Chapter 14
01:15:52.339                             : en:Chapter 15
01:20:29.282                             : en:Chapter 16

Скриншоты:



Все одноименные релизы в Клубе

Время раздачи: с 13:00 до 23:00
[NNMClub.to]_Blair.Witch.2016.REMUX.1080p.BluRay.AVC.Atmos.TrueHD7.1-iFT.mkv.torrent
 Торрент: Золотая раздача  Зарегистрирован
 
Примагнититься
Free Leech
Зарегистрируйтесь и скачайте торрент!
121 KB
 Зарегистрирован:   24 Дек 2016 22:14:36
 Размер:   24,1 GB  (
 Рейтинг:    (Голосов: 5)
 Поблагодарили:   30
 Проверка:   Оформление проверено модератором 24 Дек 2016 22:15:22
Как cкачать  ·  Как раздать  ·  Правильно оформить  ·  Поднять ратио!  
sweet​amber​777​

Online
Стаж: 7 лет 1 мес.
Сообщений: 43
Ratio: 6,207
100%
russia.gif
Фильм на 1 раз, посмотреть можно для галочки!
Дрожащая камера, как и всегда в фильмах похожего жанра бесит уже на 15 минуте, а сюжет практически скопирован с оригинала 1999.
Показать сообщения:   
Начать новую тему   Ответить на тему    Торрент-трекер NNM-Club -> Зарубежное кино -> Фильмы в оригинале (HD) Часовой пояс: GMT + 3
Страница 1 из 1