Интеллигентный торрент-трекер
canvas not supported
Нас вместе: 4 331 361

Рождение нации / The Birth of a Nation (2016) BDRemux [H.264/1080p] [EN / EN, Fr, Sp Sub]


 
 
RSS
Начать новую тему   Ответить на тему    Торрент-трекер NNM-Club -> Зарубежное кино -> Фильмы в оригинале (HD)
Автор Сообщение
smaster67 ®
Модератор Видео
Покровитель талантов Uploader 300+

Online
Стаж: 8 лет
Сообщений: 6668
Ratio: 202,659
Поблагодарили: 194062
100%
Рождение нации / The Birth of a Nation (2016) BDRemux [H.264/1080p] [EN / EN, Fr, Sp Sub]

Производство: США
Жанр: драма, биография, история

Режиссер: Нэйт Паркер
Актеры: Нэйт Паркер, Арми Хаммер, Пенелопа Энн Миллер, Джеки Эрл Хейли, Марк Бун Джуниор, Колман Доминго, Онжаню Эллис, Дуайт Генри, Эйджа Наоми Кинг, Эстер Скотт, Роджер Гуэнвёр Смит, Гэбриэл Юнион

Описание:
Историко-драматический байопик о чернокожем рабе-мятежнике Нэте Тёрнере. Веря в свою богоизбранность, Тёрнер воспринимает затмение как знак свыше: черная ладонь накрывает солнце. Под его предводительством вспыхивает восстание, потрясшее рабовладельческую Америку.



Продолжительность: 01:59:53
Качество видео: BDRemux
Перевод: Отсутствует
Язык озвучки: Английский
Язык субтитров: английский, испанский, французский
Вид субтитров: Вшитые

Видео: AVC, 1920x1080 (16:9), 22673 kbps, 23,976 fps, 0,456 bpp
Аудио: английский / DTS-HD / 5.1 / 48 kHz / 3482 kbps / 24 bit (Core: 5.1 / 48 kHz / 1509 kbps / 24 bit)
Код: выделить все
General
Unique ID                              The.Birth.Of.A.Nation.2016.REMUX.1080p.BluRay.AVC.DTS-HD.MA5.1-iFT.mkv
Format                                   : Matroska
Format version                           : Version 4 / Version 2
File size                                : 22.0 GiB
Duration                                 : 1 h 59 min
Overall bit rate mode                    : Variable
Overall bit rate                         : 26.2 Mb/s
Movie name                               : The Birth of a Nation
Encoded date                             : UTC 2016-12-24 20:46:46
Writing application                      : mkvmerge v9.4.2 ('So High') 64bit
Writing library                          : libebml v1.3.4 + libmatroska v1.4.5

Video
ID                                       : 1
Format                                   : AVC
Format/Info                              : Advanced Video Codec
Format profile                           : High@L4.1
Format settings, CABAC                   : Yes
Format settings, ReFrames                : 2 frames
Codec ID                                 : V_MPEG4/ISO/AVC
Duration                                 : 1 h 59 min
Bit rate mode                            : Variable
Bit rate                                 : 22.7 Mb/s
Width                                    : 1 920 pixels
Height                                   : 1 080 pixels
Display aspect ratio                     : 16:9
Frame rate mode                          : Constant
Frame rate                               : 23.976 (24000/1001) FPS
Color space                              : YUV
Chroma subsampling                       : 4:2:0
Bit depth                                : 8 bits
Scan type                                : Progressive
Bits/(Pixel*Frame)                       : 0.456
Stream size                              : 19.0 GiB (86%)
Language                                 : English
Default                                  : No
Forced                                   : No

Audio
ID                                       : 2
Format                                   : DTS
Format/Info                              : Digital Theater Systems
Format profile                           : MA / Core
Mode                                     : 16
Format settings, Endianness              : Big
Codec ID                                 : A_DTS
Duration                                 : 1 h 59 min
Bit rate mode                            : Variable / Constant
Bit rate                                 : 3 483 kb/s / 1 509 kb/s
Channel(s)                               : 6 channels
Channel positions                        : Front: L C R, Side: L R, LFE
Sampling rate                            : 48.0 kHz
Frame rate                               : 93.750 FPS (512 spf)
Bit depth                                : 24 bits
Compression mode                         : Lossless / Lossy
Stream size                              : 2.92 GiB (13%)
Title                                    : Surround 5.1
Language                                 : English
Default                                  : Yes
Forced                                   : No

Text #1
ID                                       : 3
Format                                   : PGS
Muxing mode                              : zlib
Codec ID                                 : S_HDMV/PGS
Codec ID/Info                            : Picture based subtitle format used on BDs/HD-DVDs
Duration                                 : 1 h 50 min
Bit rate                                 : 9 024 b/s
Count of elements                        : 2662
Stream size                              : 7.12 MiB (0%)
Language                                 : English
Default                                  : No
Forced                                   : No

Text #2
ID                                       : 4
Format                                   : PGS
Muxing mode                              : zlib
Codec ID                                 : S_HDMV/PGS
Codec ID/Info                            : Picture based subtitle format used on BDs/HD-DVDs
Duration                                 : 1 min
Bit rate                                 : 3 996 b/s
Count of elements                        : 32
Stream size                              : 32.8 KiB (0%)
Language                                 : English
Default                                  : No
Forced                                   : No

Text #3
ID                                       : 5
Format                                   : PGS
Muxing mode                              : zlib
Codec ID                                 : S_HDMV/PGS
Codec ID/Info                            : Picture based subtitle format used on BDs/HD-DVDs
Duration                                 : 1 min
Bit rate                                 : 3 996 b/s
Count of elements                        : 32
Stream size                              : 32.8 KiB (0%)
Language                                 : English
Default                                  : No
Forced                                   : No

Text #4
ID                                       : 6
Format                                   : PGS
Muxing mode                              : zlib
Codec ID                                 : S_HDMV/PGS
Codec ID/Info                            : Picture based subtitle format used on BDs/HD-DVDs
Duration                                 : 1 h 58 min
Bit rate                                 : 6 575 b/s
Count of elements                        : 2074
Stream size                              : 5.59 MiB (0%)
Language                                 : Spanish
Default                                  : No
Forced                                   : No

Text #5
ID                                       : 7
Format                                   : PGS
Muxing mode                              : zlib
Codec ID                                 : S_HDMV/PGS
Codec ID/Info                            : Picture based subtitle format used on BDs/HD-DVDs
Duration                                 : 1 h 58 min
Bit rate                                 : 232 b/s
Count of elements                        : 72
Stream size                              : 201 KiB (0%)
Language                                 : Spanish
Default                                  : No
Forced                                   : No

Text #6
ID                                       : 8
Format                                   : PGS
Muxing mode                              : zlib
Codec ID                                 : S_HDMV/PGS
Codec ID/Info                            : Picture based subtitle format used on BDs/HD-DVDs
Duration                                 : 1 h 58 min
Bit rate                                 : 6 433 b/s
Count of elements                        : 1890
Stream size                              : 5.46 MiB (0%)
Language                                 : French
Default                                  : No
Forced                                   : No

Text #7
ID                                       : 9
Format                                   : PGS
Muxing mode                              : zlib
Codec ID                                 : S_HDMV/PGS
Codec ID/Info                            : Picture based subtitle format used on BDs/HD-DVDs
Duration                                 : 1 h 58 min
Bit rate                                 : 347 b/s
Count of elements                        : 106
Stream size                              : 303 KiB (0%)
Language                                 : French
Default                                  : No
Forced                                   : No

Text #8
ID                                       : 10
Format                                   : PGS
Muxing mode                              : zlib
Codec ID                                 : S_HDMV/PGS
Codec ID/Info                            : Picture based subtitle format used on BDs/HD-DVDs
Duration                                 : 1 h 58 min
Bit rate                                 : 347 b/s
Count of elements                        : 106
Stream size                              : 303 KiB (0%)
Language                                 : French
Default                                  : No
Forced                                   : No

Text #9
ID                                       : 11
Format                                   : PGS
Muxing mode                              : zlib
Codec ID                                 : S_HDMV/PGS
Codec ID/Info                            : Picture based subtitle format used on BDs/HD-DVDs
Duration                                 : 1 h 50 min
Bit rate                                 : 19.4 kb/s
Count of elements                        : 3342
Stream size                              : 15.3 MiB (0%)
Language                                 : English
Default                                  : No
Forced                                   : No

Text #10
ID                                       : 12
Format                                   : PGS
Muxing mode                              : zlib
Codec ID                                 : S_HDMV/PGS
Codec ID/Info                            : Picture based subtitle format used on BDs/HD-DVDs
Duration                                 : 1 h 58 min
Bit rate                                 : 16.3 kb/s
Count of elements                        : 3282
Stream size                              : 13.9 MiB (0%)
Language                                 : Spanish
Default                                  : No
Forced                                   : No

Text #11
ID                                       : 13
Format                                   : PGS
Muxing mode                              : zlib
Codec ID                                 : S_HDMV/PGS
Codec ID/Info                            : Picture based subtitle format used on BDs/HD-DVDs
Duration                                 : 1 h 58 min
Bit rate                                 : 16.0 kb/s
Count of elements                        : 3286
Stream size                              : 13.6 MiB (0%)
Language                                 : French
Default                                  : No
Forced                                   : No

Menu
00:00:00.000                             : en:Chapter 01
00:04:18.758                             : en:Chapter 02
00:07:45.339                             : en:Chapter 03
00:10:04.895                             : en:Chapter 04
00:14:37.877                             : en:Chapter 05
00:17:42.561                             : en:Chapter 06
00:23:06.593                             : en:Chapter 07
00:28:35.046                             : en:Chapter 08
00:32:13.932                             : en:Chapter 09
00:37:09.227                             : en:Chapter 10
00:39:50.429                             : en:Chapter 11
00:42:53.571                             : en:Chapter 12
00:46:46.386                             : en:Chapter 13
00:51:11.151                             : en:Chapter 14
00:54:41.152                             : en:Chapter 15
00:59:01.412                             : en:Chapter 16
01:03:21.547                             : en:Chapter 17
01:08:42.118                             : en:Chapter 18
01:13:05.422                             : en:Chapter 19
01:17:02.909                             : en:Chapter 20
01:22:13.094                             : en:Chapter 21
01:26:56.920                             : en:Chapter 22
01:30:54.615                             : en:Chapter 23
01:37:59.039                             : en:Chapter 24
01:41:42.971                             : en:Chapter 25
01:43:57.648                             : en:Chapter 26
01:47:25.772                             : en:Chapter 27
01:50:41.343                             : en:Chapter 28

Скриншоты:



Все одноименные релизы в Клубе

Время раздачи: с 13:00 до 23:00
[NNMClub.to]_The.Birth.Of.A.Nation.2016.REMUX.1080p.BluRay.AVC.DTS-HD.MA5.1-iFT.mkv.torrent
 Торрент: Платиновая раздача  Зарегистрирован
 
Примагнититься

Скачать
 Зарегистрирован:   25 Дек 2016 12:00:34
 Размер:   22 GB  (
 Рейтинг:    (Голосов: 2)
 Поблагодарили:   24
 Проверка:   Оформление проверено модератором 25 Дек 2016 12:01:36
Как cкачать  ·  Как раздать  ·  Правильно оформить  ·  Поднять ратио!  
Показать сообщения:   
Начать новую тему   Ответить на тему    Торрент-трекер NNM-Club -> Зарубежное кино -> Фильмы в оригинале (HD) Часовой пояс: GMT + 3
Страница 1 из 1