Интеллигентный торрент-трекер
canvas not supported
Нас вместе: 4 339 661

Выкуп – миллиард / Take Down (2016) BDRip [H.264/720p] [EN]


 
 
RSS
Начать новую тему   Ответить на тему    Торрент-трекер NNM-Club -> Зарубежное кино -> Фильмы в оригинале (HD)
Автор Сообщение
smaster67 ®
Модератор Видео
Покровитель талантов Uploader 300+
Стаж: 7 лет 11 мес.
Сообщений: 6651
Ratio: 201,146
Поблагодарили: 193334
100%
Выкуп – миллиард / Take Down (2016) BDRip [H.264/720p] [EN]

Производство: Великобритания
Жанр: триллер

Режиссер: Джим Гиллеспи
Актеры: Джереми Самптер, Эд Вествик, Фиби Тонкин, Доминик Шервуд, Себастьян Кох, Анна-Луиза Плауман, Марк Боннар, Эллиот Найт, Рори Кинэн, Сара Стюарт, Хари Диллон, Анна Уилсон-Джонс

Описание:
Группа безрассудных отпрысков миллиардеров проводит время в специальном лагере, расположенном на отдалённом острове. Их родители надеются, что за время пребывания здесь герои научатся нести ответственность за свою жизнь. На территорию острова прибывает команда вооружённых злоумышленников, которые рассчитывают взять потомков мировой элиты в заложники, а затем получить за них миллиард долларов в качестве выкупа. Чтобы попытаться противостоять расчётливым похитителям, молодые люди должны использовать основные навыки выживания в дикой природе.



Продолжительность: 01:47:44
Качество видео: BDRip
Перевод: Отсутствует
Язык озвучки: Английский

Видео: AVC, 1280x528 (2.40:1), 4269 kbps, 23,976 fps, 0,263 bpp
Аудио: DTS / 5.1 / 48 kHz / 1509 kbps / 24 bit
Код: выделить все
General
Unique ID                                Take Down.720p.mkv
Format                                   : Matroska
Format version                           : Version 4 / Version 2
File size                                : 4.35 GiB
Duration                                 : 1 h 47 min
Overall bit rate                         : 5 778 kb/s
Encoded date                             : UTC 2016-12-22 03:04:23
Writing application                      : mkvmerge v9.6.0 ('Slave To Your Mind') 64bit
Writing library                          : libebml v1.3.4 + libmatroska v1.4.5

Video
ID                                       : 1
Format                                   : AVC
Format/Info                              : Advanced Video Codec
Format profile                           : High@L4.1
Format settings, CABAC                   : Yes
Format settings, ReFrames                : 5 frames
Codec ID                                 : V_MPEG4/ISO/AVC
Duration                                 : 1 h 47 min
Bit rate                                 : 4 269 kb/s
Width                                    : 1 280 pixels
Height                                   : 528 pixels
Display aspect ratio                     : 2.40:1
Frame rate mode                          : Constant
Frame rate                               : 23.976 FPS
Color space                              : YUV
Chroma subsampling                       : 4:2:0
Bit depth                                : 8 bits
Scan type                                : Progressive
Bits/(Pixel*Frame)                       : 0.263
Stream size                              : 3.21 GiB (74%)
Writing library                          : x264 core 148 r2744 b97ae06
Encoding settings                        : cabac=1 / ref=5 / deblock=1:0:0 / analyse=0x3:0x133 / me=umh / subme=8 / psy=1 / psy_rd=1.00:0.00 / mixed_ref=1 / me_range=16 / chroma_me=1 / trellis=1 / 8x8dct=1 / cqm=0 / deadzone=21,11 / fast_pskip=0 / chroma_qp_offset=-2 / threads=12 / lookahead_threads=2 / sliced_threads=0 / nr=0 / decimate=1 / interlaced=0 / bluray_compat=0 / constrained_intra=0 / bframes=3 / b_pyramid=2 / b_adapt=1 / b_bias=0 / direct=1 / weightb=1 / open_gop=0 / weightp=2 / keyint=250 / keyint_min=23 / scenecut=40 / intra_refresh=0 / rc_lookahead=40 / rc=2pass / mbtree=1 / bitrate=4269 / ratetol=1.0 / qcomp=0.60 / qpmin=0 / qpmax=69 / qpstep=4 / cplxblur=20.0 / qblur=0.5 / ip_ratio=1.40 / aq=1:1.00
Language                                 : English
Default                                  : Yes
Forced                                   : No

Audio
ID                                       : 2
Format                                   : DTS
Format/Info                              : Digital Theater Systems
Mode                                     : 16
Format settings, Endianness              : Big
Codec ID                                 : A_DTS
Duration                                 : 1 h 47 min
Bit rate mode                            : Constant
Bit rate                                 : 1 509 kb/s
Channel(s)                               : 6 channels
Channel positions                        : Front: L C R, Side: L R, LFE
Sampling rate                            : 48.0 kHz
Frame rate                               : 93.750 FPS (512 spf)
Bit depth                                : 24 bits
Compression mode                         : Lossy
Stream size                              : 1.14 GiB (26%)
Default                                  : Yes
Forced                                   : No

Скриншоты:



Все одноименные релизы в Клубе

Время раздачи: с 13:00 до 23:00
[NNMClub.to]_Take Down.720p.mkv.torrent
 Торрент: Серебряная раздча  Зарегистрирован
 
Примагнититься
Free Leech
Зарегистрируйтесь и скачайте торрент!
21,9 KB
 Зарегистрирован:   29 Дек 2016 14:24:03
 Размер:   4,35 GB  (
 Рейтинг:   3,6 (Голосов: 10)
 Поблагодарили:   61
 Проверка:   Оформление проверено модератором 29 Дек 2016 14:24:47
Как cкачать  ·  Как раздать  ·  Правильно оформить  ·  Поднять ратио!  
Denzel36
Стаж: 4 года 11 мес.
Сообщений: 187
Ratio: 30,692
3.78%
Каюсь, я болел за бандитов...
Alexxx480
Стаж: 3 года 4 мес.
Сообщений: 35
Ratio: 0,911
100%
Цитата:
Take Down

Цитата:
Выкуп – миллиард

Че "Плохой Санта 3" не назвали?
alebard24
Стаж: 3 года 3 мес.
Сообщений: 428
Раздал: 0
100%
ussr.gif
неплохо закручено.

_________________
Никандр
MclarenMP
Стаж: 7 лет 4 мес.
Сообщений: 579
Ratio: 32,024
Поблагодарили: 3236
18.49%
russia.gif
перевод названия О нет
Caustique
Стаж: 10 лет 5 мес.
Сообщений: 679
Ratio: 17,544
Раздал: 40,43 TB
100%
albania.gif
Ну так "бандиты" эт на самом деле народные освободители. Они хотят отобрать у богатых и раздать бедным. Так что я за них был :)

_________________
Vita sine libertate, nihil!
Alex210472
Стаж: 6 лет 1 мес.
Сообщений: 45
Ratio: 1,726
1.24%
детский сад, а не фильм. Профессиональные убийцы, не смогли одолеть мажоров. Круче фантастики я не видел.
ZeePRO
Стаж: 10 лет 3 мес.
Сообщений: 280
Ratio: 6,1
Раздал: 35,84 TB
Поблагодарили: 5
12.33%
Откуда: Москва
russia.gif
ВРАНЬЁ про рейтинг!!!!!!

_________________
Всё, что нас убивает, делает нас мертвее.
100 Mbps 100 Mbps 24/7
Win7x64 - Asus X79 Deluxe - Intel Core i7 4820K - 4x4Gb Corsair RAM - GIGABYTE R9 290 4GB - [sys] 240GB Sasmsung EVO PRO SSD x 2 + 2x150GB WD VelociRaptor RAID0 + 2x250GB Seagate RAID1 + 2x4TB Seagate + 3TB WD + 2TB WD + 1TB Seagate + 1,5TB Seagate
Показать сообщения:   
Начать новую тему   Ответить на тему    Торрент-трекер NNM-Club -> Зарубежное кино -> Фильмы в оригинале (HD) Часовой пояс: GMT + 3
Страница 1 из 1