Интеллигентный торрент-трекер
canvas not supported
Нас вместе: 4 331 495

Проходной двор (Юрий Наумов) - Блюз в тысячу дней (2002) [FLAC|Lossless|image + .cue] <Blues / Blues-Rock>


 
 
RSS
Начать новую тему   Ответить на тему    Торрент-трекер NNM-Club -> Jazz, Blues, Soul -> Blues, Soul (Lossless)
Автор Сообщение
Svetojar ®
RG Music
 
Стаж: 7 мес. 6 дней
Сообщений: 690
Ratio: 202,111
Поблагодарили: 29349
100%
Проходной двор (Юрий Наумов) - Блюз в тысячу дней (2002)
Год: 2002
Жанр: Blues / Blues-Rock
Издание: Юрий Наумов - YNPD 01-R
Продолжительность: 00:54:11

Кодек: FLAC
Битрейт: Lossless
Тип рипа: image + .cue

Треклист:
01. Отдавшим сердце рок-н-роллу
02. Когда не остаётся слов
03. Пессимистический блюз
04. Кошка на крыше
05. Я собрался не туда
06. Рождён чтоб играть
07. Сказка о Карле
08. И я пою
09. Сказка о Карле (live)
10. И я пою (live)
foobar2000 1.3.14 / Замер динамического диапазона (DR) 1.1.1
Дата отчёта: 2017-01-14 00:29:49

--------------------------------------------------------------------------------
Анализ: Проходной двор (Юрий Наумов) / Блюз в тысячу дней
--------------------------------------------------------------------------------

DR Пики RMS Продолжительность трека
--------------------------------------------------------------------------------
DR11 -0.20 дБ -12.22 дБ 4:53 01-Отдавшим сердце рок-н-роллу
DR11 -0.20 дБ -12.70 дБ 5:10 02-Когда не остаётся слов
DR11 -0.20 дБ -13.04 дБ 5:45 03-Пессимистический блюз
DR11 -0.20 дБ -12.15 дБ 5:08 04-Кошка на крыше
DR10 -0.20 дБ -11.82 дБ 4:23 05-Я собрался не туда
DR11 -0.20 дБ -13.60 дБ 6:40 06-Рождён чтоб играть
DR12 -0.20 дБ -13.89 дБ 6:55 07-Сказка о Карле
DR13 -0.20 дБ -14.81 дБ 5:00 08-И я пою
DR12 -0.20 дБ -14.57 дБ 6:09 09-Сказка о Карле (live)
DR12 -0.20 дБ -14.91 дБ 4:09 10-И я пою (live)
--------------------------------------------------------------------------------

Количество треков: 10
Реальные значения DR: DR11

Частота: 44100 Гц
Каналов: 2
Разрядность: 16
Битрейт: 837 кбит/с
Кодек: FLAC
================================================================================
YouTube
Время раздачи: По мере возможности (до появления первых 3-5 скачавших)


Поглощение/вытеснение
Только с согласия релизера

Beijing65
[NNMClub.to]_Prohodnoy dvor Blyuz v tyisyachu dney.torrent
 Торрент: Платиновая раздача  Зарегистрирован
 
Примагнититься

Скачать
 Зарегистрирован:   13 Янв 2017 22:40:45
 Размер:   335 MB  (
 Рейтинг:   4,2 (Голосов: 12)
 Поблагодарили:   84
 Проверка:   Оформление проверено модератором 14 Янв 2017 14:28:42
Как cкачать  ·  Как раздать  ·  Правильно оформить  ·  Поднять ратио!  
dvduck
Стаж: 7 лет 1 мес.
Сообщений: 89
Ratio: 146,459
100%
russia.gif
Превосходно! Мастер гитары, мастер песен-историй, музыка и слова - без фальши, очень искренне... "Сказка о Карле" - шедевр, имхо!
Svetojar ®
RG Music
 
Стаж: 7 мес. 6 дней
Сообщений: 690
Ratio: 202,111
Поблагодарили: 29349
100%
dvduck
Согласен полностью! Жаль только мало кто его знает))) ИМХО

_________________
Я человек ленивый, поэтому все делаю быстро и качественно. Чтобы быстрее освободиться и не переделывать.
dvduck
Стаж: 7 лет 1 мес.
Сообщений: 89
Ratio: 146,459
100%
russia.gif
Svetojar писал(а): Перейти к сообщению

Жаль только мало кто его знает

Ну, может и не так мало... но в узких кругах он точно широко известен. ) Я Наумова начал слушать с альбома "Гитарные истории", и с тех пор, в основном, эту запись и слушаю, возможно, она - лучшее в его в творчестве. Цепляет, да... бывает иногда такое, как заноза, и еще эта его манера игры! )) трудно объяснить, чем она привлекает, да и не надо, лучше послушать...
Показать сообщения:   
Начать новую тему   Ответить на тему    Торрент-трекер NNM-Club -> Jazz, Blues, Soul -> Blues, Soul (Lossless) Часовой пояс: GMT + 3
Страница 1 из 1