Интеллигентный торрент-трекер
canvas not supported
Нас вместе: 4 313 516

2814 (2814) - Discography 3 Albums (6 Releases) (2014-2016) Dream Catalogue [FLAC|Lossless|tracks+.cue, tracks] <Ambient, Downtempo, Vaporwave>


 
 
RSS
Начать новую тему   Ответить на тему    Торрент-трекер NNM-Club -> Electronic -> Easy listening (Lossless)
Автор Сообщение
vilator ®
Модератор Музыки
RG Music
 
Стаж: 7 лет 11 мес.
Сообщений: 5697
Ratio: 126,702
Поблагодарили: 112014
100%
Откуда: Minsk
pirates.png


2814 (стилизованное символами 2814) - коллаборация vaporwave музыкантов David Russo (Hong Kong Express) и Luke Laurila (t e l e p a t h テレパシー能力者).
В 2015 году журнал «Роллинг Стоун» вставил группу 2 8 1 4 в качестве одного из «10 исполнителей, которые нужно знать», со ссылкой на их альбом Atarashii Hi no Tanjō (新しい日の誕生, «Рождение нового дня»).

Жанр: Ambient, Experimental, Downtempo, Vaporwave, Drone • Страна: UK, US • Год издания: 2014-2016 • Тип издания: CD, Web, Vinyl
Аудиокодек: FLAC (*.flac) • Тип рипа: tracks+.cue, tracks • Продолжительность: 06:56:19 • Источник: What, Bandcamp
Треклист:
Год выпуска: 2014
Продолжительность: 01:18:54
Треклист:

01. 我愛你 (8:58)
02. 2814スカイライン (7:32)
03. Mishazawa (6:18)
04. 一緒に私たちは、市内の遺跡を歩く (14:56)
05. 赤い夜明け (7:32)
06. フローティング (5:38)
07. 再生 (21:55)
08. 私たちは、ハイパーマーケットをさまよう (6:05)

-----------------------

DON'T MODIFY THIS FILE

-----------------------

PERFORMER: auCDtect Task Manager, ver. 1.5.1RC6 build 1.5.1.7
Copyright (c) 2008-2010 y-soft. All rights reserved
http://y-soft.org

ANALYZER: auCDtect: CD records authenticity detector, version 0.8.2
Copyright (c) 2004 Oleg Berngardt. All rights reserved.
Copyright (c) 2004 Alexander Djourik. All rights reserved.

FILE: 01. 我愛你.flac
Size: 43220044 Hash: B04599DD7B300E265541320956738F9D Accuracy: -m0
Conclusion: MPEG 100%
Signature: 874843EBA6DE590F8280BAA067B38A12D8B85A31
FILE: 08. 私たちは、ハイパーマーケットをさまよう.flac
Size: 29153695 Hash: B73507AF6CD0EB7397FBEB45D9795593 Accuracy: -m0
Conclusion: MPEG 95%
Signature: 6695F2F0BF8F496D4D335848C2E55634F8C7D8BF
FILE: 07. 再生.flac
Size: 106534606 Hash: 4C97CD37C8E6727B760451799ADDE575 Accuracy: -m0
Conclusion: CDDA 100%
Signature: C2BDF6BBF6EBF7C89966E5F55020EDBD191F7A0B
FILE: 06. フローティング.flac
Size: 23183045 Hash: AA5BA61382770103B1FE55CDCE7C4C54 Accuracy: -m0
Conclusion: MPEG 100%
Signature: 417A1B5B4FD4D7662F0AA40344B0E24F06F10D1B
FILE: 05. 赤い夜明け.flac
Size: 45490563 Hash: D42A7D5491085A5FE996AD7B334CF043 Accuracy: -m0
Conclusion: CDDA 100%
Signature: 3C41E53EBDC576D8DB786FE27BD2823AC7D4759B
FILE: 04. 一緒に私たちは、市内の遺跡を歩く.flac
Size: 76531428 Hash: 7E05FCC01351C2AC49FB3047F6237835 Accuracy: -m0
Conclusion: CDDA 42%
Signature: F0D75ECD4B1B6E27A4DC4A991368097F31EF671B
FILE: 03. Mishazawa.flac
Size: 29213192 Hash: C41D2285E8CCE74538892C809BCCC2E7 Accuracy: -m0
Conclusion: CDDA 85%
Signature: C5090E95AA18489305E237910E8D07030FE8D102
FILE: 02. 2814スカイライン.flac
Size: 38563270 Hash: 7EF8CD2258E81B57E0B9D1615E526DEF Accuracy: -m0
Conclusion: CDDA 49%
Signature: 48A91B7DC8EF3A70773213ADC415B17797B4A1F0

Год выпуска: 2015
Продолжительность: 01:07:25
Треклист:

01. 恢复 (5:51)
02. 遠くの愛好家 (6:18)
03. 新宿ゴールデン街 (8:52)
04. ふわっと (6:36)
05. 悲哀 (9:24)
06. 真実の恋 (7:12)
07. テレパシー (10:08)
08. 新しい日の誕生 (13:04)

X Lossless Decoder version 20141129 (148.1)

XLD extraction logfile from 2015-02-04 11:29:34 -0500

2814 / 新しい日の誕生

Used drive : HL-DT-ST DVDRAM GE24NU30 (revision NT00)
Media type : CD-Recordable

Ripper mode : XLD Secure Ripper
Disable audio cache : OK for the drive with a cache less than 1375KiB
Make use of C2 pointers : NO
Read offset correction : 667
Max retry count : 100
Gap status : Analyzed, Appended (except HTOA)

TOC of the extracted CD
Track | Start | Length | Start sector | End sector
---------------------------------------------------------
1 | 00:00:00 | 05:51:15 | 0 | 26339
2 | 05:51:15 | 06:18:30 | 26340 | 54719
3 | 12:09:45 | 08:51:45 | 54720 | 94589
4 | 21:01:15 | 06:36:00 | 94590 | 124289
5 | 27:37:15 | 09:23:45 | 124290 | 166559
6 | 37:00:60 | 07:12:00 | 166560 | 198959
7 | 44:12:60 | 10:08:00 | 198960 | 244559
8 | 54:20:60 | 13:04:00 | 244560 | 303359

AccurateRip Summary
Disc not found in AccurateRip DB.

All Tracks
Album gain : -5.12 dB
Peak : 0.999969
Statistics
Read error : 0
Jitter error (maybe fixed) : 0
Retry sector count : 0
Damaged sector count : 0

Track 01
Filename : /Volumes/Vomitself/Music/2814/新しい日の誕生/01 恢复.flac
Pre-gap length : 00:02:00

Track gain : -6.00 dB
Peak : 0.999939
CRC32 hash (test run) : 3AE6EA66
CRC32 hash : 3AE6EA66
CRC32 hash (skip zero) : EBBF4C99
AccurateRip v1 signature : C64E7C90
AccurateRip v2 signature : A75C7B76
->Track not present in AccurateRip database.
Statistics
Read error : 0
Jitter error (maybe fixed) : 0
Retry sector count : 0
Damaged sector count : 0

Track 02
Filename : /Volumes/Vomitself/Music/2814/新しい日の誕生/02 遠くの愛好家.flac

Track gain : 3.97 dB
Peak : 0.999969
CRC32 hash (test run) : 8C702208
CRC32 hash : 8C702208
CRC32 hash (skip zero) : 60E2AC76
AccurateRip v1 signature : 14E4CCAB
AccurateRip v2 signature : 9CA7CECA
->Track not present in AccurateRip database.
Statistics
Read error : 0
Jitter error (maybe fixed) : 0
Retry sector count : 0
Damaged sector count : 0

Track 03
Filename : /Volumes/Vomitself/Music/2814/新しい日の誕生/03 新宿ゴールデン街.flac

Track gain : -3.35 dB
Peak : 0.920593
CRC32 hash (test run) : 21B8EC77
CRC32 hash : 21B8EC77
CRC32 hash (skip zero) : FE6E57C6
AccurateRip v1 signature : 5586FCE5
AccurateRip v2 signature : 41D23DA6
->Track not present in AccurateRip database.
Statistics
Read error : 0
Jitter error (maybe fixed) : 0
Retry sector count : 0
Damaged sector count : 0

Track 04
Filename : /Volumes/Vomitself/Music/2814/新しい日の誕生/04 ふわっと.flac

Track gain : -5.58 dB
Peak : 0.988617
CRC32 hash (test run) : D43525A1
CRC32 hash : D43525A1
CRC32 hash (skip zero) : 9A3F5FE1
AccurateRip v1 signature : C2FC6F47
AccurateRip v2 signature : A940E3B4
->Track not present in AccurateRip database.
Statistics
Read error : 0
Jitter error (maybe fixed) : 0
Retry sector count : 0
Damaged sector count : 0

Track 05
Filename : /Volumes/Vomitself/Music/2814/新しい日の誕生/05 悲哀.flac

Track gain : -5.78 dB
Peak : 0.988586
CRC32 hash (test run) : 1EE4DA32
CRC32 hash : 1EE4DA32
CRC32 hash (skip zero) : 7CD2ECB8
AccurateRip v1 signature : 4A8BB7EE
AccurateRip v2 signature : 8CC4C442
->Track not present in AccurateRip database.
Statistics
Read error : 0
Jitter error (maybe fixed) : 0
Retry sector count : 0
Damaged sector count : 0

Track 06
Filename : /Volumes/Vomitself/Music/2814/新しい日の誕生/06 真実の恋.flac

Track gain : -4.15 dB
Peak : 0.950592
CRC32 hash (test run) : 272D1FAF
CRC32 hash : 272D1FAF
CRC32 hash (skip zero) : E1EC76A7
AccurateRip v1 signature : E2C76B7D
AccurateRip v2 signature : 78394C63
->Track not present in AccurateRip database.
Statistics
Read error : 0
Jitter error (maybe fixed) : 0
Retry sector count : 0
Damaged sector count : 0

Track 07
Filename : /Volumes/Vomitself/Music/2814/新しい日の誕生/07 テレパシー.flac

Track gain : -5.79 dB
Peak : 0.988464
CRC32 hash (test run) : 4A4C04A3
CRC32 hash : 4A4C04A3
CRC32 hash (skip zero) : 759BD026
AccurateRip v1 signature : A58E87F7
AccurateRip v2 signature : 9AD7AD0B
->Track not present in AccurateRip database.
Statistics
Read error : 0
Jitter error (maybe fixed) : 0
Retry sector count : 0
Damaged sector count : 0

Track 08
Filename : /Volumes/Vomitself/Music/2814/新しい日の誕生/08 新しい日の誕生.flac

Track gain : -4.57 dB
Peak : 0.946014
CRC32 hash (test run) : EF61007E
CRC32 hash : EF61007E
CRC32 hash (skip zero) : CE8BC81E
AccurateRip v1 signature : 2942B58C
AccurateRip v2 signature : 5DAF9E37
->Track not present in AccurateRip database.
Statistics
Read error : 0
Jitter error (maybe fixed) : 0
Retry sector count : 0
Damaged sector count : 0

No errors occurred

End of status report

-----BEGIN XLD SIGNATURE-----
kBITe6_Qqz.0PyhhN_ufh1d48rSDvvJ3T7EWfW4r9zA7f6ll.QgEa6Jvda2Eb4lIvefTD__CFBFDkxCRuRScnJjO96yrW27VrNJ63kG
-----END XLD SIGNATURE-----


TITLE "新しい日の誕生"
PERFORMER "2814"
REM GENRE "Ambient"
REM DATE "2015-01-21"
REM DISCNUMBER 1
REM TOTALDISCS 1
REM DISCID 5F0FCC08
REM REPLAYGAIN_ALBUM_GAIN -5.12 dB
REM REPLAYGAIN_ALBUM_PEAK 0.999969
FILE "01 恢复.flac" WAVE
TRACK 01 AUDIO
TITLE "恢复"
SONGWRITER "t e l e p a t h テレパシー能力者 & Hong Kong Express"
REM REPLAYGAIN_TRACK_GAIN -6.00 dB
REM REPLAYGAIN_TRACK_PEAK 0.999939
INDEX 01 00:00:00
FILE "02 遠くの愛好家.flac" WAVE
TRACK 02 AUDIO
TITLE "遠くの愛好家"
SONGWRITER "t e l e p a t h テレパシー能力者 & Hong Kong Express"
REM REPLAYGAIN_TRACK_GAIN 3.97 dB
REM REPLAYGAIN_TRACK_PEAK 0.999969
INDEX 01 00:00:00
FILE "03 新宿ゴールデン街.flac" WAVE
TRACK 03 AUDIO
TITLE "新宿ゴールデン街"
SONGWRITER "t e l e p a t h テレパシー能力者 & Hong Kong Express"
REM REPLAYGAIN_TRACK_GAIN -3.35 dB
REM REPLAYGAIN_TRACK_PEAK 0.920593
INDEX 01 00:00:00
FILE "04 ふわっと.flac" WAVE
TRACK 04 AUDIO
TITLE "ふわっと"
SONGWRITER "t e l e p a t h テレパシー能力者 & Hong Kong Express"
REM REPLAYGAIN_TRACK_GAIN -5.58 dB
REM REPLAYGAIN_TRACK_PEAK 0.988617
INDEX 01 00:00:00
FILE "05 悲哀.flac" WAVE
TRACK 05 AUDIO
TITLE "悲哀"
SONGWRITER "t e l e p a t h テレパシー能力者 & Hong Kong Express"
REM REPLAYGAIN_TRACK_GAIN -5.78 dB
REM REPLAYGAIN_TRACK_PEAK 0.988586
INDEX 01 00:00:00
FILE "06 真実の恋.flac" WAVE
TRACK 06 AUDIO
TITLE "真実の恋"
SONGWRITER "t e l e p a t h テレパシー能力者 & Hong Kong Express"
REM REPLAYGAIN_TRACK_GAIN -4.15 dB
REM REPLAYGAIN_TRACK_PEAK 0.950592
INDEX 01 00:00:00
FILE "07 テレパシー.flac" WAVE
TRACK 07 AUDIO
TITLE "テレパシー"
SONGWRITER "t e l e p a t h テレパシー能力者 & Hong Kong Express"
REM REPLAYGAIN_TRACK_GAIN -5.79 dB
REM REPLAYGAIN_TRACK_PEAK 0.988464
INDEX 01 00:00:00
FILE "08 新しい日の誕生.flac" WAVE
TRACK 08 AUDIO
TITLE "新しい日の誕生"
SONGWRITER "t e l e p a t h テレパシー能力者 & Hong Kong Express"
REM REPLAYGAIN_TRACK_GAIN -4.57 dB
REM REPLAYGAIN_TRACK_PEAK 0.946014
INDEX 01 00:00:00

Год выпуска: 2016
Продолжительность: 01:10:57
Треклист:

01. 恢复 (5:51)
02. 遠くの愛好家 (6:18)
03. 新宿ゴールデン街 (8:52)
04. ふわっと (6:36)
05. 悲哀 (9:24)
06. 真実の恋 (7:12)
07. テレパシー (10:08)
08. 新しい日の誕生 (13:04)
09. 余波 (05:35)

-----------------------

DON'T MODIFY THIS FILE

-----------------------

PERFORMER: auCDtect Task Manager, ver. 1.6.0 RC1 build 1.6.0.1
Copyright (c) 2008-2010 y-soft. All rights reserved
http://y-soft.org

ANALYZER: auCDtect: CD records authenticity detector, version 0.8.2
Copyright (c) 2004 Oleg Berngardt. All rights reserved.
Copyright (c) 2004 Alexander Djourik. All rights reserved.

FILE: 09. 余波.flac
Size: 26582540 Hash: 7A15FD8B5E97B98FDC1529A3D968F6BD Accuracy: -m0
Conclusion: CDDA 100%
Signature: 066957EEEB58988E722367D779D8009ED8DF199C
FILE: 08. 新しい日の誕生.flac
Size: 79590955 Hash: 0FCD221E26729A3CDC9EAEA8149C68DE Accuracy: -m0
Conclusion: CDDA 100%
Signature: 5E75D013D2AA59338C5D630A9C0C453E28B926B7
FILE: 07. テレパシー.flac
Size: 41337129 Hash: 538141B8AEED016393D4ADDCC4604161 Accuracy: -m0
Conclusion: CDDA 100%
Signature: 3C4B98F8C5BAB75CB4DE480958BD69FB129F8AC3
FILE: 06. 真実の恋.flac
Size: 43221347 Hash: 0713B81E291ADDDE48D77F28BCD7329A Accuracy: -m0
Conclusion: CDDA 100%
Signature: 0E390C0FFB9E4595AED50A042C5DBDA32B73D18F
FILE: 05. 悲哀.flac
Size: 42706362 Hash: 7C4391250FA7A99C56067511EDB697D4 Accuracy: -m0
Conclusion: CDDA 100%
Signature: 707F7FF2BAB64511612458065437736E8EC05538
FILE: 04. ふわっと.flac
Size: 29698617 Hash: 7A193336728F44115A0F8644DDE2BBF3 Accuracy: -m0
Conclusion: CDDA 100%
Signature: 09F89B091CB63A160DDE5E10242856DD182DFF88
FILE: 03. 新宿ゴールデン街.flac
Size: 34946751 Hash: 524BC2DD160F2DA47F7565DB76D9AE45 Accuracy: -m0
Conclusion: CDDA 100%
Signature: ED1707637B6A98EDBAA497C342E0340AB62DB1C6
FILE: 02. 遠くの愛好家.flac
Size: 32911123 Hash: 7275A68AAF09D82EEA40E98ADCB6E876 Accuracy: -m0
Conclusion: CDDA 100%
Signature: B6A1EB8A33CE8E96C6B2B6D063A5CBC4C9BA6B19
FILE: 01. 恢复.flac
Size: 29107407 Hash: 7E0A89D1640C93FEFC8284BFB7526A91 Accuracy: -m0
Conclusion: CDDA 99%
Signature: B7857033F08A9BA1D30B8BB82A8A759EBCF909B1

Rega Planar 2 Turntable
Rega Elys 2
Clearaudio Seal
Onkyo A-9050
Roland UA-55 Quad-Capture
Tascam DA-3000
Adobe Audition
Год выпуска: 2015
Продолжительность: 01:07:25
Треклист:

01. 恢复 (5:51)
02. 遠くの愛好家 (6:18)
03. 新宿ゴールデン街 (8:52)
04. ふわっと (6:36)
05. 悲哀 (9:24)
06. 真実の恋 (7:12)
07. テレパシー (10:08)
08. 新しい日の誕生 (13:04)

-----------------------

DON'T MODIFY THIS FILE

-----------------------

PERFORMER: auCDtect Task Manager, ver. 1.5.1RC6 build 1.5.1.7
Copyright (c) 2008-2010 y-soft. All rights reserved
http://y-soft.org

ANALYZER: auCDtect: CD records authenticity detector, version 0.8.2
Copyright (c) 2004 Oleg Berngardt. All rights reserved.
Copyright (c) 2004 Alexander Djourik. All rights reserved.

FILE: 01. 恢复.flac
Size: 28129662 Hash: 3C005329F2D88E7C9608C917A4A440AE Accuracy: -m0
Conclusion: MPEG 80%
Signature: B814363C033FCE1C9F80AAC83A2D4C7C363DEC91
FILE: 08. 新しい日の誕生.flac
Size: 81604613 Hash: 46FFF6F6EEAE35377A61C459F2525EA8 Accuracy: -m0
Conclusion: CDDA 100%
Signature: C74286FD0062C5CE83FA5A470DAF7726E30867ED
FILE: 07. テレパシー.flac
Size: 42006302 Hash: 26FCD954A683006EA775003F9BFF477B Accuracy: -m0
Conclusion: CDDA 43%
Signature: 84453720CA360E8F5012B66F6232C718ECE9838C
FILE: 06. 真実の恋.flac
Size: 44996247 Hash: EBDC550BCA9C8CA426A0D1A39C5B68C1 Accuracy: -m0
Conclusion: MPEG 95%
Signature: AFCA0130A534D3A841306DD2E7726672BDB7840C
FILE: 05. 悲哀.flac
Size: 42331162 Hash: 34DF5A0985215C93F18A0485CE972CF8 Accuracy: -m0
Conclusion: CDDA 42%
Signature: 30A9F1622877CBA63FDC5DDF08BF352207561DDA
FILE: 04. ふわっと.flac
Size: 26824663 Hash: 40F4EAA06F9E031554619BFEA41C2E1F Accuracy: -m0
Conclusion: MPEG 100%
Signature: 108A861C7D6ACD46DBBA351A64E773FD09C188CE
FILE: 03. 新宿ゴールデン街.flac
Size: 39979769 Hash: A59D2D592753A530BC3D4AF4469806A4 Accuracy: -m0
Conclusion: CDDA 85%
Signature: CC357751DC81E527DDA8D721C8E0CC54A3B8B3EA
FILE: 02. 遠くの愛好家.flac
Size: 34340224 Hash: 8353CC864688DF2A47C185463A2A9D48 Accuracy: -m0
Conclusion: CDDA 100%
Signature: 9D06AF011A2D48C9D0AB410CC1B0AD7CF8B78366

Год выпуска: 2016
Продолжительность: 01:05:47
Треклист:

01. Before The Rain (07:13)
02. Eyes Of The Temple (11:13)
03. Lost In A Dream (07:03)
04. Guided By Love (05:58)
05. Transference (07:56)
06. This Body (10:04)
07. Contact (08:14)
08. Inside The Sphere (08:06)

Exact Audio Copy V1.0 beta 3 from 29. August 2011

EAC extraction logfile from 19. August 2016, 8:13

2814 / Rain Temple

Used drive : hp BD MLT UJ262 Adapter: 0 ID: 0

Read mode : Secure
Utilize accurate stream : Yes
Defeat audio cache : Yes
Make use of C2 pointers : No

Read offset correction : 103
Overread into Lead-In and Lead-Out : No
Fill up missing offset samples with silence : Yes
Delete leading and trailing silent blocks : No
Null samples used in CRC calculations : Yes
Used interface : Native Win32 interface for Win NT & 2000
Gap handling : Appended to previous track

Used output format : User Defined Encoder
Selected bitrate : 1024 kBit/s
Quality : High
Add ID3 tag : No
Command line compressor : C:\Program Files (x86)\Exact Audio Copy\Flac\flac.exe
Additional command line options : -8 -V -T "ARTIST=%artist%" -T "TITLE=%title%" -T "ALBUM=%albumtitle%" -T "DATE=%year%" -T "TRACKNUMBER=%tracknr%" -T "GENRE=%genre%" -T "PERFORMER=%albuminterpret%" -T "COMPOSER=%composer%" %haslyrics%--tag-from-file=LYRICS="%lyricsfile%"%haslyrics% -T "ALBUMARTIST=%albumartist%" -T "DISCNUMBER=%cdnumber%" -T "TOTALDISCS=%totalcds%" -T "TOTALTRACKS=%numtracks%" -T "COMMENT=%comment%" %source% -o %dest%

TOC of the extracted CD

Track | Start | Length | Start sector | End sector
---------------------------------------------------------
1 | 0:00.00 | 7:12.45 | 0 | 32444
2 | 7:12.45 | 11:13.31 | 32445 | 82950
3 | 18:26.01 | 7:02.63 | 82951 | 114663
4 | 25:28.64 | 5:58.13 | 114664 | 141526
5 | 31:27.02 | 7:55.69 | 141527 | 177220
6 | 39:22.71 | 10:03.38 | 177221 | 222483
7 | 49:26.34 | 8:13.73 | 222484 | 259531
8 | 57:40.32 | 8:06.17 | 259532 | 295998

Track 1

Filename C:\Users\Julian\Music\2814 - Rain Temple (FLAC CD)\2814 - Rain Temple - 01 - Before The Rain.wav

Pre-gap length 0:00:02.00

Peak level 93.7 %
Extraction speed 2.4 X
Track quality 99.9 %
Test CRC 1BF866DD
Copy CRC 1BF866DD
Track not present in AccurateRip database
Copy OK

Track 2

Filename C:\Users\Julian\Music\2814 - Rain Temple (FLAC CD)\2814 - Rain Temple - 02 - Eyes of the Temple.wav

Peak level 96.3 %
Extraction speed 3.5 X
Track quality 100.0 %
Test CRC EB194FFC
Copy CRC EB194FFC
Track not present in AccurateRip database
Copy OK

Track 3

Filename C:\Users\Julian\Music\2814 - Rain Temple (FLAC CD)\2814 - Rain Temple - 03 - Lost in a Dream.wav

Peak level 92.7 %
Extraction speed 3.9 X
Track quality 100.0 %
Test CRC 24363DDF
Copy CRC 24363DDF
Track not present in AccurateRip database
Copy OK

Track 4

Filename C:\Users\Julian\Music\2814 - Rain Temple (FLAC CD)\2814 - Rain Temple - 04 - Guided By Love.wav

Peak level 92.6 %
Extraction speed 4.2 X
Track quality 100.0 %
Test CRC 38DFB71C
Copy CRC 38DFB71C
Track not present in AccurateRip database
Copy OK

Track 5

Filename C:\Users\Julian\Music\2814 - Rain Temple (FLAC CD)\2814 - Rain Temple - 05 - Transference.wav

Peak level 93.1 %
Extraction speed 4.5 X
Track quality 100.0 %
Test CRC C9A08751
Copy CRC C9A08751
Track not present in AccurateRip database
Copy OK

Track 6

Filename C:\Users\Julian\Music\2814 - Rain Temple (FLAC CD)\2814 - Rain Temple - 06 - This Body.wav

Peak level 91.3 %
Extraction speed 5.0 X
Track quality 100.0 %
Test CRC 1840336D
Copy CRC 1840336D
Track not present in AccurateRip database
Copy OK

Track 7

Filename C:\Users\Julian\Music\2814 - Rain Temple (FLAC CD)\2814 - Rain Temple - 07 - Contact.wav

Peak level 93.9 %
Extraction speed 4.5 X
Track quality 99.9 %
Test CRC D9BEAEEB
Copy CRC D9BEAEEB
Track not present in AccurateRip database
Copy OK

Track 8

Filename C:\Users\Julian\Music\2814 - Rain Temple (FLAC CD)\2814 - Rain Temple - 08 - Inside the Sphere.wav

Peak level 94.6 %
Extraction speed 5.5 X
Track quality 100.0 %
Test CRC E5A3F86C
Copy CRC E5A3F86C
Track not present in AccurateRip database
Copy OK

None of the tracks are present in the AccurateRip database

No errors occurred

End of status report

==== Log checksum A6DCE67FB4B24CEDBE6ECBF2BACCF2F21D73ACDCD892E60115A457287F9F60D2 ====


REM GENRE Downtempo
REM DATE 2016
REM DISCID 710F6A08
REM COMMENT "ExactAudioCopy v1.0b3"
CATALOG 0028944972320
PERFORMER "2814"
TITLE "Rain Temple"
FILE "2814 - Rain Temple - 01 - Before The Rain.wav" WAVE
TRACK 01 AUDIO
TITLE "Before The Rain"
PERFORMER "2814"
INDEX 01 00:00:00
FILE "2814 - Rain Temple - 02 - Eyes of the Temple.wav" WAVE
TRACK 02 AUDIO
TITLE "Eyes of the Temple"
PERFORMER "2814"
INDEX 01 00:00:00
FILE "2814 - Rain Temple - 03 - Lost in a Dream.wav" WAVE
TRACK 03 AUDIO
TITLE "Lost in a Dream"
PERFORMER "2814"
INDEX 01 00:00:00
FILE "2814 - Rain Temple - 04 - Guided By Love.wav" WAVE
TRACK 04 AUDIO
TITLE "Guided By Love"
PERFORMER "2814"
INDEX 01 00:00:00
FILE "2814 - Rain Temple - 05 - Transference.wav" WAVE
TRACK 05 AUDIO
TITLE "Transference"
PERFORMER "2814"
INDEX 01 00:00:00
FILE "2814 - Rain Temple - 06 - This Body.wav" WAVE
TRACK 06 AUDIO
TITLE "This Body"
PERFORMER "2814"
INDEX 01 00:00:00
FILE "2814 - Rain Temple - 07 - Contact.wav" WAVE
TRACK 07 AUDIO
TITLE "Contact"
PERFORMER "2814"
INDEX 01 00:00:00
FILE "2814 - Rain Temple - 08 - Inside the Sphere.wav" WAVE
TRACK 08 AUDIO
TITLE "Inside the Sphere"
PERFORMER "2814"
INDEX 01 00:00:00

Год выпуска: 2016
Продолжительность: 01:05:52
Треклист:

01. Before The Rain (07:13)
02. Eyes Of The Temple (11:15)
03. Lost In A Dream (07:04)
04. Guided By Love (06:00)
05. Transference (07:56)
06. This Body (10:04)
07. Contact (08:14)
08. Inside The Sphere (08:06)

-----------------------

DON'T MODIFY THIS FILE

-----------------------

PERFORMER: auCDtect Task Manager, ver. 1.5.1RC6 build 1.5.1.7
Copyright (c) 2008-2010 y-soft. All rights reserved
http://y-soft.org

ANALYZER: auCDtect: CD records authenticity detector, version 0.8.2
Copyright (c) 2004 Oleg Berngardt. All rights reserved.
Copyright (c) 2004 Alexander Djourik. All rights reserved.

FILE: 02. Eyes Of The Temple.flac
Size: 80379018 Hash: 732EB93B5337241CF4AA3A4EEA6410C2 Accuracy: -m0
Conclusion: CDDA 100%
Signature: 5387DFF4E6281D5FBE2C6DDE1849373D74CB7D9B
FILE: 01. Before The Rain.flac
Size: 44029455 Hash: 8E70D4903D0279EBB0CB92C911002289 Accuracy: -m0
Conclusion: CDDA 100%
Signature: E59CE5ECC37BF1D6F7CA8DB675734529C8836D5E
FILE: 08. Inside The Sphere.flac
Size: 55305994 Hash: 9A3FB85A4116BE081299534B21013EC4 Accuracy: -m0
Conclusion: CDDA 100%
Signature: 9BD45DD5D4AB4F8BFBB63486EDAC7DBFAB4B2F2F
FILE: 07. Contact.flac
Size: 50017791 Hash: 92C06300150C8C7F15AE161FB379AA06 Accuracy: -m0
Conclusion: CDDA 100%
Signature: 58967334ED59E8E6C7E11A7557D19C60E40C7102
FILE: 06. This Body.flac
Size: 54687815 Hash: 1D567DC328847F4312CE6F8F9494A2AB Accuracy: -m0
Conclusion: CDDA 100%
Signature: 4978E1477484885BEB30B2709332888778B5DF07
FILE: 05. Transference.flac
Size: 48320149 Hash: 8FE4C352BBF457474CF3721249F0587A Accuracy: -m0
Conclusion: CDDA 92%
Signature: AD64E94E6E55430B2D8F4A05C0AE53FA098C6514
FILE: 04. Guided By Love.flac
Size: 37226774 Hash: 32E25F34EA6ADA9EAA6E965BBBF07251 Accuracy: -m0
Conclusion: CDDA 100%
Signature: EAD9A71113C57D5ABC2919198624BD72C5401F5D
FILE: 03. Lost In A Dream.flac
Size: 44796506 Hash: E7B8955FEB52E0F3944F8B6B7A5DED53 Accuracy: -m0
Conclusion: CDDA 100%
Signature: B9A5B2F42965081CF74FF9D9446255D00187D4B0

Время раздачи: 12/7
[NNMClub.to]_2814 FLAC.torrent
 Торрент:   Зарегистрирован
 
Примагнититься
Free Leech
Зарегистрируйтесь и скачайте торрент!
16,6 KB
 Зарегистрирован:   17 Янв 2017 07:40:41
 Размер:   2,11 GB  (
 Рейтинг:    (Голосов: 8)
 Поблагодарили:   32
 Проверка:   Оформление проверено модератором 17 Янв 2017 07:41:01
Как cкачать  ·  Как раздать  ·  Правильно оформить  ·  Поднять ратио!  
Delerium
Стаж: 7 лет 11 мес.
Сообщений: 161
Ratio: 23,807
Раздал: 16,44 TB
39.81%
Откуда: Perm region
russia.gif
по латински-то только гугл переводчиком можно?..
vilator ®
Модератор Музыки
RG Music
 
Стаж: 7 лет 11 мес.
Сообщений: 5697
Ratio: 126,702
Поблагодарили: 112014
100%
Откуда: Minsk
pirates.png
Delerium
О чем это вы?
conn258
Стаж: 3 года 4 мес.
Сообщений: 125
Ratio: 1,756
0.12%
vilator
полагаю, о том, что часть тегов иероглифами набрана и на английский их только через гугль можно...
vilator ®
Модератор Музыки
RG Music
 
Стаж: 7 лет 11 мес.
Сообщений: 5697
Ratio: 126,702
Поблагодарили: 112014
100%
Откуда: Minsk
pirates.png
conn258
это вообще-то оригинальные названия треков, может еще на русский перевести.. думайте, перед тем, как умничать..
conn258
Стаж: 3 года 4 мес.
Сообщений: 125
Ratio: 1,756
0.12%
vilator
пардон, не я умничал. я просто уточнил, что, по моему мнению, имел ввиду автор первого поста.
vilator ®
Модератор Музыки
RG Music
 
Стаж: 7 лет 11 мес.
Сообщений: 5697
Ratio: 126,702
Поблагодарили: 112014
100%
Откуда: Minsk
pirates.png
conn258
понял, все норм..
Показать сообщения:   
Начать новую тему   Ответить на тему    Торрент-трекер NNM-Club -> Electronic -> Easy listening (Lossless) Часовой пояс: GMT + 3
Страница 1 из 1