Интеллигентный торрент-трекер
canvas not supported
Нас вместе: 4 310 878

Hunter & The Dirty Jacks - Mixed Company & The Midnight Hokum (2015) [FLAC|Lossless|WEB-DL|tracks + .cue] <Blues-Rock>


 
 
RSS
Начать новую тему   Ответить на тему    Торрент-трекер NNM-Club -> Jazz, Blues, Soul -> Blues, Soul (Lossless)
Автор Сообщение
Svetojar ®
RG Music
 
Стаж: 3 мес. 13 дней
Сообщений: 531
Ratio: 208,487
Поблагодарили: 21473
100%
Hunter & The Dirty Jacks - Mixed Company & The Midnight Hokum (2015)
Год: 2015
Жанр: Blues-Rock
Издание: Spectra Music Group
Источник: ссылка
Продолжительность: 01:01:11

Кодек: FLAC
Битрейт: Lossless|WEB-DL
Тип рипа: tracks + .cue

Треклист:
01 Back On Shaky Ground 02:47
02 Bad Bad Bad 04:47
03 Deal 04:05
04 Come On In My Kitchen 04:30
05 Old No. 7 04:38
06 Alexandria 04:05
07 Stormy Monday 06:43
08 Leave The Cap Off The Bottle 04:36
09 Gotta Keep Moving On 05:41
10 Martrydom of St. Me 03:46
11 Kennel Howl 06:08
12 Smoking Gun 03:26
13 Salt Whiskey 05:59
foobar2000 1.3.14 / Замер динамического диапазона (DR) 1.1.1
Дата отчёта: 2017-01-17 19:26:27

--------------------------------------------------------------------------------
Анализ: Hunter & The Dirty Jacks / Mixed Company & The Midnight Hokum
--------------------------------------------------------------------------------

DR Пики RMS Продолжительность трека
--------------------------------------------------------------------------------
DR5 -0.20 дБ -6.21 дБ 2:47 01-Back On Shaky Ground
DR5 -0.20 дБ -6.67 дБ 4:47 02-Bad Bad Bad
DR5 -0.20 дБ -6.53 дБ 4:05 03-Deal
DR6 -0.20 дБ -7.65 дБ 4:30 04-Come On In My Kitchen
DR5 -0.20 дБ -6.05 дБ 4:38 05-Old No. 7
DR5 -0.20 дБ -7.01 дБ 4:05 06-Alexandria
DR6 -0.20 дБ -8.94 дБ 6:43 07-Stormy Monday
DR4 -0.20 дБ -5.87 дБ 4:36 08-Leave The Cap Off The Bottle
DR5 -0.20 дБ -7.54 дБ 5:41 09-Gotta Keep Moving On
DR5 -0.20 дБ -6.53 дБ 3:46 10-Martrydom Of St. Me
DR5 -0.20 дБ -6.87 дБ 6:08 11-Kennel Howl
DR5 -0.20 дБ -6.09 дБ 3:26 12-Smoking Gun
DR6 -0.20 дБ -8.32 дБ 5:59 13-Salt Whiskey
--------------------------------------------------------------------------------

Количество треков: 13
Реальные значения DR: DR5

Частота: 44100 Гц
Каналов: 2
Разрядность: 16
Битрейт: 925 кбит/с
Кодек: FLAC
================================================================================
YouTube
Время раздачи: По мере возможности (до появления первых 3-5 скачавших)
[NNMClub.to]_Hunter & The Dirty Jacks - Mixed Company & The Midnight Hokum (2015).torrent
 Торрент:   Зарегистрирован
 
Примагнититься
Free Leech
Зарегистрируйтесь и скачайте торрент!
18,3 KB
 Зарегистрирован:   17 Янв 2017 17:47:33
 Размер:   424 MB  (
 Рейтинг:    (Голосов: 4)
 Поблагодарили:   41
 Проверка:   Оформление проверено модератором 18 Янв 2017 10:41:41
Как cкачать  ·  Как раздать  ·  Правильно оформить  ·  Поднять ратио!  
Показать сообщения:   
Начать новую тему   Ответить на тему    Торрент-трекер NNM-Club -> Jazz, Blues, Soul -> Blues, Soul (Lossless) Часовой пояс: GMT + 3
Страница 1 из 1