Интеллигентный торрент-трекер
canvas not supported
Нас вместе: 4 253 331

Paul van Dyk - Out There And Back (2000) [FLAC 2.0|24/96|tracks|Vinyl-Rip] <Trance>


 
 
RSS
Начать новую тему   Ответить на тему    Торрент-трекер NNM-Club -> HD Audio и Многоканальная Музыка -> Vinyl-Rip и Hand-Made
Автор Сообщение
Lazyra ®
Модератор Electronic
RG Музыки
 
Стаж: 5 лет 11 мес.
Сообщений: 4541
Ratio: 1602,909
Раздал: 53,47 TB
Поблагодарили: 93622
100%
Откуда: Владимир
russia.gif
Paul van Dyk - Out There And Back (2000)



Год: 2000
Жанр: Trance
Продолжительность: 01:31:49
Лейбл: Vandit Records
Каталог №: DMD Vandit004
Тип рипа: tracks
Формат записи: 24 bit / 96 kHz
Формат раздачи: 24 bit / 96 kHz
Кодек: FLAC 2.0


Треклист:
A. We Are Alive (07:35)
B1. Travelling (07:42)
B2. Pikes (07:12)
C. Columbia (07:31)
D1. Vega (06:40)
D2. Santos (08:28)
E. Out There And Back (08:01)
F1. Face To Face (06:15)
F2. Together We Will Conquer (08:28)
G. Tell Me Why (The Riddle) (Vandit Club Mix - ReEdit) (07:20)
H1. The Love From Above (07:07)
H2. Namistai (09:35)
Оцифровано: третьим лицом / Apollo / my request
Turntable: Vestax PDT-5000 Professional Direct Drive
Cartridge/Stylus: Numark CS-1 (Frequency response: 20 to 22,000Hz)
Pitch: Quartz Lock activated 0%
Liquid Clean Vinyl: DIY Cleaning Solution "3 parts Distilled Water, 1 part 91% Isopropyl Alcohol, 3 to 5 drops of Jet-Dry (Surfactant 'wetting agent')"
Soundcard: Native Instruments Audio 8 DJ (ASIO)
PC Program (Recording): Adobe Audition CS6
PC Program (Dynamic Variation): TT DR-Meter 1.4a
PC Program (FLAC Encoding): dBpoweramp R14.4 Reference Version (Compression Level: 8)
PC Program (Tagging): MediaMonkey v4 (Extension: Discogs Tagger Script 4)
PC Program (Key & Tempo): Mixed In Key 5 (Saved in Comment section: Camelot notation)
Код: выделить все
Общее
Полное имя                               : D:\Paul van Dyk - Out There And Back [FLAC-LP-24-96]\Paul van Dyk - Out There And Back - A - We Are Alive.flac
Формат                                   : FLAC
Формат/Информация                        : Free Lossless Audio Codec
Размер файла                             : 155 Мбайт
Продолжительность                        : 7 м. 35 с.
Режим общего битрейта                    : Переменный
Общий поток                              : 2855 Кбит/сек
Альбом                                   : Out There And Back
Альбом/Исполнитель                       : Paul van Dyk
Трек                                     : We Are Alive
Трек/Положение                           : A
Исполнитель                              : Paul van Dyk
Метка                                    : Vandit Records
Жанр                                     : Trance / Ambient
Дата записи                              : 2000
Примечание                               : Vinyl 24bit 96000Hz
CATALOG                                  : DMD Vandit004

Аудио
Формат                                   : FLAC
Формат/Информация                        : Free Lossless Audio Codec
Продолжительность                        : 7 м. 35 с.
Вид битрейта                             : Переменный
Битрейт                                  : 2854 Кбит/сек
Каналы                                   : 2 канала
Частота                                  : 96,0 КГц
Битовая глубина                          : 24 бит
Размер потока                            : 155 Мбайт (100%)
Библиотека кодирования                   : libFLAC 1.3.1 (UTC 2014-11-25)

Общее
Полное имя                               : D:\Paul van Dyk - Out There And Back [FLAC-LP-24-96]\Paul van Dyk - Out There And Back - B1 - Travelling.flac
Формат                                   : FLAC
Формат/Информация                        : Free Lossless Audio Codec
Размер файла                             : 156 Мбайт
Продолжительность                        : 7 м. 42 с.
Режим общего битрейта                    : Переменный
Общий поток                              : 2825 Кбит/сек
Альбом                                   : Out There And Back
Альбом/Исполнитель                       : Paul van Dyk
Трек                                     : Travelling
Трек/Положение                           : B1
Исполнитель                              : Paul van Dyk
Метка                                    : Vandit Records
Жанр                                     : Trance / Ambient
Дата записи                              : 2000
Примечание                               : Vinyl 24bit 96000Hz
CATALOG                                  : DMD Vandit004

Аудио
Формат                                   : FLAC
Формат/Информация                        : Free Lossless Audio Codec
Продолжительность                        : 7 м. 42 с.
Вид битрейта                             : Переменный
Битрейт                                  : 2825 Кбит/сек
Каналы                                   : 2 канала
Частота                                  : 96,0 КГц
Битовая глубина                          : 24 бит
Размер потока                            : 156 Мбайт (100%)
Библиотека кодирования                   : libFLAC 1.3.1 (UTC 2014-11-25)

Общее
Полное имя                               : D:\Paul van Dyk - Out There And Back [FLAC-LP-24-96]\Paul van Dyk - Out There And Back - B2 - Pikes.flac
Формат                                   : FLAC
Формат/Информация                        : Free Lossless Audio Codec
Размер файла                             : 144 Мбайт
Продолжительность                        : 7 м. 8 с.
Режим общего битрейта                    : Переменный
Общий поток                              : 2816 Кбит/сек
Альбом                                   : Out There And Back
Альбом/Исполнитель                       : Paul van Dyk
Трек                                     : Pikes
Трек/Положение                           : B2
Исполнитель                              : Paul van Dyk
Метка                                    : Vandit Records
Жанр                                     : Trance / Ambient
Дата записи                              : 2000
Примечание                               : Vinyl 24bit 96000Hz
CATALOG                                  : DMD Vandit004

Аудио
Формат                                   : FLAC
Формат/Информация                        : Free Lossless Audio Codec
Продолжительность                        : 7 м. 8 с.
Вид битрейта                             : Переменный
Битрейт                                  : 2816 Кбит/сек
Каналы                                   : 2 канала
Частота                                  : 96,0 КГц
Битовая глубина                          : 24 бит
Размер потока                            : 144 Мбайт (100%)
Библиотека кодирования                   : libFLAC 1.3.1 (UTC 2014-11-25)

Общее
Полное имя                               : D:\Paul van Dyk - Out There And Back [FLAC-LP-24-96]\Paul van Dyk - Out There And Back - C - Columbia.flac
Формат                                   : FLAC
Формат/Информация                        : Free Lossless Audio Codec
Размер файла                             : 151 Мбайт
Продолжительность                        : 7 м. 31 с.
Режим общего битрейта                    : Переменный
Общий поток                              : 2800 Кбит/сек
Альбом                                   : Out There And Back
Альбом/Исполнитель                       : Paul van Dyk
Трек                                     : Columbia
Трек/Положение                           : C
Исполнитель                              : Paul van Dyk
Метка                                    : Vandit Records
Жанр                                     : Trance / Ambient
Дата записи                              : 2000
Примечание                               : Vinyl 24bit 96000Hz
CATALOG                                  : DMD Vandit004

Аудио
Формат                                   : FLAC
Формат/Информация                        : Free Lossless Audio Codec
Продолжительность                        : 7 м. 31 с.
Вид битрейта                             : Переменный
Битрейт                                  : 2800 Кбит/сек
Каналы                                   : 2 канала
Частота                                  : 96,0 КГц
Битовая глубина                          : 24 бит
Размер потока                            : 151 Мбайт (100%)
Библиотека кодирования                   : libFLAC 1.3.1 (UTC 2014-11-25)

Общее
Полное имя                               : D:\Paul van Dyk - Out There And Back [FLAC-LP-24-96]\Paul van Dyk - Out There And Back - D1 - Vega.flac
Формат                                   : FLAC
Формат/Информация                        : Free Lossless Audio Codec
Размер файла                             : 129 Мбайт
Продолжительность                        : 6 м. 40 с.
Режим общего битрейта                    : Переменный
Общий поток                              : 2700 Кбит/сек
Альбом                                   : Out There And Back
Альбом/Исполнитель                       : Paul van Dyk
Трек                                     : Vega
Трек/Положение                           : D1
Исполнитель                              : Paul van Dyk
Метка                                    : Vandit Records
Жанр                                     : Trance / Ambient
Дата записи                              : 2000
Примечание                               : Vinyl 24bit 96000Hz
CATALOG                                  : DMD Vandit004

Аудио
Формат                                   : FLAC
Формат/Информация                        : Free Lossless Audio Codec
Продолжительность                        : 6 м. 40 с.
Вид битрейта                             : Переменный
Битрейт                                  : 2700 Кбит/сек
Каналы                                   : 2 канала
Частота                                  : 96,0 КГц
Битовая глубина                          : 24 бит
Размер потока                            : 129 Мбайт (100%)
Библиотека кодирования                   : libFLAC 1.3.1 (UTC 2014-11-25)

Общее
Полное имя                               : D:\Paul van Dyk - Out There And Back [FLAC-LP-24-96]\Paul van Dyk - Out There And Back - D2 - Santos.flac
Формат                                   : FLAC
Формат/Информация                        : Free Lossless Audio Codec
Размер файла                             : 172 Мбайт
Продолжительность                        : 8 м. 28 с.
Режим общего битрейта                    : Переменный
Общий поток                              : 2848 Кбит/сек
Альбом                                   : Out There And Back
Альбом/Исполнитель                       : Paul van Dyk
Трек                                     : Santos
Трек/Положение                           : D2
Исполнитель                              : Paul van Dyk
Метка                                    : Vandit Records
Жанр                                     : Trance / Ambient
Дата записи                              : 2000
Примечание                               : Vinyl 24bit 96000Hz
CATALOG                                  : DMD Vandit004

Аудио
Формат                                   : FLAC
Формат/Информация                        : Free Lossless Audio Codec
Продолжительность                        : 8 м. 28 с.
Вид битрейта                             : Переменный
Битрейт                                  : 2848 Кбит/сек
Каналы                                   : 2 канала
Частота                                  : 96,0 КГц
Битовая глубина                          : 24 бит
Размер потока                            : 172 Мбайт (100%)
Библиотека кодирования                   : libFLAC 1.3.1 (UTC 2014-11-25)

Общее
Полное имя                               : D:\Paul van Dyk - Out There And Back [FLAC-LP-24-96]\Paul van Dyk - Out There And Back - E - Out There And Back.flac
Формат                                   : FLAC
Формат/Информация                        : Free Lossless Audio Codec
Размер файла                             : 156 Мбайт
Продолжительность                        : 8 м. 2 с.
Режим общего битрейта                    : Переменный
Общий поток                              : 2717 Кбит/сек
Альбом                                   : Out There And Back
Альбом/Исполнитель                       : Paul van Dyk
Трек                                     : Out There And Back
Трек/Положение                           : E
Исполнитель                              : Paul van Dyk
Метка                                    : Vandit Records
Жанр                                     : Trance / Ambient
Дата записи                              : 2000
Примечание                               : Vinyl 24bit 96000Hz
CATALOG                                  : DMD Vandit004

Аудио
Формат                                   : FLAC
Формат/Информация                        : Free Lossless Audio Codec
Продолжительность                        : 8 м. 2 с.
Вид битрейта                             : Переменный
Битрейт                                  : 2717 Кбит/сек
Каналы                                   : 2 канала
Частота                                  : 96,0 КГц
Битовая глубина                          : 24 бит
Размер потока                            : 156 Мбайт (100%)
Библиотека кодирования                   : libFLAC 1.3.1 (UTC 2014-11-25)

Общее
Полное имя                               : D:\Paul van Dyk - Out There And Back [FLAC-LP-24-96]\Paul van Dyk - Out There And Back - F1 - Face To Face.flac
Формат                                   : FLAC
Формат/Информация                        : Free Lossless Audio Codec
Размер файла                             : 122 Мбайт
Продолжительность                        : 6 м. 15 с.
Режим общего битрейта                    : Переменный
Общий поток                              : 2727 Кбит/сек
Альбом                                   : Out There And Back
Альбом/Исполнитель                       : Paul van Dyk
Трек                                     : Face To Face
Трек/Положение                           : F1
Исполнитель                              : Paul van Dyk
Метка                                    : Vandit Records
Жанр                                     : Trance / Ambient
Дата записи                              : 2000
Примечание                               : Vinyl 24bit 96000Hz
CATALOG                                  : DMD Vandit004

Аудио
Формат                                   : FLAC
Формат/Информация                        : Free Lossless Audio Codec
Продолжительность                        : 6 м. 15 с.
Вид битрейта                             : Переменный
Битрейт                                  : 2727 Кбит/сек
Каналы                                   : 2 канала
Частота                                  : 96,0 КГц
Битовая глубина                          : 24 бит
Размер потока                            : 122 Мбайт (100%)
Библиотека кодирования                   : libFLAC 1.3.1 (UTC 2014-11-25)

Общее
Полное имя                               : D:\Paul van Dyk - Out There And Back [FLAC-LP-24-96]\Paul van Dyk - Out There And Back - F2 - Together We Will Conquer.flac
Формат                                   : FLAC
Формат/Информация                        : Free Lossless Audio Codec
Размер файла                             : 174 Мбайт
Продолжительность                        : 8 м. 28 с.
Режим общего битрейта                    : Переменный
Общий поток                              : 2877 Кбит/сек
Альбом                                   : Out There And Back
Альбом/Исполнитель                       : Paul van Dyk
Трек                                     : Together We Will Conquer
Трек/Положение                           : F2
Исполнитель                              : Paul van Dyk
Метка                                    : Vandit Records
Жанр                                     : Trance / Ambient
Дата записи                              : 2000
Примечание                               : Vinyl 24bit 96000Hz
CATALOG                                  : DMD Vandit004

Аудио
Формат                                   : FLAC
Формат/Информация                        : Free Lossless Audio Codec
Продолжительность                        : 8 м. 28 с.
Вид битрейта                             : Переменный
Битрейт                                  : 2876 Кбит/сек
Каналы                                   : 2 канала
Частота                                  : 96,0 КГц
Битовая глубина                          : 24 бит
Размер потока                            : 174 Мбайт (100%)
Библиотека кодирования                   : libFLAC 1.3.1 (UTC 2014-11-25)

Общее
Полное имя                               : D:\Paul van Dyk - Out There And Back [FLAC-LP-24-96]\Paul van Dyk - Out There And Back - G - Tell Me Why (The Riddle) (Vandit Club Mix - ReEdit).flac
Формат                                   : FLAC
Формат/Информация                        : Free Lossless Audio Codec
Размер файла                             : 140 Мбайт
Продолжительность                        : 7 м. 18 с.
Режим общего битрейта                    : Переменный
Общий поток                              : 2671 Кбит/сек
Альбом                                   : Out There And Back
Альбом/Исполнитель                       : Paul van Dyk
Трек                                     : Tell Me Why (The Riddle) (Vandit Club Mix - ReEdit)
Трек/Положение                           : G
Исполнитель                              : Paul van Dyk
Метка                                    : Vandit Records
Жанр                                     : Trance / Ambient
Дата записи                              : 2000
Примечание                               : Vinyl 24bit 96000Hz
CATALOG                                  : DMD Vandit004

Аудио
Формат                                   : FLAC
Формат/Информация                        : Free Lossless Audio Codec
Продолжительность                        : 7 м. 18 с.
Вид битрейта                             : Переменный
Битрейт                                  : 2671 Кбит/сек
Каналы                                   : 2 канала
Частота                                  : 96,0 КГц
Битовая глубина                          : 24 бит
Размер потока                            : 140 Мбайт (100%)
Библиотека кодирования                   : libFLAC 1.3.1 (UTC 2014-11-25)

Общее
Полное имя                               : D:\Paul van Dyk - Out There And Back [FLAC-LP-24-96]\Paul van Dyk - Out There And Back - H1 - The Love From Above.flac
Формат                                   : FLAC
Формат/Информация                        : Free Lossless Audio Codec
Размер файла                             : 143 Мбайт
Продолжительность                        : 7 м. 7 с.
Режим общего битрейта                    : Переменный
Общий поток                              : 2816 Кбит/сек
Альбом                                   : Out There And Back
Альбом/Исполнитель                       : Paul van Dyk
Трек                                     : The Love From Above
Трек/Положение                           : H1
Исполнитель                              : Paul van Dyk
Метка                                    : Vandit Records
Жанр                                     : Trance / Ambient
Дата записи                              : 2000
Примечание                               : Vinyl 24bit 96000Hz
CATALOG                                  : DMD Vandit004

Аудио
Формат                                   : FLAC
Формат/Информация                        : Free Lossless Audio Codec
Продолжительность                        : 7 м. 7 с.
Вид битрейта                             : Переменный
Битрейт                                  : 2816 Кбит/сек
Каналы                                   : 2 канала
Частота                                  : 96,0 КГц
Битовая глубина                          : 24 бит
Размер потока                            : 143 Мбайт (100%)
Библиотека кодирования                   : libFLAC 1.3.1 (UTC 2014-11-25)

Общее
Полное имя                               : D:\Paul van Dyk - Out There And Back [FLAC-LP-24-96]\Paul van Dyk - Out There And Back - H2 - Namistai.flac
Формат                                   : FLAC
Формат/Информация                        : Free Lossless Audio Codec
Размер файла                             : 190 Мбайт
Продолжительность                        : 9 м. 35 с.
Режим общего битрейта                    : Переменный
Общий поток                              : 2767 Кбит/сек
Альбом                                   : Out There And Back
Альбом/Исполнитель                       : Paul van Dyk
Трек                                     : Namistai
Трек/Положение                           : H2
Исполнитель                              : Paul van Dyk
Метка                                    : Vandit Records
Жанр                                     : Trance / Ambient
Дата записи                              : 2000
Примечание                               : Vinyl 24bit 96000Hz
CATALOG                                  : DMD Vandit004

Аудио
Формат                                   : FLAC
Формат/Информация                        : Free Lossless Audio Codec
Продолжительность                        : 9 м. 35 с.
Вид битрейта                             : Переменный
Битрейт                                  : 2767 Кбит/сек
Каналы                                   : 2 канала
Частота                                  : 96,0 КГц
Битовая глубина                          : 24 бит
Размер потока                            : 190 Мбайт (100%)
Библиотека кодирования                   : libFLAC 1.3.1 (UTC 2014-11-25)


Время раздачи: 24/7
[NNMClub.to]_Paul van Dyk - Out There And Back [FLAC-LP-24-96].torrent
 Торрент:   Зарегистрирован
 
Примагнититься
Free Leech
Зарегистрируйтесь и скачайте торрент!
19,2 KB
 Зарегистрирован:   30 Янв 2017 12:03:16
 Размер:   1,79 GB  (
 Рейтинг:   4,8 (Голосов: 19)
 Поблагодарили:   63
 Проверка:   Оформление проверено модератором 30 Янв 2017 12:11:18
Как cкачать  ·  Как раздать  ·  Правильно оформить  ·  Поднять ратио!  
cRaShizLa
Стаж: 6 лет 2 мес.
Сообщений: 25
Ratio: 1,088
2.94%
krevedko.png
Легенда, что уж тут скажешь.
Показать сообщения:   
Начать новую тему   Ответить на тему    Торрент-трекер NNM-Club -> HD Audio и Многоканальная Музыка -> Vinyl-Rip и Hand-Made Часовой пояс: GMT + 3
Страница 1 из 1