Интеллигентный торрент-трекер
canvas not supported
Нас вместе: 4 303 303

Frank Bretschneider - Discography 15 Releases (1999-2015) [FLAC|Lossless|tracks + .cue] <Glitch, Minimal, IDM, Abstract, Ambient>


 
 
RSS
Начать новую тему   Ответить на тему    Торрент-трекер NNM-Club -> Electronic -> IDM (Lossless)
Автор Сообщение
vilator ®
Модератор Музыки
RG Music
 
Стаж: 7 лет 11 мес.
Сообщений: 5694
Ratio: 124,763
Поблагодарили: 111780
100%
Откуда: Minsk
pirates.png
Frank Bretschneider Discography

Франк Бретшнайдер - немецкий электронный музыкант. Он в основном работает с синусоидальными волнами и белым шумом в качестве исходного материала.
В 1995 году Бретшнайдер c другим бывшим участником AG Geige Олафом Бендером (Olaf Bender, Byetone) основал лейбл Rastermusic (возможно, настоящее название Rastermusik). В 1999 году этот лейбл объединился с лейблом Noton Карстена Николаи (Carsten Nicolai, Alva Noto, Noto), образовав Raster-Noton. Франк Бретшнайдер выпускал материал на лейблах 12k, Raster-Noton, Mille Plateaux, Fällt и Bip-Hop.

Жанр: Glitch, Experimental, Minimal, IDM, Abstract, Ambient • Страна: Germany • Год издания диска: 1999-2015 • Тип издания: CD, Web
Аудиокодек: FLAC (*.flac) • Тип рипа: tracks+.cue, tracks • Продолжительность: 10:49:24 • Источник: What • Наличие сканов: Да
Треклист:
Год выпуска: 1999
Продолжительность: 01:00:14
Треклист:

01. Din (03:47)
02. Mond (04:04)
03. Glas (03:04)
04. Pal (02:59)
05. Mol (03:04)
06. Pond (02:47)
07. Mark (03:03)
08. Rand (03:07)
09. Last (02:49)
10. Land (02:28)
11. Verb (02:58)
12. Pin (02:25)
13. Watt (03:07)
14. Nox (03:21)
15. Mai (03:00)
16. Bell (03:07)
17. Norm (02:28)
18. Term (03:19)
19. M.D. (02:32)
20. Tau (02:45)

Exact Audio Copy V0.99 prebeta 4 from 23. January 2008

EAC extraction logfile from 1. November 2008, 14:42

Frank Bretschneider / Rand

Used drive : LITE-ON CD-RW SOHR-5239V Adapter: 0 ID: 1

Read mode : Secure
Utilize accurate stream : Yes
Defeat audio cache : Yes
Make use of C2 pointers : No

Read offset correction : 6
Overread into Lead-In and Lead-Out : No
Fill up missing offset samples with silence : Yes
Delete leading and trailing silent blocks : No
Null samples used in CRC calculations : Yes
Used interface : Native Win32 interface for Win NT & 2000
Gap handling : Appended to previous track

Used output format : User Defined Encoder
Selected bitrate : 320 kBit/s
Quality : High
Add ID3 tag : No
Command line compressor : C:\Program Files\FLAC\flac.exe
Additional command line options : -V -8 -T "artist=%a" -T "title=%t" -T "album=%g" -T "date=%y" -T "tracknumber=%n" -T "genre=%m" %s

TOC of the extracted CD

Track | Start | Length | Start sector | End sector
---------------------------------------------------------
1 | 0:00.00 | 3:46.66 | 0 | 17015
2 | 3:46.66 | 4:03.62 | 17016 | 35302
3 | 7:50.53 | 3:04.20 | 35303 | 49122
4 | 10:54.73 | 2:58.40 | 49123 | 62512
5 | 13:53.38 | 3:04.20 | 62513 | 76332
6 | 16:57.58 | 2:47.18 | 76333 | 88875
7 | 19:45.01 | 3:02.42 | 88876 | 102567
8 | 22:47.43 | 3:07.34 | 102568 | 116626
9 | 25:55.02 | 2:49.35 | 116627 | 129336
10 | 28:44.37 | 2:28.12 | 129337 | 140448
11 | 31:12.49 | 2:58.32 | 140449 | 153830
12 | 34:11.06 | 2:24.62 | 153831 | 164692
13 | 36:35.68 | 3:06.44 | 164693 | 178686
14 | 39:42.37 | 3:20.47 | 178687 | 193733
15 | 43:03.09 | 2:59.68 | 193734 | 207226
16 | 46:03.02 | 3:06.65 | 207227 | 221241
17 | 49:09.67 | 2:27.63 | 221242 | 232329
18 | 51:37.55 | 3:19.15 | 232330 | 247269
19 | 54:56.70 | 2:31.51 | 247270 | 258645
20 | 57:28.46 | 2:44.73 | 258646 | 271018

Track 1

Filename G:\My Music\Frank Bretschneider - 1999 - Rand\01 - din.wav

Pre-gap length 0:00:02.00

Peak level 100.0 %
Track quality 100.0 %
Test CRC 7D239B3C
Copy CRC 7D239B3C
Track not present in AccurateRip database
Copy OK

Track 2

Filename G:\My Music\Frank Bretschneider - 1999 - Rand\02 - mond.wav

Pre-gap length 0:00:02.00

Peak level 100.0 %
Track quality 100.0 %
Test CRC DF6B3216
Copy CRC DF6B3216
Track not present in AccurateRip database
Copy OK

Track 3

Filename G:\My Music\Frank Bretschneider - 1999 - Rand\03 - glas.wav

Pre-gap length 0:00:02.00

Peak level 97.7 %
Track quality 99.9 %
Test CRC 4D7B752F
Copy CRC 4D7B752F
Track not present in AccurateRip database
Copy OK

Track 4

Filename G:\My Music\Frank Bretschneider - 1999 - Rand\04 - pal.wav

Pre-gap length 0:00:02.00

Peak level 100.0 %
Track quality 100.0 %
Test CRC 6E37C364
Copy CRC 6E37C364
Track not present in AccurateRip database
Copy OK

Track 5

Filename G:\My Music\Frank Bretschneider - 1999 - Rand\05 - mol.wav

Pre-gap length 0:00:02.00

Peak level 100.0 %
Track quality 99.9 %
Test CRC 89F39F2B
Copy CRC 89F39F2B
Track not present in AccurateRip database
Copy OK

Track 6

Filename G:\My Music\Frank Bretschneider - 1999 - Rand\06 - pond.wav

Pre-gap length 0:00:02.00

Peak level 95.5 %
Track quality 100.0 %
Test CRC 9640274F
Copy CRC 9640274F
Track not present in AccurateRip database
Copy OK

Track 7

Filename G:\My Music\Frank Bretschneider - 1999 - Rand\07 - mark.wav

Pre-gap length 0:00:02.00

Peak level 62.0 %
Track quality 100.0 %
Test CRC F7495D60
Copy CRC F7495D60
Track not present in AccurateRip database
Copy OK

Track 8

Filename G:\My Music\Frank Bretschneider - 1999 - Rand\08 - rand.wav

Pre-gap length 0:00:02.00

Peak level 100.0 %
Track quality 100.0 %
Test CRC 36B79C66
Copy CRC 36B79C66
Track not present in AccurateRip database
Copy OK

Track 9

Filename G:\My Music\Frank Bretschneider - 1999 - Rand\09 - last.wav

Pre-gap length 0:00:02.00

Peak level 60.7 %
Track quality 100.0 %
Test CRC 33A435E9
Copy CRC 33A435E9
Track not present in AccurateRip database
Copy OK

Track 10

Filename G:\My Music\Frank Bretschneider - 1999 - Rand\10 - land.wav

Pre-gap length 0:00:02.00

Peak level 24.4 %
Track quality 100.0 %
Test CRC 517D1006
Copy CRC 517D1006
Track not present in AccurateRip database
Copy OK

Track 11

Filename G:\My Music\Frank Bretschneider - 1999 - Rand\11 - verb.wav

Pre-gap length 0:00:02.00

Peak level 100.0 %
Track quality 100.0 %
Test CRC DE44B93A
Copy CRC DE44B93A
Track not present in AccurateRip database
Copy OK

Track 12

Filename G:\My Music\Frank Bretschneider - 1999 - Rand\12 - pin.wav

Pre-gap length 0:00:02.00

Peak level 100.0 %
Track quality 100.0 %
Test CRC 55A9FC03
Copy CRC 55A9FC03
Track not present in AccurateRip database
Copy OK

Track 13

Filename G:\My Music\Frank Bretschneider - 1999 - Rand\13 - watt.wav

Pre-gap length 0:00:02.00

Peak level 96.4 %
Track quality 100.0 %
Test CRC 0E136881
Copy CRC 0E136881
Track not present in AccurateRip database
Copy OK

Track 14

Filename G:\My Music\Frank Bretschneider - 1999 - Rand\14 - nox.wav

Pre-gap length 0:00:02.00

Peak level 94.7 %
Track quality 100.0 %
Test CRC AF1CC2A2
Copy CRC AF1CC2A2
Track not present in AccurateRip database
Copy OK

Track 15

Filename G:\My Music\Frank Bretschneider - 1999 - Rand\15 - mai.wav

Pre-gap length 0:00:02.00

Peak level 79.4 %
Track quality 100.0 %
Test CRC BAC67AFB
Copy CRC BAC67AFB
Track not present in AccurateRip database
Copy OK

Track 16

Filename G:\My Music\Frank Bretschneider - 1999 - Rand\16 - bell.wav

Pre-gap length 0:00:02.00

Peak level 82.4 %
Track quality 100.0 %
Test CRC CD63ECDD
Copy CRC CD63ECDD
Track not present in AccurateRip database
Copy OK

Track 17

Filename G:\My Music\Frank Bretschneider - 1999 - Rand\17 - norm.wav

Pre-gap length 0:00:02.00

Peak level 100.0 %
Track quality 100.0 %
Test CRC 1273C641
Copy CRC 1273C641
Track not present in AccurateRip database
Copy OK

Track 18

Filename G:\My Music\Frank Bretschneider - 1999 - Rand\18 - term.wav

Pre-gap length 0:00:02.00

Peak level 95.0 %
Track quality 100.0 %
Test CRC 400226EE
Copy CRC 400226EE
Track not present in AccurateRip database
Copy OK

Track 19

Filename G:\My Music\Frank Bretschneider - 1999 - Rand\19 - m.d..wav

Pre-gap length 0:00:02.00

Peak level 77.8 %
Track quality 100.0 %
Test CRC 0854B644
Copy CRC 0854B644
Track not present in AccurateRip database
Copy OK

Track 20

Filename G:\My Music\Frank Bretschneider - 1999 - Rand\20 - tau.wav

Pre-gap length 0:00:02.00

Peak level 100.0 %
Track quality 100.0 %
Test CRC BC976931
Copy CRC BC976931
Track not present in AccurateRip database
Copy OK

None of the tracks are present in the AccurateRip database

No errors occurred

End of status report


REM GENRE Electronic
REM DATE 1999
REM DISCID 400E1D14
REM COMMENT "ExactAudioCopy v0.99pb4"
PERFORMER "Frank Bretschneider"
TITLE "Rand"
FILE "01 - din.wav" WAVE
TRACK 01 AUDIO
TITLE "din"
PERFORMER "Frank Bretschneider"
INDEX 01 00:00:00
TRACK 02 AUDIO
TITLE "mond"
PERFORMER "Frank Bretschneider"
INDEX 00 03:44:66
FILE "02 - mond.wav" WAVE
INDEX 01 00:00:00
TRACK 03 AUDIO
TITLE "glas"
PERFORMER "Frank Bretschneider"
INDEX 00 04:01:62
FILE "03 - glas.wav" WAVE
INDEX 01 00:00:00
TRACK 04 AUDIO
TITLE "pal"
PERFORMER "Frank Bretschneider"
INDEX 00 03:02:20
FILE "04 - pal.wav" WAVE
INDEX 01 00:00:00
TRACK 05 AUDIO
TITLE "mol"
PERFORMER "Frank Bretschneider"
INDEX 00 02:56:40
FILE "05 - mol.wav" WAVE
INDEX 01 00:00:00
TRACK 06 AUDIO
TITLE "pond"
PERFORMER "Frank Bretschneider"
INDEX 00 03:02:20
FILE "06 - pond.wav" WAVE
INDEX 01 00:00:00
TRACK 07 AUDIO
TITLE "mark"
PERFORMER "Frank Bretschneider"
INDEX 00 02:45:18
FILE "07 - mark.wav" WAVE
INDEX 01 00:00:00
TRACK 08 AUDIO
TITLE "rand"
PERFORMER "Frank Bretschneider"
INDEX 00 03:00:42
FILE "08 - rand.wav" WAVE
INDEX 01 00:00:00
TRACK 09 AUDIO
TITLE "last"
PERFORMER "Frank Bretschneider"
INDEX 00 03:05:34
FILE "09 - last.wav" WAVE
INDEX 01 00:00:00
TRACK 10 AUDIO
TITLE "land"
PERFORMER "Frank Bretschneider"
INDEX 00 02:47:35
FILE "10 - land.wav" WAVE
INDEX 01 00:00:00
TRACK 11 AUDIO
TITLE "verb"
PERFORMER "Frank Bretschneider"
INDEX 00 02:26:12
FILE "11 - verb.wav" WAVE
INDEX 01 00:00:00
TRACK 12 AUDIO
TITLE "pin"
PERFORMER "Frank Bretschneider"
INDEX 00 02:56:32
FILE "12 - pin.wav" WAVE
INDEX 01 00:00:00
TRACK 13 AUDIO
TITLE "watt"
PERFORMER "Frank Bretschneider"
INDEX 00 02:22:62
FILE "13 - watt.wav" WAVE
INDEX 01 00:00:00
TRACK 14 AUDIO
TITLE "nox"
PERFORMER "Frank Bretschneider"
INDEX 00 03:04:44
FILE "14 - nox.wav" WAVE
INDEX 01 00:00:00
TRACK 15 AUDIO
TITLE "mai"
PERFORMER "Frank Bretschneider"
INDEX 00 03:18:47
FILE "15 - mai.wav" WAVE
INDEX 01 00:00:00
TRACK 16 AUDIO
TITLE "bell"
PERFORMER "Frank Bretschneider"
INDEX 00 02:57:68
FILE "16 - bell.wav" WAVE
INDEX 01 00:00:00
TRACK 17 AUDIO
TITLE "norm"
PERFORMER "Frank Bretschneider"
INDEX 00 03:04:65
FILE "17 - norm.wav" WAVE
INDEX 01 00:00:00
TRACK 18 AUDIO
TITLE "term"
PERFORMER "Frank Bretschneider"
INDEX 00 02:25:63
FILE "18 - term.wav" WAVE
INDEX 01 00:00:00
TRACK 19 AUDIO
TITLE "m.d."
PERFORMER "Frank Bretschneider"
INDEX 00 03:17:15
FILE "19 - m.d..wav" WAVE
INDEX 01 00:00:00
TRACK 20 AUDIO
TITLE "tau"
PERFORMER "Frank Bretschneider"
INDEX 00 02:29:51
FILE "20 - tau.wav" WAVE
INDEX 01 00:00:00

Год выпуска: 2001
Продолжительность: 00:59:58
Треклист:

01. Blue (06:08)
02. Curve (07:26)
03. Fall (06:52)
04. Silk (08:58)
05. Sat (09:33)
06. Star (08:48)
07. Tag (07:47)
08. Tones (04:26)

X Lossless Decoder version 20101010 (123.3)

XLD extraction logfile from 2010-10-17 20:50:01 -0700

Frank Bretschneider / Curve

Used drive : MATSHITA DVD-R UJ-85J (revision FCQA)

Use cdparanoia mode : YES (CDParanoia III 10.2 engine)
Disable audio cache : OK for the drive with cache less than 2750KB
Make use of C2 pointers : NO
Read offset correction : 102
Max retry count : 100
Gap status : Analyzed, Appended

TOC of the extracted CD
Track | Start | Length | Start sector | End sector
---------------------------------------------------------
1 | 00:00:00 | 06:08:00 | 0 | 27599
2 | 06:08:00 | 07:26:00 | 27600 | 61049
3 | 13:34:00 | 06:52:00 | 61050 | 91949
4 | 20:26:00 | 08:58:00 | 91950 | 132299
5 | 29:24:00 | 09:32:71 | 132300 | 175270
6 | 38:56:71 | 08:48:03 | 175271 | 214873
7 | 47:44:74 | 07:46:44 | 214874 | 249867
8 | 55:31:43 | 04:26:33 | 249868 | 269850

All Tracks
Album gain : 2.88 dB
Peak : 1.000000

Track 01
Filename : /Volumes/ARTEMIS/BitTorrent/What.CD/4 - What.CD - Seeding (mine)/Frank Bretschneider - Curve [2001] Mille Plateaux, DE (mp 096) flac/01 Frank Bretschneider - Blue.m4a
/Volumes/ARTEMIS/BitTorrent/What.CD/4 - What.CD - Seeding (mine)/Frank Bretschneider - Curve [2001] Mille Plateaux, DE (mp 096) flac/01 Frank Bretschneider - Blue.flac
Pre-gap length : 00:02:00

Track gain : 3.36 dB
Peak : 1.000000
CRC32 hash (test run) : 731031A9
CRC32 hash : 731031A9
CRC32 hash (skip zero) : C90F7EEF
AccurateRip signature : 886F9C2A
->Accurately ripped! (confidence 5)
Statistics
Read error : 0
Skipped (treated as error) : 0
Edge jitter error (maybe fixed) : 0
Atom jitter error (maybe fixed) : 0
Drift error (maybe fixed) : 0
Dropped bytes error (maybe fixed) : 0
Duplicated bytes error (maybe fixed) : 0
Inconsistency in error sectors : 0

Track 02
Filename : /Volumes/ARTEMIS/BitTorrent/What.CD/4 - What.CD - Seeding (mine)/Frank Bretschneider - Curve [2001] Mille Plateaux, DE (mp 096) flac/02 Frank Bretschneider - Curve.m4a
/Volumes/ARTEMIS/BitTorrent/What.CD/4 - What.CD - Seeding (mine)/Frank Bretschneider - Curve [2001] Mille Plateaux, DE (mp 096) flac/02 Frank Bretschneider - Curve.flac

Track gain : 11.05 dB
Peak : 0.881805
CRC32 hash (test run) : AF49546B
CRC32 hash : AF49546B
CRC32 hash (skip zero) : EA00C7F3
AccurateRip signature : F761C456
->Accurately ripped! (confidence 5)
Statistics
Read error : 0
Skipped (treated as error) : 0
Edge jitter error (maybe fixed) : 0
Atom jitter error (maybe fixed) : 0
Drift error (maybe fixed) : 0
Dropped bytes error (maybe fixed) : 0
Duplicated bytes error (maybe fixed) : 0
Inconsistency in error sectors : 0

Track 03
Filename : /Volumes/ARTEMIS/BitTorrent/What.CD/4 - What.CD - Seeding (mine)/Frank Bretschneider - Curve [2001] Mille Plateaux, DE (mp 096) flac/03 Frank Bretschneider - Fall.m4a
/Volumes/ARTEMIS/BitTorrent/What.CD/4 - What.CD - Seeding (mine)/Frank Bretschneider - Curve [2001] Mille Plateaux, DE (mp 096) flac/03 Frank Bretschneider - Fall.flac

Track gain : 3.79 dB
Peak : 1.000000
CRC32 hash (test run) : A2D7AE78
CRC32 hash : A2D7AE78
CRC32 hash (skip zero) : 549423BA
AccurateRip signature : C6228EF2
->Accurately ripped! (confidence 5)
Statistics
Read error : 0
Skipped (treated as error) : 0
Edge jitter error (maybe fixed) : 0
Atom jitter error (maybe fixed) : 0
Drift error (maybe fixed) : 0
Dropped bytes error (maybe fixed) : 0
Duplicated bytes error (maybe fixed) : 0
Inconsistency in error sectors : 0

Track 04
Filename : /Volumes/ARTEMIS/BitTorrent/What.CD/4 - What.CD - Seeding (mine)/Frank Bretschneider - Curve [2001] Mille Plateaux, DE (mp 096) flac/04 Frank Bretschneider - Silk.m4a
/Volumes/ARTEMIS/BitTorrent/What.CD/4 - What.CD - Seeding (mine)/Frank Bretschneider - Curve [2001] Mille Plateaux, DE (mp 096) flac/04 Frank Bretschneider - Silk.flac

Track gain : 2.69 dB
Peak : 1.000000
CRC32 hash (test run) : 2427C8B0
CRC32 hash : 2427C8B0
CRC32 hash (skip zero) : F2E13A4F
AccurateRip signature : 14447B0F
->Accurately ripped! (confidence 5)
Statistics
Read error : 0
Skipped (treated as error) : 0
Edge jitter error (maybe fixed) : 0
Atom jitter error (maybe fixed) : 0
Drift error (maybe fixed) : 0
Dropped bytes error (maybe fixed) : 0
Duplicated bytes error (maybe fixed) : 0
Inconsistency in error sectors : 0

Track 05
Filename : /Volumes/ARTEMIS/BitTorrent/What.CD/4 - What.CD - Seeding (mine)/Frank Bretschneider - Curve [2001] Mille Plateaux, DE (mp 096) flac/05 Frank Bretschneider - Sat.m4a
/Volumes/ARTEMIS/BitTorrent/What.CD/4 - What.CD - Seeding (mine)/Frank Bretschneider - Curve [2001] Mille Plateaux, DE (mp 096) flac/05 Frank Bretschneider - Sat.flac

Track gain : 3.72 dB
Peak : 1.000000
CRC32 hash (test run) : 06CBA7BB
CRC32 hash : 06CBA7BB
CRC32 hash (skip zero) : 42DA7DC2
AccurateRip signature : 018BA7C8
->Accurately ripped! (confidence 5)
Statistics
Read error : 0
Skipped (treated as error) : 0
Edge jitter error (maybe fixed) : 0
Atom jitter error (maybe fixed) : 0
Drift error (maybe fixed) : 0
Dropped bytes error (maybe fixed) : 0
Duplicated bytes error (maybe fixed) : 0
Inconsistency in error sectors : 0

Track 06
Filename : /Volumes/ARTEMIS/BitTorrent/What.CD/4 - What.CD - Seeding (mine)/Frank Bretschneider - Curve [2001] Mille Plateaux, DE (mp 096) flac/06 Frank Bretschneider - Star.m4a
/Volumes/ARTEMIS/BitTorrent/What.CD/4 - What.CD - Seeding (mine)/Frank Bretschneider - Curve [2001] Mille Plateaux, DE (mp 096) flac/06 Frank Bretschneider - Star.flac

Track gain : 0.58 dB
Peak : 0.977814
CRC32 hash (test run) : 381F4A9C
CRC32 hash : 381F4A9C
CRC32 hash (skip zero) : 6CFFF859
AccurateRip signature : 17BC387B
->Accurately ripped! (confidence 4)
Statistics
Read error : 0
Skipped (treated as error) : 0
Edge jitter error (maybe fixed) : 0
Atom jitter error (maybe fixed) : 0
Drift error (maybe fixed) : 0
Dropped bytes error (maybe fixed) : 0
Duplicated bytes error (maybe fixed) : 0
Inconsistency in error sectors : 0

Track 07
Filename : /Volumes/ARTEMIS/BitTorrent/What.CD/4 - What.CD - Seeding (mine)/Frank Bretschneider - Curve [2001] Mille Plateaux, DE (mp 096) flac/07 Frank Bretschneider - Tag.m4a
/Volumes/ARTEMIS/BitTorrent/What.CD/4 - What.CD - Seeding (mine)/Frank Bretschneider - Curve [2001] Mille Plateaux, DE (mp 096) flac/07 Frank Bretschneider - Tag.flac

Track gain : 2.00 dB
Peak : 1.000000
CRC32 hash (test run) : B80E9C74
CRC32 hash : B80E9C74
CRC32 hash (skip zero) : E5C4136C
AccurateRip signature : 55107C50
->Accurately ripped! (confidence 5)
Statistics
Read error : 0
Skipped (treated as error) : 0
Edge jitter error (maybe fixed) : 0
Atom jitter error (maybe fixed) : 0
Drift error (maybe fixed) : 0
Dropped bytes error (maybe fixed) : 0
Duplicated bytes error (maybe fixed) : 0
Inconsistency in error sectors : 0

Track 08
Filename : /Volumes/ARTEMIS/BitTorrent/What.CD/4 - What.CD - Seeding (mine)/Frank Bretschneider - Curve [2001] Mille Plateaux, DE (mp 096) flac/08 Frank Bretschneider - Tones.m4a
/Volumes/ARTEMIS/BitTorrent/What.CD/4 - What.CD - Seeding (mine)/Frank Bretschneider - Curve [2001] Mille Plateaux, DE (mp 096) flac/08 Frank Bretschneider - Tones.flac

Track gain : 11.88 dB
Peak : 0.310425
CRC32 hash (test run) : B6CF8554
CRC32 hash : B6CF8554
CRC32 hash (skip zero) : 54EB3967
AccurateRip signature : B76476B8
->Accurately ripped! (confidence 5)
Statistics
Read error : 0
Skipped (treated as error) : 0
Edge jitter error (maybe fixed) : 0
Atom jitter error (maybe fixed) : 0
Drift error (maybe fixed) : 0
Dropped bytes error (maybe fixed) : 0
Duplicated bytes error (maybe fixed) : 0
Inconsistency in error sectors : 0

No errors occurred

End of status report


TITLE "Curve"
PERFORMER "Frank Bretschneider"
REM GENRE "Electronic"
REM DATE "2001-03-20"
REM DISCNUMBER 1
REM TOTALDISCS 1
REM DISCID 6E0E0E08
FILE "01 Frank Bretschneider - Blue.wav" WAVE
TRACK 01 AUDIO
TITLE "Blue"
SONGWRITER "Frank Bretschneider"
REM COMMENT "Mille Plateaux [mp 096] DE 5" CD, album (20 Mar 2001)"
INDEX 01 00:00:00
FILE "02 Frank Bretschneider - Curve.wav" WAVE
TRACK 02 AUDIO
TITLE "Curve"
SONGWRITER "Frank Bretschneider"
REM COMMENT "Mille Plateaux [mp 096] DE 5" CD, album (20 Mar 2001)"
INDEX 01 00:00:00
FILE "03 Frank Bretschneider - Fall.wav" WAVE
TRACK 03 AUDIO
TITLE "Fall"
SONGWRITER "Frank Bretschneider"
REM COMMENT "Mille Plateaux [mp 096] DE 5" CD, album (20 Mar 2001)"
INDEX 01 00:00:00
FILE "04 Frank Bretschneider - Silk.wav" WAVE
TRACK 04 AUDIO
TITLE "Silk"
SONGWRITER "Frank Bretschneider"
REM COMMENT "Mille Plateaux [mp 096] DE 5" CD, album (20 Mar 2001)"
INDEX 01 00:00:00
FILE "05 Frank Bretschneider - Sat.wav" WAVE
TRACK 05 AUDIO
TITLE "Sat"
SONGWRITER "Frank Bretschneider"
REM COMMENT "Mille Plateaux [mp 096] DE 5" CD, album (20 Mar 2001)"
INDEX 01 00:00:00
FILE "06 Frank Bretschneider - Star.wav" WAVE
TRACK 06 AUDIO
TITLE "Star"
SONGWRITER "Frank Bretschneider"
REM COMMENT "Mille Plateaux [mp 096] DE 5" CD, album (20 Mar 2001)"
INDEX 01 00:00:00
FILE "07 Frank Bretschneider - Tag.wav" WAVE
TRACK 07 AUDIO
TITLE "Tag"
SONGWRITER "Frank Bretschneider"
REM COMMENT "Mille Plateaux [mp 096] DE 5" CD, album (20 Mar 2001)"
INDEX 01 00:00:00
FILE "08 Frank Bretschneider - Tones.wav" WAVE
TRACK 08 AUDIO
TITLE "Tones"
SONGWRITER "Frank Bretschneider"
REM COMMENT "Mille Plateaux [mp 096] DE 5" CD, album (20 Mar 2001)"
INDEX 01 00:00:00

Год выпуска: 2002
Продолжительность: 00:45:56
Треклист:

01. Interlock (06:16)
02. Moving Light (05:44)
03. Dug In (05:09)
04. Vertical Invader (05:25)
05. Freeze Frame (04:15)
06. Autodrive (04:31)
07. Concrete (05:26)
08. Half-Mute (04:42)
09. Bluetime (04:28)

EAC extraction logfile from 17. November 2006, 20:59 for CD
Frank Bretschneider & Taylor Deupree / Balance

Used drive : PLEXTOR CD-R PREMIUM Adapter: 1 ID: 1
Read mode : Secure with NO C2, accurate stream, disable cache
Read offset correction : 30
Overread into Lead-In and Lead-Out : Yes

Used output format : C:\Program Files\FLAC\flac.exe (User Defined Encoder)
320 kBit/s
Additional command line options : --best -T "ARTIST=%a" -T "TITLE=%t" -T "ALBUM=%g" -T "TRACKNUMBER=%n" %s

Other options :
Fill up missing offset samples with silence : Yes
Delete leading and trailing silent blocks : No
Native Win32 interface for Win NT & 2000

Track 1
Filename C:\Documents and Settings\ryan\Desktop\temp\01-Interlock.wav

Pre-gap length 0:00:02.00

Peak level 95.7 %
Track quality 100.0 %
Test CRC 46CF32A6
Copy CRC 46CF32A6
Copy OK

Track 2
Filename C:\Documents and Settings\ryan\Desktop\temp\02-Moving Light.wav

Peak level 95.7 %
Track quality 99.9 %
Test CRC 3640F03D
Copy CRC 3640F03D
Copy OK

Track 3
Filename C:\Documents and Settings\ryan\Desktop\temp\03-Dug In.wav

Peak level 95.7 %
Track quality 100.0 %
Test CRC B05ADBCC
Copy CRC B05ADBCC
Copy OK

Track 4
Filename C:\Documents and Settings\ryan\Desktop\temp\04-Vertical Invader.wav

Peak level 95.7 %
Track quality 99.9 %
Test CRC 9FDD1842
Copy CRC 9FDD1842
Copy OK

Track 5
Filename C:\Documents and Settings\ryan\Desktop\temp\05-Freeze Frame.wav

Peak level 95.7 %
Track quality 99.9 %
Test CRC 4AA713A4
Copy CRC 4AA713A4
Copy OK

Track 6
Filename C:\Documents and Settings\ryan\Desktop\temp\06-Autodrive.wav

Peak level 95.7 %
Track quality 100.0 %
Test CRC C335D579
Copy CRC C335D579
Copy OK

Track 7
Filename C:\Documents and Settings\ryan\Desktop\temp\07-Concrete.wav

Peak level 95.7 %
Track quality 100.0 %
Test CRC B070E11B
Copy CRC B070E11B
Copy OK

Track 8
Filename C:\Documents and Settings\ryan\Desktop\temp\08-Half-Mute.wav

Peak level 95.7 %
Track quality 100.0 %
Test CRC 169549E1
Copy CRC 169549E1
Copy OK

Track 9
Filename C:\Documents and Settings\ryan\Desktop\temp\09-Bluetime.wav

Peak level 95.7 %
Track quality 100.0 %
Test CRC 1DF1085F
Copy CRC 1DF1085F
Copy OK

No errors occured

End of status report


REM GENRE Unknown
REM DATE 2002
REM DISCID 690AC409
REM COMMENT "ExactAudioCopy v0.95b4"
PERFORMER "Frank Bretschneider & Taylor Deupree"
TITLE "Balance"
FILE "01-Interlock.wav" WAVE
TRACK 01 AUDIO
TITLE "Interlock"
PERFORMER "Frank Bretschneider & Taylor Deupree"
FLAGS DCP
INDEX 01 00:00:00
FILE "02-Moving Light.wav" WAVE
TRACK 02 AUDIO
TITLE "Moving Light"
PERFORMER "Frank Bretschneider & Taylor Deupree"
FLAGS DCP
INDEX 01 00:00:00
FILE "03-Dug In.wav" WAVE
TRACK 03 AUDIO
TITLE "Dug In"
PERFORMER "Frank Bretschneider & Taylor Deupree"
FLAGS DCP
INDEX 01 00:00:00
FILE "04-Vertical Invader.wav" WAVE
TRACK 04 AUDIO
TITLE "Vertical Invader"
PERFORMER "Frank Bretschneider & Taylor Deupree"
FLAGS DCP
INDEX 01 00:00:00
FILE "05-Freeze Frame.wav" WAVE
TRACK 05 AUDIO
TITLE "Freeze Frame"
PERFORMER "Frank Bretschneider & Taylor Deupree"
FLAGS DCP
INDEX 01 00:00:00
FILE "06-Autodrive.wav" WAVE
TRACK 06 AUDIO
TITLE "Autodrive"
PERFORMER "Frank Bretschneider & Taylor Deupree"
FLAGS DCP
INDEX 01 00:00:00
FILE "07-Concrete.wav" WAVE
TRACK 07 AUDIO
TITLE "Concrete"
PERFORMER "Frank Bretschneider & Taylor Deupree"
FLAGS DCP
INDEX 01 00:00:00
FILE "08-Half-Mute.wav" WAVE
TRACK 08 AUDIO
TITLE "Half-Mute"
PERFORMER "Frank Bretschneider & Taylor Deupree"
FLAGS DCP
INDEX 01 00:00:00
FILE "09-Bluetime.wav" WAVE
TRACK 09 AUDIO
TITLE "Bluetime"
PERFORMER "Frank Bretschneider & Taylor Deupree"
FLAGS DCP
INDEX 01 00:00:00

Год выпуска: 2003
Продолжительность: 00:13:35
Треклист:

01. Party Of Two Parts (04:16)
02. And It Comes Out Here (04:13)
03. Expecting Someone Taller (05:06)

-----------------------

DON'T MODIFY THIS FILE

-----------------------

PERFORMER: auCDtect Task Manager, ver. 1.5.1RC6 build 1.5.1.7
Copyright (c) 2008-2010 y-soft. All rights reserved
http://y-soft.org

ANALYZER: auCDtect: CD records authenticity detector, version 0.8.2
Copyright (c) 2004 Oleg Berngardt. All rights reserved.
Copyright (c) 2004 Alexander Djourik. All rights reserved.

FILE: 03. Expecting Someone Taller.flac
Size: 31481932 Hash: 7DFA961FF47A50A32257E3FDDA6DEDDC Accuracy: -m0
Conclusion: MPEG 95%
Signature: 5155554E3273F9AFB1C44C4FBDE58CDEEE9F08A5
FILE: 02. And It Comes Out Here.flac
Size: 27709270 Hash: DA7E9A9D8E780B6B475842866128E773 Accuracy: -m0
Conclusion: MPEG 95%
Signature: 41CEDEFCCD90C0957D003A969DE4C13BD7143483
FILE: 01. Party Of Two Parts.flac
Size: 27515430 Hash: 6E88EF3266AA2A67EF92183A3A11247C Accuracy: -m0
Conclusion: MPEG 95%
Signature: 82720740B055ABB61313A17D96F8539A80602B73

Год выпуска: 2004
Продолжительность: 00:45:24
Треклист:

01. Looping I (04:17)
02. Looping II (02:41)
03. Paperthin (04:46)
04. Looping III (02:12)
05. Against A Blue Background (05:24)
06. Rocket Summer (04:48)
07. The Day It Rained Forever (02:33)
08. Looping IV (05:39)
09. Night Broadcast (05:38)
10. Looping V (01:40)
11. Go! Said The Bird (04:08)
12. Looping VI (01:38)

Exact Audio Copy V0.99 prebeta 5 from 4. May 2009

EAC extraction logfile from 8. February 2010, 14:09

Frank Bretschneider / Looping I-VI (And Other Assorted Love Songs)

Used drive : PLEXTOR CD-R PREMIUM Adapter: 2 ID: 0

Read mode : Secure
Utilize accurate stream : Yes
Defeat audio cache : Yes
Make use of C2 pointers : No

Read offset correction : 30
Overread into Lead-In and Lead-Out : Yes
Fill up missing offset samples with silence : Yes
Delete leading and trailing silent blocks : No
Null samples used in CRC calculations : Yes
Used interface : Installed external ASPI interface
Gap handling : Appended to previous track

Used output format : Internal WAV Routines
Sample format : 44.100 Hz; 16 Bit; Stereo

TOC of the extracted CD

Track | Start | Length | Start sector | End sector
---------------------------------------------------------
1 | 0:00.00 | 4:17.09 | 0 | 19283
2 | 4:17.09 | 2:41.00 | 19284 | 31358
3 | 6:58.09 | 4:46.00 | 31359 | 52808
4 | 11:44.09 | 2:11.74 | 52809 | 62707
5 | 13:56.08 | 5:24.00 | 62708 | 87007
6 | 19:20.08 | 4:47.71 | 87008 | 108603
7 | 24:08.04 | 2:32.66 | 108604 | 120069
8 | 26:40.70 | 5:39.01 | 120070 | 145495
9 | 32:19.71 | 5:37.44 | 145496 | 170814
10 | 37:57.40 | 1:40.06 | 170815 | 178320
11 | 39:37.46 | 4:08.00 | 178321 | 196920
12 | 43:45.46 | 1:38.01 | 196921 | 204271

Track 1

Filename C:\rip\01-Looping_I.wav

Pre-gap length 0:00:02.00

Peak level 70.3 %
Track quality 100.0 %
Test CRC 1FE2E6C1
Copy CRC 1FE2E6C1
Accurately ripped (confidence 1) [9D10F41C]
Copy OK

Track 2

Filename C:\rip\02-Looping_II.wav

Peak level 97.9 %
Track quality 100.0 %
Test CRC CF9296FD
Copy CRC CF9296FD
Accurately ripped (confidence 1) [650C9E96]
Copy OK

Track 3

Filename C:\rip\03-Paperthin.wav

Peak level 94.3 %
Track quality 100.0 %
Test CRC C7EC1275
Copy CRC C7EC1275
Accurately ripped (confidence 1) [2BBBFD10]
Copy OK

Track 4

Filename C:\rip\04-Looping_III.wav

Peak level 97.4 %
Track quality 100.0 %
Test CRC F4301514
Copy CRC F4301514
Accurately ripped (confidence 1) [73D56BC3]
Copy OK

Track 5

Filename C:\rip\05-Against_a_Blue_Background.wav

Peak level 98.4 %
Track quality 100.0 %
Test CRC 8F666996
Copy CRC 8F666996
Accurately ripped (confidence 1) [4845C7CE]
Copy OK

Track 6

Filename C:\rip\06-Rocket_Summer.wav

Peak level 97.2 %
Track quality 100.0 %
Test CRC 4EA79DA6
Copy CRC 4EA79DA6
Accurately ripped (confidence 1) [EACE59B0]
Copy OK

Track 7

Filename C:\rip\07-The_Day_It_Rained_Forever.wav

Peak level 97.2 %
Track quality 100.0 %
Test CRC 8B0B1F5E
Copy CRC 8B0B1F5E
Accurately ripped (confidence 1) [F10A3B99]
Copy OK

Track 8

Filename C:\rip\08-Looping_IV.wav

Peak level 98.3 %
Track quality 99.9 %
Test CRC D5081DF8
Copy CRC D5081DF8
Accurately ripped (confidence 1) [8560F5C5]
Copy OK

Track 9

Filename C:\rip\09-Night_Broadcast.wav

Peak level 79.2 %
Track quality 100.0 %
Test CRC E2943316
Copy CRC E2943316
Accurately ripped (confidence 1) [D7881E1B]
Copy OK

Track 10

Filename C:\rip\10-Looping_V.wav

Peak level 30.0 %
Track quality 100.0 %
Test CRC 8925E7AF
Copy CRC 8925E7AF
Accurately ripped (confidence 1) [E7491E18]
Copy OK

Track 11

Filename C:\rip\11-Go!_Said_the_Bird.wav

Peak level 61.2 %
Track quality 100.0 %
Test CRC 0EE81394
Copy CRC 0EE81394
Accurately ripped (confidence 1) [37499982]
Copy OK

Track 12

Filename C:\rip\12-Looping_VI.wav

Peak level 61.3 %
Track quality 100.0 %
Test CRC BA9ECAAE
Copy CRC BA9ECAAE
Accurately ripped (confidence 1) [F77DBA19]
Copy OK

All tracks accurately ripped

No errors occurred

End of status report


REM GENRE Electronic
REM DATE 2004
REM DISCID 9E0AA30C
REM COMMENT "ExactAudioCopy v0.99pb5"
PERFORMER "Frank Bretschneider"
TITLE "Looping I-VI (And Other Assorted Love Songs)"
FILE "01-Looping_I.wav" WAVE
TRACK 01 AUDIO
TITLE "Looping I"
PERFORMER "Frank Bretschneider"
INDEX 01 00:00:00
FILE "02-Looping_II.wav" WAVE
TRACK 02 AUDIO
TITLE "Looping II"
PERFORMER "Frank Bretschneider"
INDEX 01 00:00:00
FILE "03-Paperthin.wav" WAVE
TRACK 03 AUDIO
TITLE "Paperthin"
PERFORMER "Frank Bretschneider"
INDEX 01 00:00:00
FILE "04-Looping_III.wav" WAVE
TRACK 04 AUDIO
TITLE "Looping III"
PERFORMER "Frank Bretschneider"
INDEX 01 00:00:00
FILE "05-Against_a_Blue_Background.wav" WAVE
TRACK 05 AUDIO
TITLE "Against a Blue Background"
PERFORMER "Frank Bretschneider"
INDEX 01 00:00:00
FILE "06-Rocket_Summer.wav" WAVE
TRACK 06 AUDIO
TITLE "Rocket Summer"
PERFORMER "Frank Bretschneider"
INDEX 01 00:00:00
FILE "07-The_Day_It_Rained_Forever.wav" WAVE
TRACK 07 AUDIO
TITLE "The Day It Rained Forever"
PERFORMER "Frank Bretschneider"
INDEX 01 00:00:00
FILE "08-Looping_IV.wav" WAVE
TRACK 08 AUDIO
TITLE "Looping IV"
PERFORMER "Frank Bretschneider"
INDEX 01 00:00:00
FILE "09-Night_Broadcast.wav" WAVE
TRACK 09 AUDIO
TITLE "Night Broadcast"
PERFORMER "Frank Bretschneider"
INDEX 01 00:00:00
FILE "10-Looping_V.wav" WAVE
TRACK 10 AUDIO
TITLE "Looping V"
PERFORMER "Frank Bretschneider"
INDEX 01 00:00:00
FILE "11-Go_Said_the_Bird.wav" WAVE
TRACK 11 AUDIO
TITLE "Go! Said the Bird"
PERFORMER "Frank Bretschneider"
INDEX 01 00:00:00
FILE "12-Looping_VI.wav" WAVE
TRACK 12 AUDIO
TITLE "Looping VI"
PERFORMER "Frank Bretschneider"
INDEX 01 00:00:00

Год выпуска: 2005
Продолжительность: 00:58:35
Треклист:

01. Spirale (04:36)
02. Antenne (04:08)
03. Funktion (04:04)
04. Periode (06:06)
05. Phase (04:53)
06. Spektrum (04:51)
07. Basis (07:38)
08. Passage (04:08)
09. Position (03:56)
10. Faktor (04:23)
11. Impuls (05:57)
12. Frequenz (03:55)

Exact Audio Copy V0.99 prebeta 5 from 4. May 2009

EAC extraction logfile from 21. June 2009, 17:53

Bretschneider+Steinbruchel / Status

Used drive : ASUS DRW-20B1S Adapter: 1 ID: 1

Read mode : Secure
Utilize accurate stream : Yes
Defeat audio cache : Yes
Make use of C2 pointers : No

Read offset correction : 6
Overread into Lead-In and Lead-Out : No
Fill up missing offset samples with silence : Yes
Delete leading and trailing silent blocks : No
Null samples used in CRC calculations : Yes
Used interface : Native Win32 interface for Win NT & 2000
Gap handling : Appended to previous track

Used output format : User Defined Encoder
Selected bitrate : 1024 kBit/s
Quality : High
Add ID3 tag : No
Command line compressor : C:\Program Files\foobar2000\components\flac.exe
Additional command line options : -8 -V -T "ARTIST=%a" -T "TITLE=%t" -T "ALBUM=%g" -T "DATE=%y" -T "TRACKNUMBER=%n" -T "GENRE=%m" -T "COMMENT=EAC FLAC -8" %s

TOC of the extracted CD

Track | Start | Length | Start sector | End sector
---------------------------------------------------------
1 | 0:00.00 | 4:36.01 | 0 | 20700
2 | 4:36.01 | 4:08.01 | 20701 | 39301
3 | 8:44.02 | 4:04.01 | 39302 | 57602
4 | 12:48.03 | 6:06.01 | 57603 | 85053
5 | 18:54.04 | 4:53.01 | 85054 | 107029
6 | 23:47.05 | 4:51.01 | 107030 | 128855
7 | 28:38.06 | 7:38.01 | 128856 | 163206
8 | 36:16.07 | 4:07.38 | 163207 | 181769
9 | 40:23.45 | 3:55.39 | 181770 | 199433
10 | 44:19.09 | 4:23.01 | 199434 | 219159
11 | 48:42.10 | 5:56.38 | 219160 | 245897
12 | 54:38.48 | 3:54.39 | 245898 | 263486

Track 1

Filename G:\Bretschneider + Steinbruchel - Status - 2005 [FLAC] {12K1033}\01 - spirale.wav

Pre-gap length 0:00:02.00

Peak level 75.0 %
Track quality 100.0 %
Test CRC 3ED04A36
Copy CRC 3ED04A36
Accurately ripped (confidence 3) [DEACAAF9]
Copy OK

Track 2

Filename G:\Bretschneider + Steinbruchel - Status - 2005 [FLAC] {12K1033}\02 - antenne.wav

Peak level 100.0 %
Track quality 100.0 %
Test CRC 41FEE4FE
Copy CRC 41FEE4FE
Accurately ripped (confidence 3) [FE336843]
Copy OK

Track 3

Filename G:\Bretschneider + Steinbruchel - Status - 2005 [FLAC] {12K1033}\03 - funktion.wav

Peak level 98.8 %
Track quality 100.0 %
Test CRC A4175DA8
Copy CRC A4175DA8
Accurately ripped (confidence 3) [EC0DE622]
Copy OK

Track 4

Filename G:\Bretschneider + Steinbruchel - Status - 2005 [FLAC] {12K1033}\04 - periode.wav

Peak level 98.8 %
Track quality 100.0 %
Test CRC 33FC6E62
Copy CRC 33FC6E62
Accurately ripped (confidence 3) [5FCCD6CA]
Copy OK

Track 5

Filename G:\Bretschneider + Steinbruchel - Status - 2005 [FLAC] {12K1033}\05 - phase.wav

Peak level 78.5 %
Track quality 100.0 %
Test CRC A5538985
Copy CRC A5538985
Accurately ripped (confidence 3) [8886956F]
Copy OK

Track 6

Filename G:\Bretschneider + Steinbruchel - Status - 2005 [FLAC] {12K1033}\06 - spektrum.wav

Peak level 98.8 %
Track quality 100.0 %
Test CRC D4CE3DB5
Copy CRC D4CE3DB5
Accurately ripped (confidence 3) [0968F4AD]
Copy OK

Track 7

Filename G:\Bretschneider + Steinbruchel - Status - 2005 [FLAC] {12K1033}\07 - basis.wav

Peak level 98.8 %
Track quality 100.0 %
Test CRC 0ED4E9E4
Copy CRC 0ED4E9E4
Accurately ripped (confidence 3) [77484583]
Copy OK

Track 8

Filename G:\Bretschneider + Steinbruchel - Status - 2005 [FLAC] {12K1033}\08 - passage.wav

Peak level 61.4 %
Track quality 100.0 %
Test CRC 2B7A479F
Copy CRC 2B7A479F
Accurately ripped (confidence 3) [B98F4779]
Copy OK

Track 9

Filename G:\Bretschneider + Steinbruchel - Status - 2005 [FLAC] {12K1033}\09 - position.wav

Peak level 98.8 %
Track quality 100.0 %
Test CRC DB12C861
Copy CRC DB12C861
Accurately ripped (confidence 3) [C813923D]
Copy OK

Track 10

Filename G:\Bretschneider + Steinbruchel - Status - 2005 [FLAC] {12K1033}\10 - faktor.wav

Peak level 98.8 %
Track quality 99.9 %
Test CRC C57EB064
Copy CRC C57EB064
Accurately ripped (confidence 3) [EEA85FE2]
Copy OK

Track 11

Filename G:\Bretschneider + Steinbruchel - Status - 2005 [FLAC] {12K1033}\11 - impuls.wav

Peak level 98.8 %
Track quality 100.0 %
Test CRC 97BFC335
Copy CRC 97BFC335
Accurately ripped (confidence 3) [99D8C6A2]
Copy OK

Track 12

Filename G:\Bretschneider + Steinbruchel - Status - 2005 [FLAC] {12K1033}\12 - frequenz.wav

Peak level 98.8 %
Track quality 100.0 %
Test CRC 6DAB7F28
Copy CRC 6DAB7F28
Accurately ripped (confidence 3) [ECC34903]
Copy OK

All tracks accurately ripped

No errors occurred

End of status report


REM GENRE Glitch, Abstract, Ambient
REM DATE 2005
REM COMMENT "Exact Audio Copy V0.99"
PERFORMER "Bretschneider + Steinbruchel"
TITLE Status
FILE "01. Spirale.flac" WAVE
TRACK 1 AUDIO
TITLE Spirale
PERFORMER "Bretschneider + Steinbruchel"
INDEX 01 00:00:00
FILE "02. Antenne.flac" WAVE
TRACK 2 AUDIO
TITLE Antenne
PERFORMER "Bretschneider + Steinbruchel"
INDEX 01 00:00:00
FILE "03. Funktion.flac" WAVE
TRACK 3 AUDIO
TITLE Funktion
PERFORMER "Bretschneider + Steinbruchel"
INDEX 01 00:00:00
FILE "04. Periode.flac" WAVE
TRACK 4 AUDIO
TITLE Periode
PERFORMER "Bretschneider + Steinbruchel"
INDEX 01 00:00:00
FILE "05. Phase.flac" WAVE
TRACK 5 AUDIO
TITLE Phase
PERFORMER "Bretschneider + Steinbruchel"
INDEX 01 00:00:00
FILE "06. Spektrum.flac" WAVE
TRACK 6 AUDIO
TITLE Spektrum
PERFORMER "Bretschneider + Steinbruchel"
INDEX 01 00:00:00
FILE "07. Basis.flac" WAVE
TRACK 7 AUDIO
TITLE Basis
PERFORMER "Bretschneider + Steinbruchel"
INDEX 01 00:00:00
FILE "08. Passage.flac" WAVE
TRACK 8 AUDIO
TITLE Passage
PERFORMER "Bretschneider + Steinbruchel"
INDEX 01 00:00:00
FILE "09. Position.flac" WAVE
TRACK 9 AUDIO
TITLE Position
PERFORMER "Bretschneider + Steinbruchel"
INDEX 01 00:00:00
FILE "10. Faktor.flac" WAVE
TRACK 10 AUDIO
TITLE Faktor
PERFORMER "Bretschneider + Steinbruchel"
INDEX 01 00:00:00
FILE "11. Impuls.flac" WAVE
TRACK 11 AUDIO
TITLE Impuls
PERFORMER "Bretschneider + Steinbruchel"
INDEX 01 00:00:00
FILE "12. Frequenz.flac" WAVE
TRACK 12 AUDIO
TITLE Frequenz
PERFORMER "Bretschneider + Steinbruchel"
INDEX 01 00:00:00

Год выпуска: 2006
Продолжительность: 00:34:40
Треклист:

01. Knox (05:01)
02. Fix (05:27)
03. Fax (04:52)
04. Prax (04:02)
05. Lux (04:47)
06. Mux (05:44)
07. Max (04:47)

Exact Audio Copy V0.99 prebeta 5 from 4. May 2009

EAC extraction logfile from 3. February 2011, 14:53

Frank Bretschneider & Peter Duimelinks / Fflux

Used drive : PLEXTOR CD-R PREMIUM Adapter: 4 ID: 0

Read mode : Secure
Utilize accurate stream : Yes
Defeat audio cache : Yes
Make use of C2 pointers : No

Read offset correction : 30
Overread into Lead-In and Lead-Out : Yes
Fill up missing offset samples with silence : Yes
Delete leading and trailing silent blocks : No
Null samples used in CRC calculations : Yes
Used interface : Installed external ASPI interface
Gap handling : Appended to previous track

Used output format : Internal WAV Routines
Sample format : 44.100 Hz; 16 Bit; Stereo

TOC of the extracted CD

Track | Start | Length | Start sector | End sector
---------------------------------------------------------
1 | 0:00.00 | 5:00.65 | 0 | 22564
2 | 5:00.65 | 5:27.10 | 22565 | 47099
3 | 10:28.00 | 4:52.18 | 47100 | 69017
4 | 15:20.18 | 4:01.57 | 69018 | 87149
5 | 19:22.00 | 4:47.00 | 87150 | 108674
6 | 24:09.00 | 5:44.27 | 108675 | 134501
7 | 29:53.27 | 4:47.19 | 134502 | 156045

Track 1

Filename C:\rip\01-Knox.wav

Pre-gap length 0:00:02.00

Peak level 99.9 %
Track quality 100.0 %
Test CRC A092E735
Copy CRC A092E735
Track not present in AccurateRip database
Copy OK

Track 2

Filename C:\rip\02-Fix.wav

Peak level 99.0 %
Track quality 100.0 %
Test CRC 63E4882B
Copy CRC 63E4882B
Track not present in AccurateRip database
Copy OK

Track 3

Filename C:\rip\03-Fax.wav

Peak level 99.3 %
Track quality 99.9 %
Test CRC 97617E65
Copy CRC 97617E65
Track not present in AccurateRip database
Copy OK

Track 4

Filename C:\rip\04-Prax.wav

Peak level 99.9 %
Track quality 99.9 %
Test CRC DB945645
Copy CRC DB945645
Track not present in AccurateRip database
Copy OK

Track 5

Filename C:\rip\05-Lux.wav

Peak level 81.6 %
Track quality 100.0 %
Test CRC 2CA8D9DD
Copy CRC 2CA8D9DD
Track not present in AccurateRip database
Copy OK

Track 6

Filename C:\rip\06-Mux.wav

Peak level 99.9 %
Track quality 99.9 %
Test CRC 53E11C19
Copy CRC 53E11C19
Track not present in AccurateRip database
Copy OK

Track 7

Filename C:\rip\07-Max.wav

Peak level 98.2 %
Track quality 100.0 %
Test CRC D81632C7
Copy CRC D81632C7
Track not present in AccurateRip database
Copy OK

None of the tracks are present in the AccurateRip database

No errors occurred

End of status report


REM GENRE Unknown
REM DATE 2006
REM DISCID 4A082007
REM COMMENT "ExactAudioCopy v0.99pb5"
PERFORMER "Frank Bretschneider & Peter Duimelinks"
TITLE "Fflux"
FILE "01-Knox.wav" WAVE
TRACK 01 AUDIO
TITLE "Knox"
PERFORMER "Frank Bretschneider & Peter Duimelinks"
INDEX 01 00:00:00
FILE "02-Fix.wav" WAVE
TRACK 02 AUDIO
TITLE "Fix"
PERFORMER "Frank Bretschneider & Peter Duimelinks"
INDEX 01 00:00:00
FILE "03-Fax.wav" WAVE
TRACK 03 AUDIO
TITLE "Fax"
PERFORMER "Frank Bretschneider & Peter Duimelinks"
INDEX 01 00:00:00
FILE "04-Prax.wav" WAVE
TRACK 04 AUDIO
TITLE "Prax"
PERFORMER "Frank Bretschneider & Peter Duimelinks"
INDEX 01 00:00:00
FILE "05-Lux.wav" WAVE
TRACK 05 AUDIO
TITLE "Lux"
PERFORMER "Frank Bretschneider & Peter Duimelinks"
INDEX 01 00:00:00
FILE "06-Mux.wav" WAVE
TRACK 06 AUDIO
TITLE "Mux"
PERFORMER "Frank Bretschneider & Peter Duimelinks"
INDEX 01 00:00:00
FILE "07-Max.wav" WAVE
TRACK 07 AUDIO
TITLE "Max"
PERFORMER "Frank Bretschneider & Peter Duimelinks"
INDEX 01 00:00:00

Год выпуска: 2007
Продолжительность: 00:41:23
Треклист:

01. A Soft Throbbing Of Time (07:46)
02. The Big Black And White Game (05:31)
03. We Can Remember It For You Wholesale (03:50)
04. The Eight Day People (03:04)
05. Other Days, Other Eyes (04:10)
06. Construction Shack (04:11)
07. The Moon Is A Hole In The Sky (06:54)
08. All Summer In A Day (03:13)
09. The October Game (02:44)

Exact Audio Copy V0.99 prebeta 5 from 4. May 2009

EAC extraction logfile from 20. February 2010, 19:45

Frank Bretschneider / Rhythm

Used drive : PIONEER DVD-RW DVR-215D Adapter: 2 ID: 0

Read mode : Secure
Utilize accurate stream : Yes
Defeat audio cache : Yes
Make use of C2 pointers : No

Read offset correction : 48
Overread into Lead-In and Lead-Out : No
Fill up missing offset samples with silence : Yes
Delete leading and trailing silent blocks : No
Null samples used in CRC calculations : Yes
Used interface : Native Win32 interface for Win NT & 2000
Gap handling : Appended to previous track

Used output format : User Defined Encoder
Selected bitrate : 128 kBit/s
Quality : High
Add ID3 tag : No
Command line compressor : C:\Program\Exact Audio Copy\Flac\flac.exe
Additional command line options : -V -8 -T "artist=%a" -T "title=%t" -T "album=%g" -T "date=%y" -T "tracknumber=%n" -T "genre=%m" %s

TOC of the extracted CD

Track | Start | Length | Start sector | End sector
---------------------------------------------------------
1 | 0:00.00 | 7:46.28 | 0 | 34977
2 | 7:46.28 | 5:31.24 | 34978 | 59826
3 | 13:17.52 | 3:50.17 | 59827 | 77093
4 | 17:07.69 | 3:04.21 | 77094 | 90914
5 | 20:12.15 | 4:10.17 | 90915 | 109681
6 | 24:22.32 | 4:11.11 | 109682 | 128517
7 | 28:33.43 | 6:54.22 | 128518 | 159589
8 | 35:27.65 | 3:12.57 | 159590 | 174046
9 | 38:40.47 | 2:44.28 | 174047 | 186374

Track 1

Filename F:\rippin\01 - Frank Bretschneider - A Soft Throbbing Of Time.wav

Pre-gap length 0:00:02.00

Peak level 100.0 %
Track quality 100.0 %
Test CRC F56D010A
Copy CRC F56D010A
Accurately ripped (confidence 4) [93A29C24]
Copy OK

Track 2

Filename F:\rippin\02 - Frank Bretschneider - The Big Black And White Game.wav

Peak level 100.0 %
Track quality 100.0 %
Test CRC 4E24264F
Copy CRC 4E24264F
Accurately ripped (confidence 4) [DC6CA1F3]
Copy OK

Track 3

Filename F:\rippin\03 - Frank Bretschneider - We Can remember It For You Wholesale.wav

Peak level 100.0 %
Track quality 100.0 %
Test CRC E9C1DEE8
Copy CRC E9C1DEE8
Accurately ripped (confidence 4) [D5DEEECC]
Copy OK

Track 4

Filename F:\rippin\04 - Frank Bretschneider - The Eight Day People.wav

Peak level 100.0 %
Track quality 99.9 %
Test CRC 211E2D4B
Copy CRC 211E2D4B
Accurately ripped (confidence 4) [49ADFC71]
Copy OK

Track 5

Filename F:\rippin\05 - Frank Bretschneider - Other Days, Other Eyes.wav

Peak level 100.0 %
Track quality 100.0 %
Test CRC F61E51A9
Copy CRC F61E51A9
Accurately ripped (confidence 4) [F87F9328]
Copy OK

Track 6

Filename F:\rippin\06 - Frank Bretschneider - Construction Shack.wav

Peak level 100.0 %
Track quality 100.0 %
Test CRC 3F436B5D
Copy CRC 3F436B5D
Accurately ripped (confidence 4) [8B7F6F59]
Copy OK

Track 7

Filename F:\rippin\07 - Frank Bretschneider - The Moon Is A Hole In The Sky.wav

Peak level 100.0 %
Track quality 100.0 %
Test CRC 6D111D6B
Copy CRC 6D111D6B
Accurately ripped (confidence 4) [BDB63EEA]
Copy OK

Track 8

Filename F:\rippin\08 - Frank Bretschneider - All Summer In A Day.wav

Peak level 100.0 %
Track quality 100.0 %
Test CRC 859FDD68
Copy CRC 859FDD68
Accurately ripped (confidence 4) [DB3927B1]
Copy OK

Track 9

Filename F:\rippin\09 - Frank Bretschneider - The October Game.wav

Peak level 100.0 %
Track quality 99.9 %
Test CRC 71AF86FB
Copy CRC 71AF86FB
Accurately ripped (confidence 4) [8626AEB8]
Copy OK

All tracks accurately ripped

No errors occurred

End of status report


REM GENRE Electronic
REM DATE 2007
REM DISCID 7509B509
REM COMMENT "ExactAudioCopy v0.99pb5"
FILE "01 - Frank Bretschneider - A Soft Throbbing Of Time.wav" WAVE
TRACK 01 AUDIO
INDEX 01 00:00:00
FILE "02 - Frank Bretschneider - The Big Black And White Game.wav" WAVE
TRACK 02 AUDIO
INDEX 01 00:00:00
FILE "03 - Frank Bretschneider - We Can remember It For You Wholesale.wav" WAVE
TRACK 03 AUDIO
INDEX 01 00:00:00
FILE "04 - Frank Bretschneider - The Eight Day People.wav" WAVE
TRACK 04 AUDIO
INDEX 01 00:00:00
FILE "05 - Frank Bretschneider - Other Days, Other Eyes.wav" WAVE
TRACK 05 AUDIO
INDEX 01 00:00:00
FILE "06 - Frank Bretschneider - Construction Shack.wav" WAVE
TRACK 06 AUDIO
INDEX 01 00:00:00
FILE "07 - Frank Bretschneider - The Moon Is A Hole In The Sky.wav" WAVE
TRACK 07 AUDIO
INDEX 01 00:00:00
FILE "08 - Frank Bretschneider - All Summer In A Day.wav" WAVE
TRACK 08 AUDIO
INDEX 01 00:00:00
FILE "09 - Frank Bretschneider - The October Game.wav" WAVE
TRACK 09 AUDIO
INDEX 01 00:00:00

Год выпуска: 2010
Продолжительность: 00:35:21
Треклист:

01. Monopuls (02:01)
02. Blue: Cobalt (00:39)
03. Strobe Room (01:00)
04. Blue: Ultramarine (01:31)
05. Chamber Jazz (01:05)
06. Biplex (01:03)
07. Blue: Cyan (00:38)
08. B.L.U.E. (Best Linear Unbiased Estimator) (01:04)
09. Polylog (01:12)
10. Node (00:32)
11. Orion (00:48)
12. Spin (00:20)
13. Novo Duplex (00:35)
14. Blue: Electric (00:22)
15. Mass (01:06)
16. Blue: Aluminate (00:43)
17. Ventilator (01:01)
18. Colour Wheel (00:31)
19. Tron (00:31)
20. Echolog (01:05)
21. Reflex (00:50)
22. Multimath Duplex (00:21)
23. Polycopter (02:55)
24. Memory (01:47)
25. Phased Out (00:41)
26. Oscillation (00:14)
27. Funkalogic (00:37)
28. Monoplex (00:14)
29. Multiplex (00:29)
30. Panback (00:37)
31. Blue: Prussian (00:30)
32. Light Weight (00:48)
33. Satellite (02:13)
34. Crystal Dub (02:49)
35. 会話 (For Kyoka) (02:29)

Exact Audio Copy V0.99 prebeta 5 from 4. May 2009

EAC extraction logfile from 31. October 2010, 1:46

Frank Bretschneider / EXP

Used drive : HL-DT-STDVD-RW GCA-4080N Adapter: 0 ID: 1

Read mode : Secure
Utilize accurate stream : Yes
Defeat audio cache : Yes
Make use of C2 pointers : No

Read offset correction : 667
Overread into Lead-In and Lead-Out : No
Fill up missing offset samples with silence : Yes
Delete leading and trailing silent blocks : No
Null samples used in CRC calculations : Yes
Used interface : Native Win32 interface for Win NT & 2000
Gap handling : Appended to previous track

Used output format : User Defined Encoder
Selected bitrate : 896 kBit/s
Quality : High
Add ID3 tag : No
Command line compressor : C:\Program Files\Exact Audio Copy\FLAC\FLAC.EXE
Additional command line options : -6 -V -T "ARTIST=%a" -T "TITLE=%t" -T "ALBUM=%g" -T "DATE=%y" -T "TRACKNUMBER=%n" -T "GENRE=%m" -T "COMMENT=%e" %s -o %d

TOC of the extracted CD

Track | Start | Length | Start sector | End sector
---------------------------------------------------------
1 | 0:00.00 | 2:01.37 | 0 | 9111
2 | 2:01.37 | 0:39.28 | 9112 | 12064
3 | 2:40.65 | 0:59.47 | 12065 | 16536
4 | 3:40.37 | 1:31.06 | 16537 | 23367
5 | 5:11.43 | 1:05.19 | 23368 | 28261
6 | 6:16.62 | 1:03.00 | 28262 | 32986
7 | 7:19.62 | 0:38.23 | 32987 | 35859
8 | 7:58.10 | 1:04.00 | 35860 | 40659
9 | 9:02.10 | 1:12.05 | 40660 | 46064
10 | 10:14.15 | 0:32.00 | 46065 | 48464
11 | 10:46.15 | 0:47.56 | 48465 | 52045
12 | 11:33.71 | 0:19.38 | 52046 | 53508
13 | 11:53.34 | 0:35.09 | 53509 | 56142
14 | 12:28.43 | 0:22.09 | 56143 | 57801
15 | 12:50.52 | 1:06.19 | 57802 | 62770
16 | 13:56.71 | 0:42.38 | 62771 | 65958
17 | 14:39.34 | 1:00.44 | 65959 | 70502
18 | 15:40.03 | 0:31.31 | 70503 | 72858
19 | 16:11.34 | 0:30.38 | 72859 | 75146
20 | 16:41.72 | 1:04.51 | 75147 | 79997
21 | 17:46.48 | 0:50.00 | 79998 | 83747
22 | 18:36.48 | 0:20.70 | 83748 | 85317
23 | 18:57.43 | 2:55.12 | 85318 | 98454
24 | 21:52.55 | 1:46.63 | 98455 | 106467
25 | 23:39.43 | 0:40.45 | 106468 | 109512
26 | 24:20.13 | 0:14.12 | 109513 | 110574
27 | 24:34.25 | 0:37.25 | 110575 | 113374
28 | 25:11.50 | 0:13.50 | 113375 | 114399
29 | 25:25.25 | 0:28.50 | 114400 | 116549
30 | 25:54.00 | 0:36.50 | 116550 | 119299
31 | 26:30.50 | 0:30.00 | 119300 | 121549
32 | 27:00.50 | 0:48.00 | 121550 | 125149
33 | 27:48.50 | 2:13.25 | 125150 | 135149
34 | 30:02.00 | 2:49.25 | 135150 | 147849
35 | 32:51.25 | 2:28.59 | 147850 | 159008

Track 1

Filename D:\[UPLOADS]\Frank Bretschneider - EXP\Frank Bretschneider - EXP [FLAC]\01. Monoplus.wav

Pre-gap length 0:00:02.00

Peak level 96.3 %
Track quality 100.0 %
Test CRC 0C6806B0
Copy CRC 0C6806B0
Track not present in AccurateRip database
Copy OK

Track 2

Filename D:\[UPLOADS]\Frank Bretschneider - EXP\Frank Bretschneider - EXP [FLAC]\02. Blue- Cobalt.wav

Peak level 98.2 %
Track quality 100.0 %
Test CRC 9BAE362D
Copy CRC 9BAE362D
Track not present in AccurateRip database
Copy OK

Track 3

Filename D:\[UPLOADS]\Frank Bretschneider - EXP\Frank Bretschneider - EXP [FLAC]\03. Strobe Room.wav

Peak level 99.8 %
Track quality 100.0 %
Test CRC 8F4E4591
Copy CRC 8F4E4591
Track not present in AccurateRip database
Copy OK

Track 4

Filename D:\[UPLOADS]\Frank Bretschneider - EXP\Frank Bretschneider - EXP [FLAC]\04. Blue- Ultramarine.wav

Peak level 97.2 %
Track quality 100.0 %
Test CRC 24DDB8AA
Copy CRC 24DDB8AA
Track not present in AccurateRip database
Copy OK

Track 5

Filename D:\[UPLOADS]\Frank Bretschneider - EXP\Frank Bretschneider - EXP [FLAC]\05. Chamber Jazz.wav

Peak level 96.4 %
Track quality 100.0 %
Test CRC 3266445F
Copy CRC 3266445F
Track not present in AccurateRip database
Copy OK

Track 6

Filename D:\[UPLOADS]\Frank Bretschneider - EXP\Frank Bretschneider - EXP [FLAC]\06. Biplex.wav

Peak level 96.3 %
Track quality 100.0 %
Test CRC F6BB3424
Copy CRC F6BB3424
Track not present in AccurateRip database
Copy OK

Track 7

Filename D:\[UPLOADS]\Frank Bretschneider - EXP\Frank Bretschneider - EXP [FLAC]\07. Blue- Cyan.wav

Peak level 97.7 %
Track quality 100.0 %
Test CRC 3F7FE69E
Copy CRC 3F7FE69E
Track not present in AccurateRip database
Copy OK

Track 8

Filename D:\[UPLOADS]\Frank Bretschneider - EXP\Frank Bretschneider - EXP [FLAC]\08. B.L.U.E..wav

Peak level 96.1 %
Track quality 100.0 %
Test CRC 79320CE0
Copy CRC 79320CE0
Track not present in AccurateRip database
Copy OK

Track 9

Filename D:\[UPLOADS]\Frank Bretschneider - EXP\Frank Bretschneider - EXP [FLAC]\09. Polylog.wav

Peak level 98.2 %
Track quality 99.8 %
Test CRC 4A9E9816
Copy CRC 4A9E9816
Track not present in AccurateRip database
Copy OK

Track 10

Filename D:\[UPLOADS]\Frank Bretschneider - EXP\Frank Bretschneider - EXP [FLAC]\10. Node.wav

Peak level 99.9 %
Track quality 100.0 %
Test CRC AF150990
Copy CRC AF150990
Track not present in AccurateRip database
Copy OK

Track 11

Filename D:\[UPLOADS]\Frank Bretschneider - EXP\Frank Bretschneider - EXP [FLAC]\11. Orion.wav

Peak level 96.6 %
Track quality 100.0 %
Test CRC 2D900DF1
Copy CRC 2D900DF1
Track not present in AccurateRip database
Copy OK

Track 12

Filename D:\[UPLOADS]\Frank Bretschneider - EXP\Frank Bretschneider - EXP [FLAC]\12. Spin.wav

Peak level 96.4 %
Track quality 100.0 %
Test CRC 930EBFB0
Copy CRC 930EBFB0
Track not present in AccurateRip database
Copy OK

Track 13

Filename D:\[UPLOADS]\Frank Bretschneider - EXP\Frank Bretschneider - EXP [FLAC]\13. Novo Duplex.wav

Peak level 97.7 %
Track quality 100.0 %
Test CRC 2CB4CA56
Copy CRC 2CB4CA56
Track not present in AccurateRip database
Copy OK

Track 14

Filename D:\[UPLOADS]\Frank Bretschneider - EXP\Frank Bretschneider - EXP [FLAC]\14. Blue- Electric.wav

Peak level 96.2 %
Track quality 100.0 %
Test CRC C44DFE83
Copy CRC C44DFE83
Track not present in AccurateRip database
Copy OK

Track 15

Filename D:\[UPLOADS]\Frank Bretschneider - EXP\Frank Bretschneider - EXP [FLAC]\15. Mass.wav

Peak level 98.0 %
Track quality 100.0 %
Test CRC CB0EB495
Copy CRC CB0EB495
Track not present in AccurateRip database
Copy OK

Track 16

Filename D:\[UPLOADS]\Frank Bretschneider - EXP\Frank Bretschneider - EXP [FLAC]\16. Blue- Aluminate.wav

Peak level 96.2 %
Track quality 99.7 %
Test CRC C21B0D7A
Copy CRC C21B0D7A
Track not present in AccurateRip database
Copy OK

Track 17

Filename D:\[UPLOADS]\Frank Bretschneider - EXP\Frank Bretschneider - EXP [FLAC]\17. Ventilator.wav

Peak level 96.2 %
Track quality 100.0 %
Test CRC 16A72C22
Copy CRC 16A72C22
Track not present in AccurateRip database
Copy OK

Track 18

Filename D:\[UPLOADS]\Frank Bretschneider - EXP\Frank Bretschneider - EXP [FLAC]\18. Colour Wheel.wav

Peak level 93.7 %
Track quality 100.0 %
Test CRC 36D6524A
Copy CRC 36D6524A
Track not present in AccurateRip database
Copy OK

Track 19

Filename D:\[UPLOADS]\Frank Bretschneider - EXP\Frank Bretschneider - EXP [FLAC]\19. Tron.wav

Peak level 96.2 %
Track quality 100.0 %
Test CRC 0E1E6C31
Copy CRC 0E1E6C31
Track not present in AccurateRip database
Copy OK

Track 20

Filename D:\[UPLOADS]\Frank Bretschneider - EXP\Frank Bretschneider - EXP [FLAC]\20. Echolog.wav

Peak level 97.2 %
Track quality 100.0 %
Test CRC 29F52586
Copy CRC 29F52586
Track not present in AccurateRip database
Copy OK

Track 21

Filename D:\[UPLOADS]\Frank Bretschneider - EXP\Frank Bretschneider - EXP [FLAC]\21. Reflex.wav

Peak level 96.7 %
Track quality 100.0 %
Test CRC B790B76B
Copy CRC B790B76B
Track not present in AccurateRip database
Copy OK

Track 22

Filename D:\[UPLOADS]\Frank Bretschneider - EXP\Frank Bretschneider - EXP [FLAC]\22. Multimath Duplex.wav

Peak level 96.3 %
Track quality 99.4 %
Test CRC 2431D9F2
Copy CRC 2431D9F2
Track not present in AccurateRip database
Copy OK

Track 23

Filename D:\[UPLOADS]\Frank Bretschneider - EXP\Frank Bretschneider - EXP [FLAC]\23. Polycopter.wav

Peak level 96.4 %
Track quality 100.0 %
Test CRC 40A9D4F4
Copy CRC 40A9D4F4
Track not present in AccurateRip database
Copy OK

Track 24

Filename D:\[UPLOADS]\Frank Bretschneider - EXP\Frank Bretschneider - EXP [FLAC]\24. Memory.wav

Peak level 96.2 %
Track quality 100.0 %
Test CRC 34F0C617
Copy CRC 34F0C617
Track not present in AccurateRip database
Copy OK

Track 25

Filename D:\[UPLOADS]\Frank Bretschneider - EXP\Frank Bretschneider - EXP [FLAC]\25. Phased Out.wav

Peak level 96.1 %
Track quality 100.0 %
Test CRC 094C9179
Copy CRC 094C9179
Track not present in AccurateRip database
Copy OK

Track 26

Filename D:\[UPLOADS]\Frank Bretschneider - EXP\Frank Bretschneider - EXP [FLAC]\26. Oscillation.wav

Peak level 96.3 %
Track quality 100.0 %
Test CRC 51EC1F52
Copy CRC 51EC1F52
Track not present in AccurateRip database
Copy OK

Track 27

Filename D:\[UPLOADS]\Frank Bretschneider - EXP\Frank Bretschneider - EXP [FLAC]\27. Funkalogic.wav

Peak level 96.9 %
Track quality 100.0 %
Test CRC E41672CD
Copy CRC E41672CD
Track not present in AccurateRip database
Copy OK

Track 28

Filename D:\[UPLOADS]\Frank Bretschneider - EXP\Frank Bretschneider - EXP [FLAC]\28. Monoplex.wav

Peak level 96.5 %
Track quality 100.0 %
Test CRC EB99DBFF
Copy CRC EB99DBFF
Track not present in AccurateRip database
Copy OK

Track 29

Filename D:\[UPLOADS]\Frank Bretschneider - EXP\Frank Bretschneider - EXP [FLAC]\29. Multiplex.wav

Peak level 97.3 %
Track quality 100.0 %
Test CRC 1FC2F466
Copy CRC 1FC2F466
Track not present in AccurateRip database
Copy OK

Track 30

Filename D:\[UPLOADS]\Frank Bretschneider - EXP\Frank Bretschneider - EXP [FLAC]\30. Pandback.wav

Peak level 96.3 %
Track quality 100.0 %
Test CRC 39EADDF4
Copy CRC 39EADDF4
Track not present in AccurateRip database
Copy OK

Track 31

Filename D:\[UPLOADS]\Frank Bretschneider - EXP\Frank Bretschneider - EXP [FLAC]\31. Blue- Russian.wav

Peak level 96.5 %
Track quality 100.0 %
Test CRC 9F54516D
Copy CRC 9F54516D
Track not present in AccurateRip database
Copy OK

Track 32

Filename D:\[UPLOADS]\Frank Bretschneider - EXP\Frank Bretschneider - EXP [FLAC]\32. Light Weight.wav

Peak level 96.3 %
Track quality 100.0 %
Test CRC EFEAF9C3
Copy CRC EFEAF9C3
Track not present in AccurateRip database
Copy OK

Track 33

Filename D:\[UPLOADS]\Frank Bretschneider - EXP\Frank Bretschneider - EXP [FLAC]\33. Satellite.wav

Peak level 96.3 %
Track quality 100.0 %
Test CRC 00768BF7
Copy CRC 00768BF7
Track not present in AccurateRip database
Copy OK

Track 34

Filename D:\[UPLOADS]\Frank Bretschneider - EXP\Frank Bretschneider - EXP [FLAC]\34. Chrystal Dub.wav

Peak level 98.3 %
Track quality 99.9 %
Test CRC 9CB51E18
Copy CRC 9CB51E18
Track not present in AccurateRip database
Copy OK

Track 35

Filename D:\[UPLOADS]\Frank Bretschneider - EXP\Frank Bretschneider - EXP [FLAC]\35. For Kyoka.wav

Peak level 96.6 %
Track quality 99.9 %
Test CRC 3AEE5C5E
Copy CRC 3AEE5C5E
Track not present in AccurateRip database
Copy OK

None of the tracks are present in the AccurateRip database

No errors occurred

End of status report


REM GENRE "Minimal"
REM DATE 2010
REM DISCID C6084823
PERFORMER "Frank Bretschneider"
TITLE EXP
FILE "01. Monoplus.flac" WAVE
TRACK 1 AUDIO
TITLE Monopuls
PERFORMER "Frank Bretschneider"
INDEX 01 00:00:00
FILE "02. Blue- Cobalt.flac" WAVE
TRACK 2 AUDIO
TITLE "Blue: Cobalt"
PERFORMER "Frank Bretschneider"
INDEX 01 00:00:00
FILE "03. Strobe Room.flac" WAVE
TRACK 3 AUDIO
TITLE "Strobe Room"
PERFORMER "Frank Bretschneider"
INDEX 01 00:00:00
FILE "04. Blue- Ultramarine.flac" WAVE
TRACK 4 AUDIO
TITLE "Blue: Ultramarine"
PERFORMER "Frank Bretschneider"
INDEX 01 00:00:00
FILE "05. Chamber Jazz.flac" WAVE
TRACK 5 AUDIO
TITLE "Chamber Jazz"
PERFORMER "Frank Bretschneider"
INDEX 01 00:00:00
FILE "06. Biplex.flac" WAVE
TRACK 6 AUDIO
TITLE Biplex
PERFORMER "Frank Bretschneider"
INDEX 01 00:00:00
FILE "07. Blue- Cyan.flac" WAVE
TRACK 7 AUDIO
TITLE "Blue: Cyan"
PERFORMER "Frank Bretschneider"
INDEX 01 00:00:00
FILE "08. B.L.U.E..flac" WAVE
TRACK 8 AUDIO
TITLE "B.L.U.E. (Best Linear Unbiased Estimator)"
PERFORMER "Frank Bretschneider"
INDEX 01 00:00:00
FILE "09. Polylog.flac" WAVE
TRACK 9 AUDIO
TITLE Polylog
PERFORMER "Frank Bretschneider"
INDEX 01 00:00:00
FILE "10. Node.flac" WAVE
TRACK 10 AUDIO
TITLE Node
PERFORMER "Frank Bretschneider"
INDEX 01 00:00:00
FILE "11. Orion.flac" WAVE
TRACK 11 AUDIO
TITLE Orion
PERFORMER "Frank Bretschneider"
INDEX 01 00:00:00
FILE "12. Spin.flac" WAVE
TRACK 12 AUDIO
TITLE Spin
PERFORMER "Frank Bretschneider"
INDEX 01 00:00:00
FILE "13. Novo Duplex.flac" WAVE
TRACK 13 AUDIO
TITLE "Novo Duplex"
PERFORMER "Frank Bretschneider"
INDEX 01 00:00:00
FILE "14. Blue- Electric.flac" WAVE
TRACK 14 AUDIO
TITLE "Blue: Electric"
PERFORMER "Frank Bretschneider"
INDEX 01 00:00:00
FILE "15. Mass.flac" WAVE
TRACK 15 AUDIO
TITLE Mass
PERFORMER "Frank Bretschneider"
INDEX 01 00:00:00
FILE "16. Blue- Aluminate.flac" WAVE
TRACK 16 AUDIO
TITLE "Blue: Aluminate"
PERFORMER "Frank Bretschneider"
INDEX 01 00:00:00
FILE "17. Ventilator.flac" WAVE
TRACK 17 AUDIO
TITLE Ventilator
PERFORMER "Frank Bretschneider"
INDEX 01 00:00:00
FILE "18. Colour Wheel.flac" WAVE
TRACK 18 AUDIO
TITLE "Colour Wheel"
PERFORMER "Frank Bretschneider"
INDEX 01 00:00:00
FILE "19. Tron.flac" WAVE
TRACK 19 AUDIO
TITLE Tron
PERFORMER "Frank Bretschneider"
INDEX 01 00:00:00
FILE "20. Echolog.flac" WAVE
TRACK 20 AUDIO
TITLE Echolog
PERFORMER "Frank Bretschneider"
INDEX 01 00:00:00
FILE "21. Reflex.flac" WAVE
TRACK 21 AUDIO
TITLE Reflex
PERFORMER "Frank Bretschneider"
INDEX 01 00:00:00
FILE "22. Multimath Duplex.flac" WAVE
TRACK 22 AUDIO
TITLE "Multimath Duplex"
PERFORMER "Frank Bretschneider"
INDEX 01 00:00:00
FILE "23. Polycopter.flac" WAVE
TRACK 23 AUDIO
TITLE Polycopter
PERFORMER "Frank Bretschneider"
INDEX 01 00:00:00
FILE "24. Memory.flac" WAVE
TRACK 24 AUDIO
TITLE Memory
PERFORMER "Frank Bretschneider"
INDEX 01 00:00:00
FILE "25. Phased Out.flac" WAVE
TRACK 25 AUDIO
TITLE "Phased Out"
PERFORMER "Frank Bretschneider"
INDEX 01 00:00:00
FILE "26. Oscillation.flac" WAVE
TRACK 26 AUDIO
TITLE Oscillation
PERFORMER "Frank Bretschneider"
INDEX 01 00:00:00
FILE "27. Funkalogic.flac" WAVE
TRACK 27 AUDIO
TITLE Funkalogic
PERFORMER "Frank Bretschneider"
INDEX 01 00:00:00
FILE "28. Monoplex.flac" WAVE
TRACK 28 AUDIO
TITLE Monoplex
PERFORMER "Frank Bretschneider"
INDEX 01 00:00:00
FILE "29. Multiplex.flac" WAVE
TRACK 29 AUDIO
TITLE Multiplex
PERFORMER "Frank Bretschneider"
INDEX 01 00:00:00
FILE "30. Pandback.flac" WAVE
TRACK 30 AUDIO
TITLE Panback
PERFORMER "Frank Bretschneider"
INDEX 01 00:00:00
FILE "31. Blue- Russian.flac" WAVE
TRACK 31 AUDIO
TITLE "Blue: Prussian"
PERFORMER "Frank Bretschneider"
INDEX 01 00:00:00
FILE "32. Light Weight.flac" WAVE
TRACK 32 AUDIO
TITLE "Light Weight"
PERFORMER "Frank Bretschneider"
INDEX 01 00:00:00
FILE "33. Satellite.flac" WAVE
TRACK 33 AUDIO
TITLE Satellite
PERFORMER "Frank Bretschneider"
INDEX 01 00:00:00
FILE "34. Chrystal Dub.flac" WAVE
TRACK 34 AUDIO
TITLE "Crystal Dub"
PERFORMER "Frank Bretschneider"
INDEX 01 00:00:00
FILE "35. For Kyoka.flac" WAVE
TRACK 35 AUDIO
TITLE "会話 (For Kyoka)"
PERFORMER "Frank Bretschneider"
INDEX 01 00:00:00

Год выпуска: 2011
Продолжительность: 00:39:00
Треклист:

01. Subharchorded Waves (04:16)
02. Like A Little Lizard In The Sun (05:09)
03. Echotron (05:44)
04. Urania (05:32)
05. Flight 09 (05:46)
06. Flutter Flitter (06:55)
07. Twisted In The Wind (05:38)

Exact Audio Copy V1.0 beta 3 from 29. August 2011

EAC extraction logfile from 1. June 2012, 19:58

Frank Bretschneider / Komet

Used drive : ASUS DRW-20B1LT Adapter: 0 ID: 1

Read mode : Secure
Utilize accurate stream : Yes
Defeat audio cache : Yes
Make use of C2 pointers : No

Read offset correction : 6
Overread into Lead-In and Lead-Out : No
Fill up missing offset samples with silence : Yes
Delete leading and trailing silent blocks : No
Null samples used in CRC calculations : Yes
Used interface : Native Win32 interface for Win NT & 2000
Gap handling : Appended to previous track

Used output format : User Defined Encoder
Selected bitrate : 1024 kBit/s
Quality : High
Add ID3 tag : No
Command line compressor : C:\Program Files (x86)\FLAC\flac.exe
Additional command line options : -8 -V -T "ARTIST=%artist%" -T "TITLE=%title%" -T "ALBUM=%albumtitle%" -T "DATE=%year%" -T "TRACKNUMBER=%tracknr1%" -T "GENRE=%genre%" -T "DISCNUMBER=%cdnumber%" -T "TOTALDISCS=%totalcds%" -T "TOTALTRACKS=%numtracks%" %source% -o %dest%

TOC of the extracted CD

Track | Start | Length | Start sector | End sector
---------------------------------------------------------
1 | 0:00.00 | 4:15.39 | 0 | 19163
2 | 4:15.39 | 5:08.73 | 19164 | 42336
3 | 9:24.37 | 5:44.01 | 42337 | 68137
4 | 15:08.38 | 5:32.00 | 68138 | 93037
5 | 20:40.38 | 5:46.02 | 93038 | 118989
6 | 26:26.40 | 6:55.29 | 118990 | 150143
7 | 33:21.69 | 5:37.71 | 150144 | 175489

Track 1

Filename U:\Frank Bretschneider ‎– Komet\01_Frank_Bretschneider_Subharchorded_Waves.wav

Pre-gap length 0:00:02.00

Peak level 97.2 %
Extraction speed 5.0 X
Track quality 100.0 %
Test CRC 6170D080
Copy CRC 6170D080
Track not present in AccurateRip database
Copy OK

Track 2

Filename U:\Frank Bretschneider ‎– Komet\02_Frank_Bretschneider_Like_A_Little_Lizard_In_The_Sun.wav

Peak level 99.7 %
Extraction speed 5.8 X
Track quality 100.0 %
Test CRC 53ECD1DE
Copy CRC 53ECD1DE
Track not present in AccurateRip database
Copy OK

Track 3

Filename U:\Frank Bretschneider ‎– Komet\03_Frank_Bretschneider_Echotron.wav

Peak level 98.2 %
Extraction speed 6.6 X
Track quality 100.0 %
Test CRC CB187F76
Copy CRC CB187F76
Track not present in AccurateRip database
Copy OK

Track 4

Filename U:\Frank Bretschneider ‎– Komet\04_Frank_Bretschneider_Urania.wav

Peak level 97.7 %
Extraction speed 6.3 X
Track quality 99.9 %
Test CRC 4A976D90
Copy CRC 4A976D90
Track not present in AccurateRip database
Copy OK

Track 5

Filename U:\Frank Bretschneider ‎– Komet\05_Frank_Bretschneider_Flight_09.wav

Peak level 97.8 %
Extraction speed 7.7 X
Track quality 100.0 %
Test CRC E0D2F4C9
Copy CRC E0D2F4C9
Track not present in AccurateRip database
Copy OK

Track 6

Filename U:\Frank Bretschneider ‎– Komet\06_Frank_Bretschneider_Flutter_Flitter.wav

Peak level 99.2 %
Extraction speed 8.5 X
Track quality 100.0 %
Test CRC 6CFEBE7C
Copy CRC 6CFEBE7C
Track not present in AccurateRip database
Copy OK

Track 7

Filename U:\Frank Bretschneider ‎– Komet\07_Frank_Bretschneider_Twisted_In_The_Wind.wav

Peak level 98.0 %
Extraction speed 8.8 X
Track quality 100.0 %
Test CRC C0EA4F21
Copy CRC C0EA4F21
Track not present in AccurateRip database
Copy OK

None of the tracks are present in the AccurateRip database

No errors occurred

End of status report

==== Log checksum 875512E03720A29B03F7B1FA74E243E833BECAC216D3C65B19DF239ABBA42E03 ====


REM GENRE Electronic
REM DATE 2011
REM DISCID 4F092307
REM COMMENT "ExactAudioCopy v1.0b3"
CATALOG 4260217560148
PERFORMER "Frank Bretschneider"
TITLE "Komet"
FILE "01. Subharchorded Waves.wav" WAVE
TRACK 01 AUDIO
TITLE "Subharchorded Waves"
PERFORMER "Frank Bretschneider"
ISRC <eX151100001
INDEX 01 00:00:00
FILE "02. Like A Little Lizard In The Sun.wav" WAVE
TRACK 02 AUDIO
TITLE "Like A Little Lizard In The Sun"
PERFORMER "Frank Bretschneider"
ISRC <eX151100002
INDEX 01 00:00:00
FILE "03. Echotron.wav" WAVE
TRACK 03 AUDIO
TITLE "Echotron"
PERFORMER "Frank Bretschneider"
ISRC <eX151100003
INDEX 01 00:00:00
FILE "04. Urania.wav" WAVE
TRACK 04 AUDIO
TITLE "Urania"
PERFORMER "Frank Bretschneider"
ISRC <eX151100004
INDEX 01 00:00:00
FILE "05. Flight 09.wav" WAVE
TRACK 05 AUDIO
TITLE "Flight 09"
PERFORMER "Frank Bretschneider"
ISRC <eX151100005
INDEX 01 00:00:00
FILE "06. Flutter Flitter.wav" WAVE
TRACK 06 AUDIO
TITLE "Flutter Flitter"
PERFORMER "Frank Bretschneider"
ISRC <eX151100006
INDEX 01 00:00:00
FILE "07. Twisted In The Wind.wav" WAVE
TRACK 07 AUDIO
TITLE "Twisted In The Wind"
PERFORMER "Frank Bretschneider"
ISRC <eX151100007
INDEX 01 00:00:00

Год выпуска: 2012
Продолжительность: 00:37:02
Треклист:

01. Kippschwingungen Part 1 (02:36)
02. Kippschwingungen Part 2 (03:55)
03. Kippschwingungen Part 3 (05:56)
04. Kippschwingungen Part 4 (06:35)
05. Kippschwingungen Part 5 (01:57)
06. Kippschwingungen Part 6 (07:21)
07. Kippschwingungen Part 7 (06:11)
08. Kippschwingungen Part 8 (02:31)

Exact Audio Copy V1.0 beta 1 from 15. November 2010

EAC extraction logfile from 19. May 2012, 13:51

Frank Bretschneider / Kippschwingungen

Used drive : HL-DT-STDVDRAM GH22NS50 Adapter: 1 ID: 0

Read mode : Secure
Utilize accurate stream : Yes
Defeat audio cache : Yes
Make use of C2 pointers : No

Read offset correction : 667
Overread into Lead-In and Lead-Out : No
Fill up missing offset samples with silence : Yes
Delete leading and trailing silent blocks : No
Null samples used in CRC calculations : Yes
Used interface : Native Win32 interface for Win NT & 2000
Gap handling : Appended to previous track

Used output format : Internal WAV Routines
Sample format : 44.100 Hz; 16 Bit; Stereo

TOC of the extracted CD

Track | Start | Length | Start sector | End sector
---------------------------------------------------------
1 | 0:00.00 | 2:36.22 | 0 | 11721
2 | 2:36.22 | 3:54.67 | 11722 | 29338
3 | 6:31.14 | 5:56.21 | 29339 | 56059
4 | 12:27.35 | 6:34.39 | 56060 | 85648
5 | 19:01.74 | 1:57.13 | 85649 | 94436
6 | 20:59.12 | 7:20.61 | 94437 | 127497
7 | 28:19.73 | 6:11.33 | 127498 | 155355
8 | 34:31.31 | 2:31.30 | 155356 | 166710

Track 1

Filename C:\R\01 - Kippschwingungen Part 1.wav

Pre-gap length 0:00:02.00

Peak level 36.6 %
Extraction speed 3.9 X
Track quality 100.0 %
Test CRC 03851C88
Copy CRC 03851C88
Track not present in AccurateRip database
Copy OK

Track 2

Filename C:\R\02 - Kippschwingungen Part 2.wav

Peak level 96.4 %
Extraction speed 4.7 X
Track quality 100.0 %
Test CRC 74F07F0F
Copy CRC 74F07F0F
Track not present in AccurateRip database
Copy OK

Track 3

Filename C:\R\03 - Kippschwingungen Part 3.wav

Peak level 97.3 %
Extraction speed 4.7 X
Track quality 99.9 %
Test CRC BD500533
Copy CRC BD500533
Track not present in AccurateRip database
Copy OK

Track 4

Filename C:\R\04 - Kippschwingungen Part 4.wav

Peak level 96.2 %
Extraction speed 6.2 X
Track quality 100.0 %
Test CRC D8189201
Copy CRC D8189201
Track not present in AccurateRip database
Copy OK

Track 5

Filename C:\R\05 - Kippschwingungen Part 5.wav

Peak level 78.2 %
Extraction speed 5.1 X
Track quality 100.0 %
Test CRC ACE806D0
Copy CRC ACE806D0
Track not present in AccurateRip database
Copy OK

Track 6

Filename C:\R\06 - Kippschwingungen Part 6.wav

Peak level 96.6 %
Extraction speed 6.9 X
Track quality 100.0 %
Test CRC DDDA68B5
Copy CRC DDDA68B5
Track not present in AccurateRip database
Copy OK

Track 7

Filename C:\R\07 - Kippschwingungen Part 7.wav

Peak level 97.0 %
Extraction speed 7.2 X
Track quality 100.0 %
Test CRC 17A1A6CA
Copy CRC 17A1A6CA
Track not present in AccurateRip database
Copy OK

Track 8

Filename C:\R\08 - Kippschwingungen Part 8.wav

Pre-gap length 0:00:02.00

Peak level 96.6 %
Extraction speed 6.9 X
Track quality 100.0 %
Test CRC 88EDC9CE
Copy CRC 88EDC9CE
Track not present in AccurateRip database
Copy OK

None of the tracks are present in the AccurateRip database

No errors occurred

End of status report

==== Log checksum BA4AFA04B3EDE0A177AA2710E39B689AE6223DC37D5B26C6548B78F5CB1A7C04 ====


REM DISCID 5B08AE08
REM COMMENT "ExactAudioCopy v1.0b1"
PERFORMER "Frank Bretschneider"
TITLE "Kippschwingungen "
FILE "01 - Kippschwingungen Part 1.wav" WAVE
TRACK 01 AUDIO
TITLE "Kippschwingungen Part 1"
PERFORMER "Frank Bretschneider"
FLAGS DCP
INDEX 01 00:00:00
FILE "02 - Kippschwingungen Part 2.wav" WAVE
TRACK 02 AUDIO
TITLE "Kippschwingungen Part 2"
PERFORMER "Frank Bretschneider"
FLAGS DCP
INDEX 01 00:00:00
FILE "03 - Kippschwingungen Part 3.wav" WAVE
TRACK 03 AUDIO
TITLE "Kippschwingungen Part 3"
PERFORMER "Frank Bretschneider"
FLAGS DCP
INDEX 01 00:00:00
FILE "04 - Kippschwingungen Part 4.wav" WAVE
TRACK 04 AUDIO
TITLE "Kippschwingungen Part 4"
PERFORMER "Frank Bretschneider"
FLAGS DCP
INDEX 01 00:00:00
FILE "05 - Kippschwingungen Part 5.wav" WAVE
TRACK 05 AUDIO
TITLE "Kippschwingungen Part 5"
PERFORMER "Frank Bretschneider"
FLAGS DCP
INDEX 01 00:00:00
FILE "06 - Kippschwingungen Part 6.wav" WAVE
TRACK 06 AUDIO
TITLE "Kippschwingungen Part 6"
PERFORMER "Frank Bretschneider"
FLAGS DCP
INDEX 01 00:00:00
FILE "07 - Kippschwingungen Part 7.wav" WAVE
TRACK 07 AUDIO
TITLE "Kippschwingungen Part 7"
PERFORMER "Frank Bretschneider"
FLAGS DCP
INDEX 01 00:00:00
TRACK 08 AUDIO
TITLE "Kippschwingungen Part 8"
PERFORMER "Frank Bretschneider"
FLAGS DCP
INDEX 00 06:09:33
FILE "08 - Kippschwingungen Part 8.wav" WAVE
INDEX 01 00:00:00

Год выпуска: 2013
Продолжительность: 00:43:47
Треклист:

01. Big.Hopes (02:35)
02. Flicker.Funk (05:01)
03. Machine.Gun (05:12)
04. Pink.Thrill (05:41)
05. Super.Trigger (04:19)
06. Over.Load (04:27)
07. Day.Dream (06:16)
08. Black.Out (05:19)
09. Mean.Streak (04:57)

Exact Audio Copy V1.0 beta 3 from 29. August 2011

EAC extraction logfile from 27. June 2013, 10:37

Frank Bretschneider / super.trigger

Used drive : HL-DT-STDVD-RAM GSA-H54N Adapter: 0 ID: 0

Read mode : Secure
Utilize accurate stream : Yes
Defeat audio cache : Yes
Make use of C2 pointers : No

Read offset correction : 102
Overread into Lead-In and Lead-Out : No
Fill up missing offset samples with silence : Yes
Delete leading and trailing silent blocks : No
Null samples used in CRC calculations : Yes
Used interface : Native Win32 interface for Win NT & 2000
Gap handling : Appended to previous track

Used output format : User Defined Encoder
Selected bitrate : 768 kBit/s
Quality : High
Add ID3 tag : No
Command line compressor : C:\Program Files\Exact Audio Copy\FLAC\FLAC.EXE
Additional command line options : -8 -V -T "ARTIST=%artist%" -T "TITLE=%title%" -T "ALBUM=%albumtitle%" -T "DATE=%year%" -T "TRACKNUMBER=%tracknr%" -T "GENRE=%genre%" -T "COMMENT=%comment%" -T "BAND=%albuminterpret%" -T "ALBUMARTIST=%albuminterpret%" -T "COMPOSER=%composer%" %haslyrics%--tag-from-file=LYRICS="%lyricsfile%"%haslyrics% -T "DISCNUMBER=%cdnumber%" -T "TOTALDISCS=%totalcds%" -T "TOTALTRACKS=%numtracks%" %hascover%--picture="%coverfile%"%hascover% %source% -o %dest%

TOC of the extracted CD

Track | Start | Length | Start sector | End sector
---------------------------------------------------------
1 | 0:00.00 | 2:35.24 | 0 | 11648
2 | 2:35.24 | 5:00.41 | 11649 | 34189
3 | 7:35.65 | 5:11.51 | 34190 | 57565
4 | 12:47.41 | 5:41.09 | 57566 | 83149
5 | 18:28.50 | 4:18.56 | 83150 | 102555
6 | 22:47.31 | 4:27.01 | 102556 | 122581
7 | 27:14.32 | 6:15.46 | 122582 | 150752
8 | 33:30.03 | 5:18.44 | 150753 | 174646
9 | 38:48.47 | 4:57.19 | 174647 | 196940

Track 1

Filename C:\EAC_Rips\Frank Bretschneider - super.trigger [FLAC]\01 - Frank Bretschneider - big.hopes.wav

Pre-gap length 0:00:02.00

Peak level 96.3 %
Extraction speed 0.8 X
Track quality 99.8 %
Test CRC FDB4C048
Copy CRC FDB4C048
Track not present in AccurateRip database
Copy OK

Track 2

Filename C:\EAC_Rips\Frank Bretschneider - super.trigger [FLAC]\02 - Frank Bretschneider - flicker.funk.wav

Peak level 96.1 %
Extraction speed 1.7 X
Track quality 100.0 %
Test CRC E8A5C5E6
Copy CRC E8A5C5E6
Track not present in AccurateRip database
Copy OK

Track 3

Filename C:\EAC_Rips\Frank Bretschneider - super.trigger [FLAC]\03 - Frank Bretschneider - machine.gun.wav

Peak level 96.0 %
Extraction speed 2.0 X
Track quality 100.0 %
Test CRC 59386A71
Copy CRC 59386A71
Track not present in AccurateRip database
Copy OK

Track 4

Filename C:\EAC_Rips\Frank Bretschneider - super.trigger [FLAC]\04 - Frank Bretschneider - pink.thrill.wav

Peak level 96.5 %
Extraction speed 2.1 X
Track quality 100.0 %
Test CRC E50A21F5
Copy CRC E50A21F5
Track not present in AccurateRip database
Copy OK

Track 5

Filename C:\EAC_Rips\Frank Bretschneider - super.trigger [FLAC]\05 - Frank Bretschneider - super.trigger.wav

Pre-gap length 0:00:01.22

Peak level 96.3 %
Extraction speed 2.2 X
Track quality 100.0 %
Test CRC BA644BA6
Copy CRC BA644BA6
Track not present in AccurateRip database
Copy OK

Track 6

Filename C:\EAC_Rips\Frank Bretschneider - super.trigger [FLAC]\06 - Frank Bretschneider - over.load.wav

Pre-gap length 0:00:00.01

Peak level 96.0 %
Extraction speed 2.4 X
Track quality 100.0 %
Test CRC A0A181F3
Copy CRC A0A181F3
Track not present in AccurateRip database
Copy OK

Track 7

Filename C:\EAC_Rips\Frank Bretschneider - super.trigger [FLAC]\07 - Frank Bretschneider - day.dream.wav

Pre-gap length 0:00:00.09

Peak level 96.2 %
Extraction speed 2.6 X
Track quality 100.0 %
Test CRC FA87356E
Copy CRC FA87356E
Track not present in AccurateRip database
Copy OK

Track 8

Filename C:\EAC_Rips\Frank Bretschneider - super.trigger [FLAC]\08 - Frank Bretschneider - black.out.wav

Peak level 96.0 %
Extraction speed 2.7 X
Track quality 100.0 %
Test CRC 9187A827
Copy CRC 9187A827
Track not present in AccurateRip database
Copy OK

Track 9

Filename C:\EAC_Rips\Frank Bretschneider - super.trigger [FLAC]\09 - Frank Bretschneider - mean.streak.wav

Pre-gap length 0:00:01.12

Peak level 96.7 %
Extraction speed 2.9 X
Track quality 100.0 %
Test CRC BCC5848D
Copy CRC BCC5848D
Track not present in AccurateRip database
Copy OK

None of the tracks are present in the AccurateRip database

No errors occurred

End of status report

==== Log checksum DA993771E172164436BF388227F30B89B45ACF3E3CF6A109EFF23C747E0D18DE ====


REM GENRE Electronic
REM DATE 2013
REM DISCID 680A4109
REM COMMENT "ExactAudioCopy v1.0b3"
FILE "01 - Frank Bretschneider - big.hopes.wav" WAVE
TRACK 01 AUDIO
INDEX 01 00:00:00
FILE "02 - Frank Bretschneider - flicker.funk.wav" WAVE
TRACK 02 AUDIO
INDEX 01 00:00:00
FILE "03 - Frank Bretschneider - machine.gun.wav" WAVE
TRACK 03 AUDIO
INDEX 01 00:00:00
FILE "04 - Frank Bretschneider - pink.thrill.wav" WAVE
TRACK 04 AUDIO
INDEX 01 00:00:00
TRACK 05 AUDIO
INDEX 00 05:39:67
FILE "05 - Frank Bretschneider - super.trigger.wav" WAVE
INDEX 01 00:00:00
TRACK 06 AUDIO
INDEX 00 04:18:55
FILE "06 - Frank Bretschneider - over.load.wav" WAVE
INDEX 01 00:00:00
TRACK 07 AUDIO
INDEX 00 04:26:69
FILE "07 - Frank Bretschneider - day.dream.wav" WAVE
INDEX 01 00:00:00
FILE "08 - Frank Bretschneider - black.out.wav" WAVE
TRACK 08 AUDIO
INDEX 01 00:00:00
TRACK 09 AUDIO
INDEX 00 05:17:35
FILE "09 - Frank Bretschneider - mean.streak.wav" WAVE
INDEX 01 00:00:00

Год выпуска: 2014
Продолжительность: 00:52:58
Треклист:

01. Part 1 Live (22:08)
02. Part 2 Rehearsal (30:50)

-----------------------

DON'T MODIFY THIS FILE

-----------------------

PERFORMER: auCDtect Task Manager, ver. 1.5.1RC6 build 1.5.1.7
Copyright (c) 2008-2010 y-soft. All rights reserved
http://y-soft.org

ANALYZER: auCDtect: CD records authenticity detector, version 0.8.2
Copyright (c) 2004 Oleg Berngardt. All rights reserved.
Copyright (c) 2004 Alexander Djourik. All rights reserved.

FILE: 02. Part 2 Rehearsal.flac
Size: 160365034 Hash: F2D338C214DA0573995287CE516D08D0 Accuracy: -m0
Conclusion: CDDA 100%
Signature: 5595002E3744E1BE435515F6DC5BFC6FB431E9D8
FILE: 01. Part 1 Live.flac
Size: 136665066 Hash: 4B54D944B9D227716E86D484D59F39F4 Accuracy: -m0
Conclusion: CDDA 100%
Signature: DBEB89C407DB1A725EFB43DC6B96785961818C54

Год выпуска: 2015
Продолжительность: 00:40:49
Треклист:

01. White Light (07:29)
02. Neon Night (08:34)
03. Cycle/Circle (06:13)
04. Vertical Time (10:53)
05. Oscillation/Feedback (07:40)

-----------------------

DON'T MODIFY THIS FILE

-----------------------

PERFORMER: auCDtect Task Manager, ver. 1.5.1RC6 build 1.5.1.7
Copyright (c) 2008-2010 y-soft. All rights reserved
http://y-soft.org

ANALYZER: auCDtect: CD records authenticity detector, version 0.8.2
Copyright (c) 2004 Oleg Berngardt. All rights reserved.
Copyright (c) 2004 Alexander Djourik. All rights reserved.

FILE: 05. Oscillation-Feedback.flac
Size: 26199974 Hash: 5C3213BF51EDFBBA43F4EFB583AB69BC Accuracy: -m0
Conclusion: CDDA 94%
Signature: 2171A855F8EDB152891BFE4806D3A9D8A765A8CE
FILE: 04. Vertical Time.flac
Size: 22839240 Hash: AA27D53A2C5A434F6FDE0BEB69A9B539 Accuracy: -m0
Conclusion: MPEG 100%
Signature: 83D46A0C663C9F7ABCCCF106FB6449A9B88A36B3
FILE: 03. Cycle-Circle.flac
Size: 14396482 Hash: A0BF5A4B59C08287C3C10ED933F25585 Accuracy: -m0
Conclusion: MPEG 100%
Signature: 1BC2094F0E191A6C3D76E5B6FCDF198B1250AA3F
FILE: 02. Neon Night.flac
Size: 32168940 Hash: D28E918D4BAFD77D97BDA8BFA0BE1BCF Accuracy: -m0
Conclusion: CDDA 100%
Signature: B1329EA0FCFDFEA50DE618C85A4CCF9E48DC8526
FILE: 01. White Light.flac
Size: 34548665 Hash: 4B8D582EA87075163B8BD92BCEE97CAC Accuracy: -m0
Conclusion: CDDA 43%
Signature: E1F729E022DF7240F35C98BF4B3D93675C484E7D

Год выпуска: 2015
Продолжительность: 00:40:45
Треклист:

01. Pattern Recognition (08:00)
02. Crisis? What Crisis? (07:18)
03. Fehlfunktion (03:59)
04. Free Market (03:25)
05. Funkstille (05:05)
06. Data Mining (03:23)
07. Wave Of The Week (02:36)
08. The Machinery Of Freedom (06:59)

foobar2000 1.1 / Dynamic Range Meter 1.1.1
log date: 2016-09-16 22:11:33

--------------------------------------------------------------------------------
Analyzed: Frank Bretschneider / Sinn + Form
--------------------------------------------------------------------------------

DR Peak RMS Duration Track
--------------------------------------------------------------------------------
DR9 -0.32 dB -13.68 dB 8:00 ?-Pattern Recognition
DR8 -0.32 dB -10.65 dB 7:18 ?-Crisis? What Crisis?
DR8 -0.32 dB -10.52 dB 3:59 ?-Fehlfunktion
DR4 -0.32 dB -6.53 dB 3:25 ?-Free Market
DR7 -0.32 dB -10.19 dB 5:05 ?-Funkstille
DR6 -0.32 dB -10.30 dB 3:23 ?-Data Mining
DR4 -0.32 dB -6.74 dB 2:36 ?-Wave Of The Week
DR10 -0.32 dB -14.06 dB 6:59 ?-The Machinery Of Freedom
--------------------------------------------------------------------------------

Number of tracks: 8
Official DR value: DR7

Samplerate: 44100 Hz
Channels: 2
Bits per sample: 24
Bitrate: 1331 kbps
Codec: FLAC
================================================================================

Время раздачи: 12/7
[NNMClub.to]_Frank Bretschneider FLAC.torrent
 Торрент: Серебряная раздча  Зарегистрирован
 
Примагнититься
Free Leech
Зарегистрируйтесь и скачайте торрент!
33,4 KB
 Зарегистрирован:   01 Фев 2017 06:00:14
 Размер:   3,29 GB  (
 Рейтинг:    (Голосов: 4)
 Поблагодарили:   22
 Проверка:   Оформление проверено модератором 01 Фев 2017 06:00:40
Как cкачать  ·  Как раздать  ·  Правильно оформить  ·  Поднять ратио!  
Показать сообщения:   
Начать новую тему   Ответить на тему    Торрент-трекер NNM-Club -> Electronic -> IDM (Lossless) Часовой пояс: GMT + 3
Страница 1 из 1