Классический форум-трекер
canvas not supported
Нас вместе: 4 079 122

Tate no Yuusha no Nariagari / The Rising of the Shield Hero / Восхождение Героя щита [2019, TV, 25 ep] WEB-DL 1080p Rus


 
 
RSS
Начать новую тему   Ответить на тему    Торрент-трекер NNM-Club -> Аниме с озвучкой -> Аниме с озвучкой (FullHD)
Автор Сообщение
Ampho_DnB ®
RG Аниме
Uploader 100+
 
Стаж: 7 лет 9 мес.
Сообщений: 3724
Ratio: 324,1
Поблагодарили: 86726
100%
Откуда: дует?
roody.gif
Tate no Yuusha no Nariagari / The Rising of the Shield Hero
Восхождение Героя щита

Жанр: приключения, фэнтези
Тип: TV-сериал
Продолжительность: 25 эпизодов по 25 минут
Выпуск: c 09.01.2019 по 26.06.2019
Автор: Анэко Юсаги
Снято по ранобэ: Tate no Yuusha no Nariagari
Режиссер: Або Такао
Производство: Cinema Citrus
Информационные ссылки: AniDB || World Art || MAL || ANN
Релиз подготовлен студией Kansai
  • Тип озвучки: Многоголосая, закадровая

Описание:
Темные силы атакуют параллельное измерение Мальмарк. Нападения длятся длительное время. Баланс сил сломлен и темная стороны лидирует. Спасти Мельмарк собственными усилиями его обитатели не могут. Им приходится искать героев за пределами своего измерения. И их просьба доносится до смельчаков из мира, обеспечивающего защиту от темных сил. Наофуми Иватани и трое подобных ему воинов призваны в страдающий Мельмарк. Защитники осуществляют перенос. В ходе переноса каждый из них получает защитную экипировку, а Наофуми получает щит, ставший легендой. Кажется, что организационные вопросы решены.
Наофуми сталкивается с самого начала с некоторыми проблемами. Парень изначально не тяготел становиться героем. Он был одним из самых слабых в кандидаты на героизм. К тому же он не такой уж и харизматичный. Соратники предпочли оставить Наофуми одного. И когда это произошло, на парня обрушились новые испытания. Сперва его ограбили, с этим как-то можно смириться, а затем обвинили в совершении преступления. Доказать, что он не насильник парень не смог. От него стали сторониться окружающие. Наофуми полностью утратил доброжелательность к людям и был полон желания мстить.
Качество: WEB-DLRip | Энкод: HorribleSubs
Язык озвучки: Японский и Русский
Формат: MKV
Видео: x264, 1920x1080, ~4 832 kbps, 23.976 fps
Аудио: AAC, 128 kbps, 44.1 kHz, 2 ch
Аудио: AAC, 192 kbps, 48.0 kHz, 2 ch
01. The Shield Hero
02. The Slave Girl
03. Wave of Catastrophe
04. Lullaby at Dawn
05. Filo
06. A New Comrade
07. The Savior of the Heavenly Fowl
08. Curse Shield
09. Melty
10. In the Midst of Turmoil
11. Catastrophe Returns
12. The Raven Invader
13. The Devil of the Shield
14. Everlasting Memory
15. Raphtalia
16. Filolial Queen
17. A Promise Made
18. A Conspiracy Linked
19. The Four Cardinal Heroes
20. Battle of Good and Evil
21. Naofumi`s Triumphant Return
22. Four Heroes Council
23. Cal Mira Archipelago
24. Guardians of Another World
25. The Rising of the Shield Hero
General
Unique ID : 175204143401951752448155176756331766366 (0x83CF173299BEF3E014C0CFFD328D625E)
Complete name : Tate no Yuusha no Nariagari [KANSAI]\Tate no Yuusha no Nariagari - 02 [1080p].mkv
Format : Matroska
Format version : Version 4
File size : 872 MiB
Duration : 23 min 40 s
Overall bit rate : 5 151 kb/s
Encoded date : UTC 2019-02-09 06:40:39
Writing application : mkvmerge v30.1.0 ('Forever And More') 64-bit
Writing library : libebml v1.3.6 + libmatroska v1.4.9

Video
ID : 1
Format : AVC
Format/Info : Advanced Video Codec
Format profile : High@L4
Format settings : CABAC / 4 Ref Frames
Format settings, CABAC : Yes
Format settings, ReFrames : 4 frames
Codec ID : V_MPEG4/ISO/AVC
Duration : 23 min 39 s
Bit rate : 4 832 kb/s
Width : 1 920 pixels
Height : 1 080 pixels
Display aspect ratio : 16:9
Frame rate mode : Constant
Frame rate : 23.976 (24000/1001) FPS
Color space : YUV
Chroma subsampling : 4:2:0
Bit depth : 8 bits
Scan type : Progressive
Bits/(Pixel*Frame) : 0.097
Stream size : 818 MiB (94%)
Writing library : x264 core 142
Encoding settings : cabac=1 / ref=4 / deblock=1:1:1 / analyse=0x3:0x113 / me=umh / subme=8 / psy=1 / psy_rd=0.40:0.00 / mixed_ref=1 / me_range=16 / chroma_me=1 / trellis=1 / 8x8dct=1 / cqm=0 / deadzone=21,11 / fast_pskip=1 / chroma_qp_offset=-2 / threads=12 / lookahead_threads=2 / sliced_threads=0 / nr=0 / decimate=1 / interlaced=0 / bluray_compat=0 / constrained_intra=0 / bframes=3 / b_pyramid=2 / b_adapt=2 / b_bias=0 / direct=3 / weightb=1 / open_gop=0 / weightp=2 / keyint=48 / keyint_min=25 / scenecut=0 / intra_refresh=0 / rc_lookahead=48 / rc=crf / mbtree=1 / crf=15.0 / qcomp=0.60 / qpmin=0 / qpmax=69 / qpstep=4 / vbv_maxrate=8000 / vbv_bufsize=12000 / crf_max=0.0 / nal_hrd=none / filler=0 / ip_ratio=1.40 / aq=1:0.60
Default : Yes
Forced : No

Audio #1
ID : 2
Format : AAC LC
Format/Info : Advanced Audio Codec Low Complexity
Codec ID : A_AAC-2
Duration : 23 min 40 s
Bit rate : 192 kb/s
Channel(s) : 2 channels
Channel layout : L R
Sampling rate : 48.0 kHz
Frame rate : 46.875 FPS (1024 SPF)
Compression mode : Lossy
Delay relative to video : -83 ms
Stream size : 32.1 MiB (4%)
Language : Russian
Default : Yes
Forced : No

Audio #2
ID : 3
Format : AAC LC
Format/Info : Advanced Audio Codec Low Complexity
Codec ID : A_AAC-2
Duration : 23 min 40 s
Bit rate : 128 kb/s
Channel(s) : 2 channels
Channel layout : L R
Sampling rate : 44.1 kHz
Frame rate : 43.066 FPS (1024 SPF)
Compression mode : Lossy
Delay relative to video : -83 ms
Stream size : 21.7 MiB (2%)
Language : Japanese
Default : No
Forced : No


Время раздачи: До первых сидов
[NNMClub.to]_Tate no Yuusha no Nariagari [KANSAI].torrent
 Торрент: Платиновая раздача  Зарегистрирован
 
Скачать


Примагнититься
 Зарегистрирован:   01 Авг 2019 05:00:50
 Размер:   21,3 GB  (
 Рейтинг:   4,9 (Голосов: 47)
 Поблагодарили:   130
 Проверка:   Оформление проверено модератором 01 Авг 2019 06:32:55
Как cкачать  ·  Как раздать  ·  Правильно оформить  ·  Поднять ратио!  
Загрузка...
oszs
Стаж: 7 лет 5 мес.
Сообщений: 363
Ratio: 55,825
100%
Аниме рекомендую к просмотру, первые 5 серий мне понравились.

Ampho_DnB
Особое спасибо за 1080p и озвучку Kansai.

_________________
Роботизация при капитализме означает что мы все останемся без работы, и без средств на существование. Никто нас сразу резко не выкинет на улицу, нас медленно на тормозах будут спускать в нищету. Наш труд с каждым днём нужен всё меньше, как и необходимость в нашем существовании для капиталистов. Желаю жить друг для друга, а не для капиталистов. Желаю социализм.
Michael2990
Стаж: 5 лет 11 мес.
Сообщений: 27
Ratio: 16,796
100%
Откуда: Ukraine
ukraine.gif
У аниме есть потенциал, спасибо за перевод и за формат 1080p и конечно же за озвучку Kansai. Ждём выхода новых серий! Рекомендую и буду на раздаче.) Приятного просмотра!
Michael2990
Стаж: 5 лет 11 мес.
Сообщений: 27
Ratio: 16,796
100%
Откуда: Ukraine
ukraine.gif
Ждём с нетерпением новых серий, торрент поставлен на раздачу! Всем приятного просмотра!
DorianP
Стаж: 8 лет 6 мес.
Сообщений: 90
Ratio: 72,084
100%
Очень годная реализация . Читал в свое время ранобе и у меня прямо пригорало от происходящего :) Тут это смогли очень неплохо передать. одно из лучших аниме этой весны
fpaitt931
Стаж: 1 год 2 мес.
Сообщений: 1
Ratio: 1,71
100%
Спасибо!
Все еще ждем завершения.
Price627
Стаж: 6 лет 8 мес.
Сообщений: 5
Ratio: 2,496
34.45%
РАФТАЛИЯ!!!!!!!!!!!!!!
oszs
Стаж: 7 лет 5 мес.
Сообщений: 363
Ratio: 55,825
100%
Все 25 серий хороши и хорошая раздача.

_________________
Роботизация при капитализме означает что мы все останемся без работы, и без средств на существование. Никто нас сразу резко не выкинет на улицу, нас медленно на тормозах будут спускать в нищету. Наш труд с каждым днём нужен всё меньше, как и необходимость в нашем существовании для капиталистов. Желаю жить друг для друга, а не для капиталистов. Желаю социализм.
Показать сообщения:   
Начать новую тему   Ответить на тему    Торрент-трекер NNM-Club -> Аниме с озвучкой -> Аниме с озвучкой (FullHD) Часовой пояс: GMT + 3
Страница 1 из 1