Классический форум-трекер
canvas not supported
Нас вместе: 4 078 240

Бойся, враг, девятого сына (1984) DVDRemux


 
 
RSS
Начать новую тему   Ответить на тему    Торрент-трекер NNM-Club -> Видео -> Отечественные Фильмы для детей
Автор Сообщение
almikl ®
Куратор Детского.
Модератор Видео.
RG Всё лучшее - детям!
Uploader 500+
 
Стаж: 12 лет 3 мес.
Сообщений: 4721
Ratio: 333,591
Поблагодарили: 106278
100%
Откуда: Дааалекое Подмосковье
russia.gif
Бойся, враг, девятого сына (1984) DVDRemux
Производство: СССР
Жанр: Семейный, сказка

Режиссер: Виктор Пусурманов, Виктор Чугунов
Актеры: Кайрат Нукрадилов, Гульжан Аспетова, Нурмухан Жантурин, Лейла Джумалиева, Жанна (Жаннат) Куанышева, Булат Аюханов, Димаш (Динмухамет) Ахимов, Ануарбек Молдабеков, Амина Умурзакова, Нуржуман Ихтымбаев, Болат Абдилманов, Марат Азимбаев, Балтыбай Сейтмамутов, Дарига Тлендиева

Описание : По мотивам казахского фольклора. Добрая волшебница Аккемпир предрекает злому колдуну Тасболу скорую погибель от руки одного из сыновей табунщика Ержана. Колдун приказывает слугам доставить юношей в свое царство. Но храбрый табунщик не желает отдавать детей. В отместку его похищают и превращают в каменного истукана. Восемь сыновей табунщика отправляются на поиски отца. Обманом завлекают их в пещеру, опаивают колдовским зельем, и они становятся преданными воинами злого колдуна. Между тем не по дням, а по часам подрастает девятый сын табунщика - Еркенже. За одну ночь превращается он из младенца в юношу и едет искать отца и братьев. Доброта, смелость и отвага помогут юному Еркенже преодолеть все препятствия, которые воздвигнет на его пути злой колдун.


Возраст: 12+ (зрителям, достигшим 12 лет)

Релиз от: almikl ® &

Продолжительность: 01:05:27
Качество видео: DVDRemux

Видео: MPEG-2, 720x576@768x576, ~8500 Kbps
Аудио: AC3, 2 ch, 192 Kbps

Общее
Уникальный идентификатор : 87529337471152395047609620292456040193 (0x41D989864114843714797655FFF24701)
Полное имя : Бойся, враг, девятого сына.1984.DVDRemux.almikl.nnmclub.mkv
Формат : Matroska
Версия формата : Version 2
Размер файла : 4,14 Гбайт
Продолжительность : 1 ч. 5 м.
Режим общего битрейта : Переменный
Общий поток : 9063 Кбит/сек
Дата кодирования : UTC 2019-08-16 09:34:29
Программа кодирования : MakeMKV v1.14.3 win(x64-release)
Библиотека кодирования : libmakemkv v1.14.3 (1.3.5/1.4.7) win(x64-release)

Видео
Идентификатор : 1
OriginalSourceMedium_ID/String : 224 (0xE0)
Формат : MPEG Video
Версия формата : Version 2
Профиль формата : Main@Main
Настройки формата : BVOP
Параметр BVOP формата : Да
Параметр матрицы формата : По умолчанию
Параметр GOP формата : Variable
Структура изображения : Frame
Идентификатор кодека : V_MPEG2
Идентификатор кодека/Информация : MPEG 1 or 2 Video
Продолжительность : 1 ч. 5 м.
Вид битрейта : Переменный
Битрейт : 8677 Кбит/сек
Ширина : 720 пикселей
Высота : 576 пикселей
Соотношение сторон : 4:3
Режим частоты кадров : Постоянный
Частота кадров : 25,000 кадров/сек
Стандарт вещания : PAL
Цветовое пространство : YUV
Субдискретизация насыщенности : 4:2:0
Битовая глубина : 8 бит
Тип развёртки : Чересстрочная
Порядок развёртки : Верхнее поле первое
Метод сжатия : С потерями
Бит/(Пиксели*Кадры) : 0.837
Временной код первого кадра : 00:00:00:01
Оригинал временного кода : Group of pictures header
GOP, открыто/закрыто : Закрыто
Размер потока : 3,97 Гбайт (96%)
Язык : English
Default : Нет
Forced : Нет
Носитель оригинала : DVD-Video

Аудио #1
Идентификатор : 2
OriginalSourceMedium_ID/String : 189 (0xBD)128 (0x80)
Формат : AC-3
Формат/Информация : Audio Coding 3
Коммерческое название : Dolby Digital
Идентификатор кодека : A_AC3
Продолжительность : 1 ч. 4 м.
Вид битрейта : Постоянный
Битрейт : 192 Кбит/сек
Каналы : 2 канала
ChannelLayout : L R
Частота : 48,0 КГц
Частота кадров : 31,250 кадров/сек (1536 SPF)
Битовая глубина : 16 бит
Метод сжатия : С потерями
Размер потока : 89,1 Мбайт (2%)
Заголовок : Stereo
Язык : Russian
ServiceKind/String : Complete Main
Default : Да
Forced : Нет
Носитель оригинала : DVD-Video

Аудио #2
Идентификатор : 3
OriginalSourceMedium_ID/String : 189 (0xBD)129 (0x81)
Формат : AC-3
Формат/Информация : Audio Coding 3
Коммерческое название : Dolby Digital
Идентификатор кодека : A_AC3
Продолжительность : 1 ч. 4 м.
Вид битрейта : Постоянный
Битрейт : 192 Кбит/сек
Каналы : 2 канала
ChannelLayout : L R
Частота : 48,0 КГц
Частота кадров : 31,250 кадров/сек (1536 SPF)
Битовая глубина : 16 бит
Метод сжатия : С потерями
Размер потока : 89,1 Мбайт (2%)
Заголовок : Stereo
Язык : German
ServiceKind/String : Complete Main
Default : Нет
Forced : Нет
Носитель оригинала : DVD-Video

Меню
00:00:00.080 : en:Chapter 01
00:00:05.280 : en:Chapter 02
00:16:07.480 : en:Chapter 03
00:31:20.680 : en:Chapter 04
00:44:03.720 : en:Chapter 05
01:04:54.440 : en:Chapter 06
Скриншоты:

Все одноименные релизы в Клубе

Время раздачи: 24/7 (до появления первых 3-5 скачавших)
Boysya, vrag, devyatogo syina.1984.DVDRemux.almikl.nnmclub.mkv.torrent
 Торрент: Платиновая раздача  Зарегистрирован
 
Скачать


Примагнититься
 Зарегистрирован:   11 Сен 2019 12:51:31
 Размер:   4,14 GB  (
 Рейтинг:    (Голосов: 5)
 Поблагодарили:   30
 Проверка:   Оформление проверено модератором 11 Сен 2019 12:52:13
Как cкачать  ·  Как раздать  ·  Правильно оформить  ·  Поднять ратио!  
Показать сообщения:   
Начать новую тему   Ответить на тему    Торрент-трекер NNM-Club -> Видео -> Отечественные Фильмы для детей Часовой пояс: GMT + 3
Страница 1 из 1