Классический форум-трекер
canvas not supported
Нас вместе: 4 079 153

Белый клык (1946) DVDRip


 
 
RSS
Начать новую тему   Ответить на тему    Торрент-трекер NNM-Club -> Видео -> Отечественные Фильмы для детей
Автор Сообщение
almikl ®
Куратор Детского.
Модератор Видео.
RG Всё лучшее - детям!
Uploader 500+
 
Стаж: 12 лет 4 мес.
Сообщений: 4758
Ratio: 339,903
Поблагодарили: 107500
100%
Откуда: Дааалекое Подмосковье
russia.gif
Белый клык (1946) DVDRip
Производство: СССР
Жанр: Приключения

Режиссер: Александр Згуриди
Актеры: Олег Жаков, Елена Измайлова, Лев Свердлин, Николай Плотников, Осип Абдулов, Иван Бобров, Эммануил Геллер, В. Латышевский, Петр Репнин...

Описание :
Горный инженер Смит воспитывает собаку, которую он спас во время кровавого собачьего боя. Но его питомец Белый Клык злобен и агрессивен, ведь его воспитывал как пса-убийцу.
Не мало прошло времени, прежде чем человек и собака подружились. Но однажды ночью за Клыком пришел его прежний хозяин, вооруженный револьвером.


Возраст: 0+ (зрителям любого возраста)

Продолжительность: 01:19:18
Качество видео: DVDRip (700 mb)

Видео: XviD, 720x544, ~1100 Kbps
Аудио: MP3, 2 ch, 128 Kbps

Общее
Полное имя : Белый клык.1946.DVDRip.700.almikl.nnmclub.avi
Формат : AVI
Формат/Информация : Audio Video Interleave
Размер файла : 699 Мбайт
Продолжительность : 1 ч. 19 м.
Режим общего битрейта : Переменный
Общий поток : 1232 Кбит/сек
Программа кодирования : VirtualDubMod 1.5.4.1 (build 2178/release)
Библиотека кодирования : VirtualDubMod build 2178/release

Видео
Идентификатор : 0
Формат : MPEG-4 Visual
Профиль формата : Advanced Simple@L5
Настройки формата : BVOP1 / Custom Matrix
Параметр BVOP формата : 1
Параметр QPel формата : Нет
Параметр GMC формата : Без точки перехода
Параметр матрицы формата : Выборочная
Идентификатор кодека : XVID
Идентификатор кодека/Подсказка : XviD
Продолжительность : 1 ч. 19 м.
Битрейт : 1109 Кбит/сек
Ширина : 720 пикселей
Высота : 544 пикселя
Соотношение сторон : 4:3
Частота кадров : 25,000 кадров/сек
Цветовое пространство : YUV
Субдискретизация насыщенности : 4:2:0
Битовая глубина : 8 бит
Тип развёртки : Прогрессивная
Метод сжатия : С потерями
Бит/(Пиксели*Кадры) : 0.113
Размер потока : 629 Мбайт (90%)
Библиотека кодирования : XviD 73

Аудио
Идентификатор : 1
Формат : MPEG Audio
Версия формата : Version 1
Профиль формата : Layer 3
Настройки формата : Joint stereo
Идентификатор кодека : 55
Идентификатор кодека/Подсказка : MP3
Продолжительность : 1 ч. 19 м.
Вид битрейта : Переменный
Битрейт : 110 Кбит/сек
Номинальный битрейт : 128 Кбит/сек
Каналы : 2 канала
Частота : 48,0 КГц
Частота кадров : 41,667 кадра/сек (1152 SPF)
Метод сжатия : С потерями
Размер потока : 62,3 Мбайт (9%)
Выравнивание : Соединение по промежуткам
Продолжительность промежутка : 24 мс. (0,60 видеокадр)
Время предзагрузки промежутка : 555 мс.
Библиотека кодирования : LAME3.98r
Настройки программы : -m j -V 4 -q 2 -lowpass 17 --abr 128
Скриншоты:

Все одноименные релизы в Клубе

Время раздачи: 24/7 (до появления первых 3-5 скачавших)
Belyiy klyik.1946.DVDRip.700.almikl.nnmclub.avi.torrent
 Торрент: Платиновая раздача  Зарегистрирован
 
Скачать


Примагнититься
 Зарегистрирован:   24 Сен 2019 10:50:50
 Размер:   699 MB  (
 Рейтинг:    (Голосов: 2)
 Поблагодарили:   22
 Проверка:   Оформление проверено модератором 24 Сен 2019 10:51:52
Как cкачать  ·  Как раздать  ·  Правильно оформить  ·  Поднять ратио!  
Показать сообщения:   
Начать новую тему   Ответить на тему    Торрент-трекер NNM-Club -> Видео -> Отечественные Фильмы для детей Часовой пояс: GMT + 3
Страница 1 из 1