Классический форум-трекер
canvas not supported
Нас вместе: 4 079 282

Белый клык (1946) DVDRemux


 
 
RSS
Начать новую тему   Ответить на тему    Торрент-трекер NNM-Club -> Видео -> Отечественные Фильмы для детей
Автор Сообщение
almikl ®
Куратор Детского.
Модератор Видео.
RG Всё лучшее - детям!
Uploader 500+
 

Online
Стаж: 12 лет 4 мес.
Сообщений: 4758
Ratio: 340,179
Поблагодарили: 107520
100%
Откуда: Дааалекое Подмосковье
russia.gif
Белый клык (1946) DVDRemux
Производство: СССР
Жанр: Приключения

Режиссер: Александр Згуриди
Актеры: Олег Жаков, Елена Измайлова, Лев Свердлин, Николай Плотников, Осип Абдулов, Иван Бобров, Эммануил Геллер, В. Латышевский, Петр Репнин...

Описание :
Горный инженер Смит воспитывает собаку, которую он спас во время кровавого собачьего боя. Но его питомец Белый Клык злобен и агрессивен, ведь его воспитывал как пса-убийцу.
Не мало прошло времени, прежде чем человек и собака подружились. Но однажды ночью за Клыком пришел его прежний хозяин, вооруженный револьвером.


Возраст: 0+ (зрителям любого возраста)

Продолжительность: 01:19:18
Качество видео: DVDRemux

Видео: MPEG-2, 720x576@768x576, ~6000 Kbps
Аудио: MPEG-1, 2 ch, 224 Kbps

Общее
Уникальный идентификатор : 300267989577605281485390662158747708697 (0xE1E582E112C5AA95C7349CBB026C2D19)
Полное имя : Белый клык.1946.DVDRemux.almikl.nnmclub.mkv
Формат : Matroska
Версия формата : Version 2
Размер файла : 3,51 Гбайт
Продолжительность : 1 ч. 19 м.
Режим общего битрейта : Постоянный
Общий поток : 6329 Кбит/сек
Дата кодирования : UTC 2019-08-09 14:17:19
Программа кодирования : MakeMKV v1.14.3 win(x64-release)
Библиотека кодирования : libmakemkv v1.14.3 (1.3.5/1.4.7) win(x64-release)

Видео
Идентификатор : 1
OriginalSourceMedium_ID/String : 224 (0xE0)
Формат : MPEG Video
Версия формата : Version 2
Профиль формата : Main@Main
Параметр BVOP формата : Нет
Параметр матрицы формата : По умолчанию
Параметр GOP формата : N=2
Структура изображения : Frame
Идентификатор кодека : V_MPEG2
Идентификатор кодека/Информация : MPEG 1 or 2 Video
Продолжительность : 1 ч. 19 м.
Вид битрейта : Постоянный
Битрейт : 6100 Кбит/сек
Ширина : 720 пикселей
Высота : 576 пикселей
Соотношение сторон : 4:3
Режим частоты кадров : Постоянный
Частота кадров : 25,000 кадров/сек
Стандарт вещания : PAL
Цветовое пространство : YUV
Субдискретизация насыщенности : 4:2:0
Битовая глубина : 8 бит
Тип развёртки : Чересстрочная
Порядок развёртки : Нижнее поле первое
Метод сжатия : С потерями
Бит/(Пиксели*Кадры) : 0.588
Временной код первого кадра : 00:00:00:00
Оригинал временного кода : Group of pictures header
GOP, открыто/закрыто : Открыто
Размер потока : 3,38 Гбайт (96%)
Язык : English
Default : Нет
Forced : Нет
Носитель оригинала : DVD-Video

Аудио
Идентификатор : 2
OriginalSourceMedium_ID/String : 192 (0xC0)
Формат : MPEG Audio
Версия формата : Version 1
Профиль формата : Layer 2
Идентификатор кодека : A_MPEG/L2
Идентификатор кодека/Подсказка : MP2
Продолжительность : 1 ч. 19 м.
Вид битрейта : Постоянный
Битрейт : 224 Кбит/сек
Каналы : 2 канала
Частота : 48,0 КГц
Частота кадров : 41,667 кадра/сек (1152 SPF)
Метод сжатия : С потерями
Задержка видео : 32 мс.
Размер потока : 127 Мбайт (4%)
Заголовок : Stereo
Язык : English
Default : Да
Forced : Нет
Носитель оригинала : DVD-Video

Меню
00:00:00.000 : en:Chapter 01
00:15:00.000 : en:Chapter 02
00:30:00.000 : en:Chapter 03
00:45:00.000 : en:Chapter 04
01:00:00.000 : en:Chapter 05
01:15:00.000 : en:Chapter 06
Скриншоты:

Все одноименные релизы в Клубе

Время раздачи: 24/7 (до появления первых 3-5 скачавших)
Belyiy klyik.1946.DVDRemux.almikl.nnmclub.mkv.torrent
 Торрент: Платиновая раздача  Зарегистрирован
 
Скачать


Примагнититься
 Зарегистрирован:   24 Сен 2019 12:36:30
 Размер:   3,51 GB  (
 Рейтинг:    (Голосов: 7)
 Поблагодарили:   48
 Проверка:   Оформление проверено модератором 24 Сен 2019 12:37:34
Как cкачать  ·  Как раздать  ·  Правильно оформить  ·  Поднять ратио!  
Показать сообщения:   
Начать новую тему   Ответить на тему    Торрент-трекер NNM-Club -> Видео -> Отечественные Фильмы для детей Часовой пояс: GMT + 3
Страница 1 из 1