Классический форум-трекер
canvas not supported
Нас вместе: 4 079 342

VA - A State Of Trance Ibiza 2019 (Mixed by Armin van Buuren) (2019) [FLAC|Lossless|CD|image + .cue] <Trance, Progressive Trance>


 
 
RSS
Начать новую тему   Ответить на тему    Торрент-трекер NNM-Club -> Electronic -> Trance (Lossless)
Автор Сообщение
Lazyra ®
RG Music
Модератор музыки Electronic
 
Стаж: 8 лет 7 мес.
Сообщений: 4846
Ratio: 1843,191
Раздал: 64,04 TB
Поблагодарили: 106739
100%
Откуда: Владимир
russia.gif
VA - A State Of Trance Ibiza 2019 (Mixed by Armin van Buuren) (2019)



Год: 2019
Жанр: Trance, Progressive Trance
Продолжительность: 02:25:58
Лейбл: Armada Music B.V.
Каталог №: ARMA462
Тип рипа: image + .cue
Кодек: FLAC
Битрейт: Lossless

Треклист:

Треклист:
01. Armin van Buuren & Avian Grays feat. Jordan Shaw - Something Real
02. Omnia & Whiteout - U
03. Tom Fall - Arcadia
04. Nikhil Prakash x Tomac - Pressure
05. Alex Sonata & TheRio - The Rising
06. Paul Arcane & Max Meyer - Hypnotized
07. Melih Kor - Sunshower
08. Gundamea feat. Andy Ruddy - Sweet Disposition
09. Late Night Alumni - Empty Streets (Lumïsade Balearic Mix)
10. Estiva - Sequence
11. Jam & Spoon - Follow Me (Jerome Isma-Ae Remix)
12. Rodg x Beatsole - Tephra
13. Henry Dark - Sunflower
14. Tanner Wilfong - Combo
15. Alex Sonata & TheRio with Linnea Schössow - Stay
16. Fatum - Outlaw
17. Roman Messer - Magic Fly
18. Luke Bond feat. Tyler Graves - Left Of Us
19. Cosmic Gate - Come With Me
20. KhoMha - Natural
21. Ahmed Helmy - U4YA
22. Tenishia - Moonshar

Продолжительность: 01:13:32
Код: выделить все

Exact Audio Copy V1.3 from 2. September 2016

Отчёт EAC об извлечении, выполненном 23. августа 2019, 16:54

Armin van Buuren / A State Of Trance Ibiza 2019 CD 1

Дисковод: hp      DVD A  DS8A8SH   Adapter: 1  ID: 0

Режим чтения                 : Достоверность
Использование точного потока : Да
Отключение кэша аудио        : Да
Использование указателей C2  : Нет

Коррекция смещения при чтении                     : 6
Способность читать области Lead-in и Lead-out     : Нет
Заполнение пропущенных сэмплов тишиной            : Да
Удаление блоков с тишиной в начале и конце        : Нет
При вычислениях CRC использовались нулевые сэмплы : Да
Интерфейс                                         : Встроенный Win32-интерфейс для Win NT/2000

Выходной формат          : Пользовательский кодировщик
Выбранный битрейт        : 896 kBit/s
Качество                 : Высокий
Добавление ID3-тега      : Нет
Утилита сжатия           : C:\Program Files (x86)\Exact Audio Copy\Flac\flac.exe
Дополнительные параметры : -V -8 -T "Date=%year%" -T "Genre=%genre%" %source%

TOC извлечённого CD

     Трек |   Старт  | Длительность | Начальный сектор | Конечный сектор
    ---------------------------------------------------------------------
       1  |  0:00.00 |    3:38.00   |           0      |      16349
       2  |  3:38.00 |    3:15.55   |       16350      |      31029
       3  |  6:53.55 |    2:42.34   |       31030      |      43213
       4  |  9:36.14 |    3:12.01   |       43214      |      57614
       5  | 12:48.15 |    3:56.21   |       57615      |      75335
       6  | 16:44.36 |    2:57.21   |       75336      |      88631
       7  | 19:41.57 |    1:28.43   |       88632      |      95274
       8  | 21:10.25 |    4:55.30   |       95275      |     117429
       9  | 26:05.55 |    3:59.69   |      117430      |     135423
      10  | 30:05.49 |    3:12.06   |      135424      |     149829
      11  | 33:17.55 |    3:34.05   |      149830      |     165884
      12  | 36:51.60 |    3:26.40   |      165885      |     181374
      13  | 40:18.25 |    3:15.52   |      181375      |     196051
      14  | 43:34.02 |    2:42.31   |      196052      |     208232
      15  | 46:16.33 |    3:55.56   |      208233      |     225913
      16  | 50:12.14 |    3:41.24   |      225914      |     242512
      17  | 53:53.38 |    3:26.73   |      242513      |     258035
      18  | 57:20.36 |    3:43.31   |      258036      |     274791
      19  | 61:03.67 |    2:27.50   |      274792      |     285866
      20  | 63:31.42 |    2:49.65   |      285867      |     298606
      21  | 66:21.32 |    3:12.55   |      298607      |     313061
      22  | 69:34.12 |    3:58.56   |      313062      |     330967

Характеристики диапазона извлечения и сообщения об ошибках

Выбранный диапазон

     Имя файла E:\VA - A State Of Trance Ibiza 2019 [CD] (2019) [ARMA462]\CD 1\Armin van Buuren - A State Of Trance Ibiza 2019 CD 1.wav

     Пиковый уровень 96.7 %
     Скорость извлечения 5.1 X
     Качество диапазона 100.0 %
     CRC теста A04A0228
     CRC копии A04A0228
     Копирование... OK

Ошибок не произошло

AccurateRip: сводка

Трек  1  отсутствует в базе данных
Трек  2  отсутствует в базе данных
Трек  3  отсутствует в базе данных
Трек  4  отсутствует в базе данных
Трек  5  отсутствует в базе данных
Трек  6  отсутствует в базе данных
Трек  7  отсутствует в базе данных
Трек  8  отсутствует в базе данных
Трек  9  отсутствует в базе данных
Трек 10  отсутствует в базе данных
Трек 11  отсутствует в базе данных
Трек 12  отсутствует в базе данных
Трек 13  отсутствует в базе данных
Трек 14  отсутствует в базе данных
Трек 15  отсутствует в базе данных
Трек 16  отсутствует в базе данных
Трек 17  отсутствует в базе данных
Трек 18  отсутствует в базе данных
Трек 19  отсутствует в базе данных
Трек 20  отсутствует в базе данных
Трек 21  отсутствует в базе данных
Трек 22  отсутствует в базе данных

Ни одного трека нет в базе AccurateRip

Конец отчёта

==== Контрольная сумма отчёта FCAC21359E00878133BE7BA76DC33F37347507F4E68C065D588A6EE63D174D3B ====


Трек лист:
01. Armin van Buuren & Luke Bond feat. KARRA - Revolution
02. Purple Haze x KhoMha - We Come In Peace
03. Armin van Buuren presents Rising Star feat. Alexandra Badoi - Cosmos
04. DRYM x Davey Asprey - Sirens
05. Allen Watts & Christina Novelli - My Gravity
06. Key Lean - Jarre
07. Allen Watts & Steve Dekay - Hologram
08. Markus Schulz feat. HALIENE - Ave Maria (In Bloom Mix)
09. Atlantis - Fiji (ReOrder Remix)
10. Sean Mathews - Cote d'Azur
11. Armin van Buuren - Communication (Arkham Knights Remix)
12. Eximinds - Cascarda
13. Armin van Buuren & Garibay - Phone Down (Jorn van Deynhoven Remix)
14. KhoMha X David Gravell - Alpha Centauri
15. Super8 & Tab - Iron
16. RAM & Stine Grove - Saving Angel
17. Chris Schweizer - Near The End
18. Rub!k - Push Back
19. Steve Dekay & FG Noise - Abstrakt
20. David Forbes - Monsoon
21. Artento Divini vs Davey Asprey - A.D.D.A.
22. Armin van Buuren - Stickup

Продолжительность: 01:12:26
Код: выделить все

Exact Audio Copy V1.3 from 2. September 2016

Отчёт EAC об извлечении, выполненном 23. августа 2019, 17:30

Armin van Buuren / A State Of Trance Ibiza 2019 CD 2

Дисковод: hp      DVD A  DS8A8SH   Adapter: 1  ID: 0

Режим чтения                 : Достоверность
Использование точного потока : Да
Отключение кэша аудио        : Да
Использование указателей C2  : Нет

Коррекция смещения при чтении                     : 6
Способность читать области Lead-in и Lead-out     : Нет
Заполнение пропущенных сэмплов тишиной            : Да
Удаление блоков с тишиной в начале и конце        : Нет
При вычислениях CRC использовались нулевые сэмплы : Да
Интерфейс                                         : Встроенный Win32-интерфейс для Win NT/2000

Выходной формат          : Пользовательский кодировщик
Выбранный битрейт        : 896 kBit/s
Качество                 : Высокий
Добавление ID3-тега      : Нет
Утилита сжатия           : C:\Program Files (x86)\Exact Audio Copy\Flac\flac.exe
Дополнительные параметры : -V -8 -T "Date=%year%" -T "Genre=%genre%" %source%

TOC извлечённого CD

     Трек |   Старт  | Длительность | Начальный сектор | Конечный сектор
    ---------------------------------------------------------------------
       1  |  0:00.00 |    4:33.23   |           0      |      20497
       2  |  4:33.23 |    2:47.18   |       20498      |      33040
       3  |  7:20.41 |    4:32.20   |       33041      |      53460
       4  | 11:52.61 |    2:51.70   |       53461      |      66355
       5  | 14:44.56 |    2:50.52   |       66356      |      79157
       6  | 17:35.33 |    3:36.67   |       79158      |      95424
       7  | 21:12.25 |    2:50.51   |       95425      |     108225
       8  | 24:03.01 |    4:28.33   |      108226      |     128358
       9  | 28:31.34 |    2:22.18   |      128359      |     139026
      10  | 30:53.52 |    2:50.48   |      139027      |     151824
      11  | 33:44.25 |    3:01.25   |      151825      |     165424
      12  | 36:45.50 |    2:08.01   |      165425      |     175025
      13  | 38:53.51 |    2:54.16   |      175026      |     188091
      14  | 41:47.67 |    3:03.41   |      188092      |     201857
      15  | 44:51.33 |    2:35.22   |      201858      |     213504
      16  | 47:26.55 |    3:59.74   |      213505      |     231503
      17  | 51:26.54 |    3:17.49   |      231504      |     246327
      18  | 54:44.28 |    2:28.18   |      246328      |     257445
      19  | 57:12.46 |    2:49.30   |      257446      |     270150
      20  | 60:02.01 |    3:10.44   |      270151      |     284444
      21  | 63:12.45 |    3:12.27   |      284445      |     298871
      22  | 66:24.72 |    6:01.59   |      298872      |     326005

Характеристики диапазона извлечения и сообщения об ошибках

Выбранный диапазон

     Имя файла E:\VA - A State Of Trance Ibiza 2019 [CD] (2019) [ARMA462]\CD 2\Armin van Buuren - A State Of Trance Ibiza 2019 CD 2.wav

     Пиковый уровень 96.7 %
     Скорость извлечения 4.9 X
     Качество диапазона 100.0 %
     CRC теста 80B76243
     CRC копии 80B76243
     Копирование... OK

Ошибок не произошло

AccurateRip: сводка

Трек  1  отсутствует в базе данных
Трек  2  отсутствует в базе данных
Трек  3  отсутствует в базе данных
Трек  4  отсутствует в базе данных
Трек  5  отсутствует в базе данных
Трек  6  отсутствует в базе данных
Трек  7  отсутствует в базе данных
Трек  8  отсутствует в базе данных
Трек  9  отсутствует в базе данных
Трек 10  отсутствует в базе данных
Трек 11  отсутствует в базе данных
Трек 12  отсутствует в базе данных
Трек 13  отсутствует в базе данных
Трек 14  отсутствует в базе данных
Трек 15  отсутствует в базе данных
Трек 16  отсутствует в базе данных
Трек 17  отсутствует в базе данных
Трек 18  отсутствует в базе данных
Трек 19  отсутствует в базе данных
Трек 20  отсутствует в базе данных
Трек 21  отсутствует в базе данных
Трек 22  отсутствует в базе данных

Ни одного трека нет в базе AccurateRip

Конец отчёта

==== Контрольная сумма отчёта 9BAF207E19C5ADB7425D943345477A5EC3276722BE87A1996CD13474AE3F22E1 ====

Время раздачи: 24/7
[NNMClub.to]_VA - A State Of Trance Ibiza (Mixed by Armin van Buuren) (2019) [FLAC-CD].torrent
 Торрент:   Зарегистрирован
 
Зарегистрируйтесь и скачайте торрент!
11,3 KB

Примагнититься
 Зарегистрирован:   26 Сен 2019 12:12:32
 Размер:   1,05 GB  (
 Рейтинг:    (Голосов: 9)
 Поблагодарили:   60
 Проверка:   Оформление проверено модератором 26 Сен 2019 16:12:29
Как cкачать  ·  Как раздать  ·  Правильно оформить  ·  Поднять ратио!  
Показать сообщения:   
Начать новую тему   Ответить на тему    Торрент-трекер NNM-Club -> Electronic -> Trance (Lossless) Часовой пояс: GMT + 3
Страница 1 из 1