Классический форум-трекер
canvas not supported
Нас вместе: 4 079 077

Во время грозы / Durante la tormenta (2018) WEB-DLRip [1080p] ATV (MVO) [PR]


 
 
RSS
Начать новую тему   Ответить на тему    Торрент-трекер NNM-Club -> Аудио и Видео -> Зарубежное видео HD для устройств Apple
Автор Сообщение
Весельчак У ®
Модератор Apple
Стаж: 5 лет 10 мес.
Сообщений: 3369
Ratio: 147,723
Поблагодарили: 110937
100%
Откуда: От Москвы недалеко...
ussr.gif
Во время грозы / Durante la tormenta (2018) WEB-DLRip [1080p] ATV«For whom you would stop the time»
Производство: Испания / Atresmedia Cine, Colosé Producciones, Mirage Studio
Жанр: Триллер, Драма, Фэнтези, Детектив

Режиссер: Ориол Паоло
Продюсер: Мерседес Гамеро, Микель Лехарса, Энеко Лисаррага
Актеры: Адриана Угарте, Чино Дарин, Хавьер Гутьеррес, Альваро Морте, Нора Навас, Микель Фернандес, Клара Сегура, Мима Риера, Айна Клотет, Альберт Перес

Описание:
Счастливая женщина Вера с мужем и маленькой дочкой переезжает в новый дом. А там во время сильной грозы происходит смещение временных пластов, в результате чего женщина пытается спасти от гибели мальчика, жившего тут 25 лет назад. Но этот акт доброй воли приводит к тому, что Вера оказывается в изменённом настоящем, в котором супруг её не знает, и её собственная дочь не родилась.


Дата мировой премьеры: 13 ноября 2018

Релиз от: OlLanDGroup

Продолжительность: 02:09:14
Качество видео: WEBDLRip 1080р (NETFLIX Version )
Перевод: Профессиональный многоголосый, любительский многоголосый
Субтитры: Русские, испанские, английские (Full)

Видео: H.264, 1920x800 (2.40:1), ~4499 kbps, 24.000 fps
Аудио#1: AAC, 2.0 ch, 162 Kbps - Русский MVO, HDRezka Studio
Аудио#2: AAC, 2.0 ch, 164 Kbps - Русский MVO, Alpha Project
Аудио#3: AAC, 2.0 ch, 164 Kbps - Spanish, Original
Аудио#4: AAC, 2.0 ch, 164 Kbps - English
Аудио#5: AC3, 6.0 ch, 384 Kbps - Spanish, Original
Аудио#6: AC3, 6.0 ch, 384 Kbps - English

Общее
Полное имя : /Volumes/HDD/Movies/NNMC/Durante.La.Tormenta.2018.WEBDLRip.1080p.m4v
Формат : MPEG-4
Идентификатор кодека : M4V (M4V /M4A /mp42/isom)
Размер файла : 5,36 Гбайт
Продолжительность : 2 ч. 9 м.
Режим общего битрейта : Переменный
Общий поток : 5933 Кбит/сек
Название фильма : Во время грозы
Исполнитель : Oriol Paulo
Композитор : Fernando Velázquez
Режиссёр : Oriol Paulo
Исполнитель : Adriana Ugarte / Chino Darín / Javier Gutiérrez / Álvaro Morte / Nora Navas / Miquel Fernández / Clara Segura / Mima Riera / Aina Clotet / Albert Pérez / Julio Bohigas / Luna Fulgencio / Marco de Francisco / Francesc Orella / Ana Wagener / Silvia Alonso / Belén Rueda / Ruth Llopis / Joel Illescas / Vicente Ayala / Sigrid Cañas
Сценарист : Lara Sendim / Oriol Paulo
Продюсер : Mercedes Gamero / Mikel Lejarza / Eneko Lizarraga / Jesús Ulled Nadal / Jaime Romero
Исполнительный продюсер : Sandra Hermida, Laura Rubirola, Rosa Pérez
Студия-производитель : Atresmedia Cine, Colosé Producciones, Think Studio, Marrowbone SLU
Жанр : фантастика, триллер, драма, мелодрама
Тип содержимого : Short Film
Описание : Счастливая женщина Вера с мужем и маленькой дочкой переезжает в новый дом. А там происходит смещение временных пластов, в результате чего женщина пытается спасти от гибели мальчика, жившего тут 25 лет назад. Но этот акт доброй воли приводит к тому, что…
Дата записи : UTC 2018-11-30 00:00:00
Дата кодирования : UTC 2019-09-30 05:07:39
Дата пометки : UTC 2019-09-30 05:11:59
Обложка : Yes
LongDescription : Счастливая женщина Вера с мужем и маленькой дочкой переезжает в новый дом. А там происходит смещение временных пластов, в результате чего женщина пытается спасти от гибели мальчика, жившего тут 25 лет назад. Но этот акт доброй воли приводит к тому, что Вера оказывается в изменённом настоящем, в котором супруг её не знает, и её собственная дочь не родилась. Теперь женщина ищет тот самый ключевой момент прошлого, который так сильно повлиял на её настоящее, и выясняет пугающие подробности о своей исчезнувшей жизни.
ContentRating : mpaa|Unrated|???|

Видео
Идентификатор : 1
Формат : AVC
Формат/Информация : Advanced Video Codec
Профиль формата : High@L4.1
Настройки формата : CABAC / 4 Ref Frames
Параметр CABAC формата : Да
Параметр ReFrames формата : 4 кадра
Идентификатор кодека : avc1
Идентификатор кодека/Информация : Advanced Video Coding
Продолжительность : 2 ч. 9 м.
Битрейт : 4499 Кбит/сек
Ширина : 1920 пикселей
Высота : 800 пикселей
Соотношение сторон : 2,40:1
Режим частоты кадров : Переменный
Частота кадров : 24,000 кадра/сек
Минимальная частота кадров : 23,810 кадра/сек
Максимальная частота кадров : 24,390 кадра/сек
Цветовое пространство : YUV
Субдискретизация насыщенности : 4:2:0
Битовая глубина : 8 бит
Тип развёртки : Прогрессивная
Бит/(Пиксели*Кадры) : 0.122
Размер потока : 4,06 Гбайт (76%)
Библиотека кодирования : x264 core 120 r2164 da19765
Настройки программы : cabac=1 / ref=3 / deblock=1:-3:-3 / analyse=0x3:0x133 / me=hex / subme=7 / psy=1 / psy_rd=1.01:0.00 / mixed_ref=1 / me_range=16 / chroma_me=1 / trellis=1 / 8x8dct=1 / cqm=0 / deadzone=21,11 / fast_pskip=0 / chroma_qp_offset=-2 / threads=6 / sliced_threads=0 / nr=0 / decimate=1 / interlaced=0 / bluray_compat=0 / constrained_intra=0 / bframes=3 / b_pyramid=2 / b_adapt=2 / b_bias=0 / direct=3 / weightb=1 / open_gop=0 / weightp=2 / keyint=240 / keyint_min=24 / scenecut=40 / intra_refresh=0 / rc_lookahead=50 / rc=2pass / mbtree=1 / bitrate=4499 / ratetol=1.0 / qcomp=0.60 / qpmin=0 / qpmax=69 / qpstep=4 / cplxblur=20.0 / qblur=0.5 / ip_ratio=1.40 / aq=1:0.70
Язык : Spanish
Дата кодирования : UTC 2019-09-30 05:07:39
Дата пометки : UTC 2019-09-30 05:11:57
Codec configuration box : avcC

Аудио #1
Идентификатор : 2
Формат : AAC LC
Формат/Информация : Advanced Audio Codec Low Complexity
Идентификатор кодека : mp4a-40-2
Продолжительность : 2 ч. 8 м.
Вид битрейта : Переменный
Битрейт : 162 Кбит/сек
Максимальный битрейт : 235 Кбит/сек
Каналы : 2 канала
Channel layout : L R
Частота : 48,0 КГц
Частота кадров : 46,875 кадров/сек (1024 SPF)
Метод сжатия : С потерями
Размер потока : 149 Мбайт (3%)
Язык : Russian
Default : Да
Alternate group : 1
Дата кодирования : UTC 2019-09-30 05:07:39
Дата пометки : UTC 2019-09-30 05:11:57
tagc : public.main-program-content

Аудио #2
Идентификатор : 3
Формат : AAC LC
Формат/Информация : Advanced Audio Codec Low Complexity
Идентификатор кодека : mp4a-40-2
Продолжительность : 2 ч. 9 м.
Вид битрейта : Переменный
Битрейт : 164 Кбит/сек
Максимальный битрейт : 255 Кбит/сек
Каналы : 2 канала
Channel layout : L R
Частота : 48,0 КГц
Частота кадров : 46,875 кадров/сек (1024 SPF)
Метод сжатия : С потерями
Размер потока : 152 Мбайт (3%)
Язык : Russian
Default : Нет
Alternate group : 1
Дата кодирования : UTC 2019-09-30 05:07:39
Дата пометки : UTC 2019-09-30 05:11:57
tagc : public.auxiliary-content

Аудио #3
Идентификатор : 4
Формат : AAC LC
Формат/Информация : Advanced Audio Codec Low Complexity
Идентификатор кодека : mp4a-40-2
Продолжительность : 2 ч. 9 м.
Вид битрейта : Переменный
Битрейт : 164 Кбит/сек
Максимальный битрейт : 256 Кбит/сек
Каналы : 2 канала
Channel layout : L R
Частота : 48,0 КГц
Частота кадров : 46,875 кадров/сек (1024 SPF)
Метод сжатия : С потерями
Размер потока : 151 Мбайт (3%)
Язык : Spanish
Default : Нет
Alternate group : 1
Дата кодирования : UTC 2019-09-30 05:07:39
Дата пометки : UTC 2019-09-30 05:11:57
Fallback From : 6
tagc : public.main-program-content

Аудио #4
Идентификатор : 5
Формат : AAC LC
Формат/Информация : Advanced Audio Codec Low Complexity
Идентификатор кодека : mp4a-40-2
Продолжительность : 2 ч. 9 м.
Вид битрейта : Переменный
Битрейт : 164 Кбит/сек
Максимальный битрейт : 253 Кбит/сек
Каналы : 2 канала
Channel layout : L R
Частота : 48,0 КГц
Частота кадров : 46,875 кадров/сек (1024 SPF)
Метод сжатия : С потерями
Размер потока : 151 Мбайт (3%)
Язык : English
Default : Нет
Alternate group : 1
Дата кодирования : UTC 2019-09-30 05:07:39
Дата пометки : UTC 2019-09-30 05:11:57
Fallback From : 7
tagc : public.main-program-content

Аудио #5
Идентификатор : 6
Формат : AC-3
Формат/Информация : Audio Coding 3
Коммерческое название : Dolby Digital
Идентификатор кодека : ac-3
Продолжительность : 2 ч. 9 м.
Вид битрейта : Постоянный
Битрейт : 384 Кбит/сек
Каналы : 6 каналов
Channel layout : L R C LFE Ls Rs
Частота : 48,0 КГц
Частота кадров : 31,250 кадров/сек (1536 SPF)
Битовая глубина : 16 бит
Метод сжатия : С потерями
Размер потока : 355 Мбайт (6%)
Язык : Spanish
Service kind : Complete Main
Default : Нет
Alternate group : 1
Дата кодирования : UTC 2019-09-30 05:07:39
Дата пометки : UTC 2019-09-30 05:11:57
Fallback To : 4
tagc : public.main-program-content

Аудио #6
Идентификатор : 7
Формат : AC-3
Формат/Информация : Audio Coding 3
Коммерческое название : Dolby Digital
Идентификатор кодека : ac-3
Продолжительность : 2 ч. 9 м.
Вид битрейта : Постоянный
Битрейт : 384 Кбит/сек
Каналы : 6 каналов
Channel layout : L R C LFE Ls Rs
Частота : 48,0 КГц
Частота кадров : 31,250 кадров/сек (1536 SPF)
Битовая глубина : 16 бит
Метод сжатия : С потерями
Размер потока : 355 Мбайт (6%)
Язык : English
Service kind : Complete Main
Default : Нет
Alternate group : 1
Дата кодирования : UTC 2019-09-30 05:07:39
Дата пометки : UTC 2019-09-30 05:11:57
Fallback To : 5
tagc : public.main-program-content

Текст #1
Идентификатор : 8
Формат : Timed Text
Режим смешивания : sbtl
Идентификатор кодека : tx3g
Продолжительность : 2 ч. 8 м.
Вид битрейта : Переменный
Битрейт : 89 бит/сек
Размер потока : 83,4 Кбайт (0%)
Язык : Russian
Default : Да
Forced : Нет
Alternate group : 2
Дата кодирования : UTC 2019-09-30 05:07:39
Дата пометки : UTC 2019-09-30 05:11:57
tagc : public.main-program-content

Текст #2
Идентификатор : 9
Формат : Timed Text
Режим смешивания : sbtl
Идентификатор кодека : tx3g
Продолжительность : 2 ч. 1 м.
Вид битрейта : Переменный
Битрейт : 65 бит/сек
Размер потока : 58,4 Кбайт (0%)
Язык : Spanish
Default : Нет
Forced : Нет
Alternate group : 2
Дата кодирования : UTC 2019-09-30 05:07:39
Дата пометки : UTC 2019-09-30 05:11:57
tagc : public.main-program-content

Текст #3
Идентификатор : 10
Формат : Timed Text
Режим смешивания : sbtl
Идентификатор кодека : tx3g
Продолжительность : 2 ч. 1 м.
Вид битрейта : Переменный
Битрейт : 57 бит/сек
Размер потока : 50,7 Кбайт (0%)
Язык : English
Default : Нет
Forced : Нет
Alternate group : 2
Дата кодирования : UTC 2019-09-30 05:07:39
Дата пометки : UTC 2019-09-30 05:11:57
tagc : public.main-program-content


Name: Во время грозы
Artist: Oriol Paulo
Media Kind: Movie
HD Video: 1080p
Genre: фантастика, триллер, драма, мелодрама
Release Date: 2018-11-30T00:00:00Z
Description: Счастливая женщина Вера с мужем и маленькой дочкой переезжает в новый дом. А там происходит смещение временных пластов, в результате чего женщина пытается спасти от гибели мальчика, жившего тут 25 лет назад. Но этот акт доброй воли приводит к тому, что…
Long Description: Счастливая женщина Вера с мужем и маленькой дочкой переезжает в новый дом. А там происходит смещение временных пластов, в результате чего женщина пытается спасти от гибели мальчика, жившего тут 25 лет назад. Но этот акт доброй воли приводит к тому, что Вера оказывается в изменённом настоящем, в котором супруг её не знает, и её собственная дочь не родилась. Теперь женщина ищет тот самый ключевой момент прошлого, который так сильно повлиял на её настоящее, и выясняет пугающие подробности о своей исчезнувшей жизни.
Rating: mpaa|Unrated|???|
Studio: Atresmedia Cine, Colosé Producciones, Think Studio, Marrowbone SLU
Cast: Adriana Ugarte, Chino Darín, Javier Gutiérrez, Álvaro Morte, Nora Navas, Miquel Fernández, Clara Segura, Mima Riera, Aina Clotet, Albert Pérez, Julio Bohigas, Luna Fulgencio, Marco de Francisco, Francesc Orella, Ana Wagener, Silvia Alonso, Belén Rueda, Ruth Llopis, Joel Illescas, Vicente Ayala, Sigrid Cañas
Director: Oriol Paulo
Producers: Mercedes Gamero, Mikel Lejarza, Eneko Lizarraga, Jesús Ulled Nadal, Jaime Romero
Executive Producer: Sandra Hermida, Laura Rubirola, Rosa Pérez
Screenwriters: Lara Sendim, Oriol Paulo
Composer: Fernando Velázquez

Скриншоты:


Все одноименные релизы в Клубе
Время раздачи: 24/7 (до появления первых 3-5 скачавших)

Релиз подготовлен для просмотра на Apple TV, iPad, iPhone, iPod Touch.
Для просмотра данного релиза на компьютере с ОС Windows рекомендуется использовать VLC media player
[NNMClub.to]_Durante.La.Tormenta.2018.WEBDLRip.1080p.m4v.torrent
 Торрент:   Зарегистрирован
 
Зарегистрируйтесь и скачайте торрент!
53,8 KB

Примагнититься
 Зарегистрирован:   30 Сен 2019 08:17:42
 Размер:   5,36 GB  (
 Рейтинг:   4,8 (Голосов: 15)
 Поблагодарили:   59
 Проверка:   Оформление проверено модератором 30 Сен 2019 13:36:46
Как cкачать  ·  Как раздать  ·  Правильно оформить  ·  Поднять ратио!  

_________________
«Всё против нас, только ветер навстречу…».
🍏Apple iMac 21.5 (mid 2011) / Intel Core i5 2.7 GHz / AMD Radeon HD 6770M 512 Mb / 12GB DDR3 / Apple Trackpad, Apple Keyboard / macOS High Sierra 10.13.6 (17G8030)
denver7979
Зам. Куратора Детского.
Модератор Видео.
RG Всё лучшее - детям!
 
Стаж: 8 лет 10 мес.
Сообщений: 7662
Ratio: 501,564
Раздал: 34,56 TB
Поблагодарили: 312113
100%
Откуда: Земля
ussr.gif
Весельчак У
Цитата:
Обязательные параметры кодирования видео
cabac = включен (1); ref = min 2; max 5; рекомендуемое 4; me=umh; subme=min 9; me_range= 16; рекомендуемое 32; 8x8dct = включен (1); rc = 2pass или crf


Технические требования к раздаваемому видеоматериалу. Форум Видео категории 4Apple

Одобрен, как временный. Прошу быть внимательнее к требованиям.

_________________
§ Основной FAQ & Все ПравилаНабор в RG NNM-Club Всё для детей, пап и мам
* Все вопросы в ☛ ЛС по вашим релизам ☣
обязательно со ссылками на темы, о которых идёт речь ☺
Показать сообщения:   
Начать новую тему   Ответить на тему    Торрент-трекер NNM-Club -> Аудио и Видео -> Зарубежное видео HD для устройств Apple Часовой пояс: GMT + 3
Страница 1 из 1