Классический форум-трекер
canvas not supported
Нас вместе: 4 101 299

Огонь Кристиана Лубутена 3D / FEU: Crazy Horse Paris (2012) BDRip [576p] iPad


 
 
RSS
Начать новую тему   Ответить на тему    Торрент-трекер NNM-Club -> Аудио и Видео -> Зарубежное видео для устройств Apple
Автор Сообщение
Весельчак У ®
Модератор Apple
Стаж: 6 лет 3 мес.
Сообщений: 5259
Ratio: 147,762
Поблагодарили: 171118
93.94%
Откуда: От Москвы недалеко...
ussr.gif
Огонь Кристиана Лубутена 3D / FEU: Crazy Horse Paris (2012) BDRip [576p] iPad
Производство: Франция / KaBo
Жанр: Документальный, мьюзикл

Режиссер: Бруно Халлин
Продюсер: Кристиан Бомар, Ален Каппоф

Описание:
Знаменитый создатель туфель с красной подошвой ставит шоу в известном парижском клубе «CRAZY HORSE PARIS». По словам самого Лубутена, танцеальные номера в парижском кабаре «это памятник, памятник танцу, фантастическая идея праздника для женщин от женщин».


Возраст: 18+ (зрителям, достигшим 18 лет. запрещено для детей)

Продолжительность: 01:20:24
Качество видео: BDRip 576p
Перевод: Профессиональный многоголосый (CP Дистрибуция)
Субтитры: Отсутствуют

Видео: H.264, 1024x552 (1,85:1), ~2143 kbps, 23.976 fps
Аудио#1: AAC, 2.0 ch, 330 Kbps - Русский MVO, «CP Дистрибуция»
Аудио#2: AC3, 6.0 ch, 448 Kbps - Русский MVO, «CP Дистрибуция»

Общее
Полное имя : /Volumes/HDD/Movies/NNMC/FEU.Crazy.Horse.Paris.2012.BDRip.SD.m4v
Формат : MPEG-4
Идентификатор кодека : M4V (M4V /M4A /mp42/isom)
Размер файла : 1,64 Гбайт
Продолжительность : 1 ч. 20 м.
Режим общего битрейта : Переменный
Общий поток : 2927 Кбит/сек
Название фильма : Огонь Кристиана Лубутена
Исполнитель : Christian Louboutin
Режиссёр : Christian Louboutin
Исполнитель : Lumina Classika / Nooka Karamel / Baby Light / Christian Louboutin / Liv Menot / Diva Novita / Fiamma Rosa / Yasna Snigoura / Psikko Tico / Loa Vahina / Zula Zazou
Продюсер : Christian Baumard / Alain Kappauf
Студия-производитель : KaBo
Жанр : документальный, музыка
Тип содержимого : Short Film
Дата записи : UTC 2012-12-30 12:00:00
Дата кодирования : UTC 2019-11-29 11:10:48
Дата пометки : UTC 2019-11-29 11:12:38
Обложка : Yes
LongDescription : Знаменитый создатель туфель с красной подошвой ставит шоу в известном парижском клубе «CRAZY HORSE PARIS». По словам самого Лубутена, танцеальные номера в парижском кабаре «это памятник, памятник танцу, фантастическая идея праздника для женщин от женщин».

Видео
Идентификатор : 1
Формат : AVC
Формат/Информация : Advanced Video Codec
Профиль формата : High@L4.1
Настройки формата : CABAC / 11 Ref Frames
Параметр CABAC формата : Да
Параметр ReFrames формата : 11 кадров
Идентификатор кодека : avc1
Идентификатор кодека/Информация : Advanced Video Coding
Продолжительность : 1 ч. 20 м.
Битрейт : 2143 Кбит/сек
Ширина : 1024 пикселя
Высота : 552 пикселя
Соотношение сторон : 1,85:1
Режим частоты кадров : Переменный
Частота кадров : 23,976 кадра/сек
Минимальная частота кадров : 23,810 кадра/сек
Максимальная частота кадров : 24,390 кадра/сек
Цветовое пространство : YUV
Субдискретизация насыщенности : 4:2:0
Битовая глубина : 8 бит
Тип развёртки : Прогрессивная
Бит/(Пиксели*Кадры) : 0.158
Размер потока : 1,20 Гбайт (73%)
Библиотека кодирования : x264 core 130 r2273 b3065e6
Настройки программы : cabac=1 / ref=11 / deblock=1:-2:-1 / analyse=0x3:0x113 / me=umh / subme=9 / psy=1 / psy_rd=1.00:0.10 / mixed_ref=1 / me_range=32 / chroma_me=1 / trellis=2 / 8x8dct=1 / cqm=0 / deadzone=21,11 / fast_pskip=1 / chroma_qp_offset=-3 / threads=9 / lookahead_threads=2 / sliced_threads=0 / nr=0 / decimate=1 / interlaced=0 / bluray_compat=0 / constrained_intra=0 / bframes=10 / b_pyramid=2 / b_adapt=2 / b_bias=0 / direct=3 / weightb=1 / open_gop=0 / weightp=2 / keyint=240 / keyint_min=23 / scenecut=40 / intra_refresh=0 / rc_lookahead=80 / rc=2pass / mbtree=1 / bitrate=2143 / ratetol=1.0 / qcomp=0.60 / qpmin=0 / qpmax=69 / qpstep=4 / cplxblur=20.0 / qblur=0.5 / ip_ratio=1.40 / aq=2:0.90
Язык : French
Дата кодирования : UTC 2019-11-29 11:10:48
Дата пометки : UTC 2019-11-29 11:12:37
Codec configuration box : avcC

Аудио #1
Идентификатор : 2
Формат : AAC LC
Формат/Информация : Advanced Audio Codec Low Complexity
Идентификатор кодека : mp4a-40-2
Продолжительность : 1 ч. 20 м.
Вид битрейта : Переменный
Битрейт : 330 Кбит/сек
Максимальный битрейт : 502 Кбит/сек
Каналы : 2 канала
Channel layout : L R
Частота : 48,0 КГц
Частота кадров : 46,875 кадров/сек (1024 SPF)
Метод сжатия : С потерями
Размер потока : 190 Мбайт (11%)
Язык : Russian
Default : Да
Alternate group : 1
Дата кодирования : UTC 2019-11-29 11:10:48
Дата пометки : UTC 2019-11-29 11:12:37
Fallback From : 3
tagc : public.main-program-content

Аудио #2
Идентификатор : 3
Формат : AC-3
Формат/Информация : Audio Coding 3
Коммерческое название : Dolby Digital
Идентификатор кодека : ac-3
Продолжительность : 1 ч. 20 м.
Вид битрейта : Постоянный
Битрейт : 448 Кбит/сек
Каналы : 6 каналов
Channel layout : L R C LFE Ls Rs
Частота : 48,0 КГц
Частота кадров : 31,250 кадров/сек (1536 SPF)
Метод сжатия : С потерями
Размер потока : 258 Мбайт (15%)
Язык : Russian
Service kind : Complete Main
Default : Inherited From: 2
Alternate group : 1
Дата кодирования : UTC 2019-11-29 11:10:48
Дата пометки : UTC 2019-11-29 11:12:37
Fallback To : 2
tagc : public.main-program-content


Name: Огонь Кристиана Лубутена
Artist: Christian Louboutin
Media Kind: Movie
Genre: документальный, музыка
Release Date: 2012-12-30T12:00:00Z
Long Description: Знаменитый создатель туфель с красной подошвой ставит шоу в известном парижском клубе «CRAZY HORSE PARIS». По словам самого Лубутена, танцеальные номера в парижском кабаре «это памятник, памятник танцу, фантастическая идея праздника для женщин от женщин».
Studio: KaBo
Cast: Lumina Classika, Nooka Karamel, Baby Light, Christian Louboutin, Liv Menot, Diva Novita, Fiamma Rosa, Yasna Snigoura, Psikko Tico, Loa Vahina, Zula Zazou
Director: Christian Louboutin
Producers: Christian Baumard, Alain Kappauf

Скриншоты:


Все одноименные релизы в Клубе
Время раздачи: 24/7 (до появления первых 3-5 скачавших)

Релиз подготовлен для просмотра на Apple TV, iPad, iPhone, iPod Touch.
Для просмотра данного релиза на компьютере с ОС Windows рекомендуется использовать VLC media player
[NNMClub.to]_FEU.Crazy.Horse.Paris.2012.BDRip.SD.m4v.torrent
 Торрент: Платиновая раздача  Зарегистрирован
 
Скачать


Примагнититься
 Зарегистрирован:   29 Ноя 2019 14:31:11
 Размер:   1,64 GB  (
 Рейтинг:   4,3 (Голосов: 16)
 Поблагодарили:   100
 Проверка:   Оформление проверено модератором 29 Ноя 2019 15:36:45
Как cкачать  ·  Как раздать  ·  Правильно оформить  ·  Поднять ратио!  

_________________
«Всё против нас, только ветер навстречу…».
🍏Apple iMac 21.5 (mid 2011) / Intel Core i5 2.7 GHz / AMD Radeon HD 6770M 512 Mb / 12GB DDR3 / Apple Trackpad, Apple Keyboard / macOS High Sierra 10.13.6 (17G12034)
Весельчак У ®
Модератор Apple
Стаж: 6 лет 3 мес.
Сообщений: 5259
Ratio: 147,762
Поблагодарили: 171118
93.94%
Откуда: От Москвы недалеко...
ussr.gif
Благодарю starklad за предоставленный материал

_________________
«Всё против нас, только ветер навстречу…».
🍏Apple iMac 21.5 (mid 2011) / Intel Core i5 2.7 GHz / AMD Radeon HD 6770M 512 Mb / 12GB DDR3 / Apple Trackpad, Apple Keyboard / macOS High Sierra 10.13.6 (17G12034)
McGordon
Стаж: 9 лет 4 мес.
Сообщений: 206
Ratio: 31,033
100%
Откуда: Санкт-Петербург
russia.gif
:D Срамота!
:D :D

_________________
"Всё есть во всём, и наоборот!"
Козьма Прутков.
DartSandy
Предупреждений: 1
Предупреждений: 1 
Стаж: 5 лет 6 мес.
Сообщений: 2397
Ratio: 851,345
100%
ussr.gif
Весельчак У писал(а): Перейти к сообщению
праздника для женщин от женщин
Судя по антуражу - исключительно для мужчин.
banzaisugoi
Стаж: 8 лет 7 мес.
Сообщений: 5
Ratio: 1,289
2.6%
pirates.png
DartSandy писал(а): Перейти к сообщению
Весельчак У писал(а): Перейти к сообщению
праздника для женщин от женщин
Судя по антуражу - исключительно для мужчин.


Я был на их выступлении, как ни странно, могу подтвердить, что это как минимум так же интересно для женщин (их было в зале не меньше половины). Также танцовщицы подобраны по типажу тела, часто используется одинаковый макияж, парики, элементы костюма и синхронные движения, поэтому вскоре после начала становится трудно различать девушек. Часто (почти все время) используется прием "одевания" танцовщиц в цветной свет, эффект сродни боди-пэйнт, они воспринимаются скорее как одетые. Поэтому эротический элемент в шоу присутствует, но занимает процентов 10, на мой взгляд. Все остальное - это сами номера: цветные, красивые, с музыкой, танцами, креативной составляющей, но самый обычный рядовой стриптиз - это "для мужчин" в гораздо большей степени, чем шоу Crazy Horse.
Показать сообщения:   
Начать новую тему   Ответить на тему    Торрент-трекер NNM-Club -> Аудио и Видео -> Зарубежное видео для устройств Apple Часовой пояс: GMT + 3
Страница 1 из 1