Классический форум-трекер
canvas not supported
Нас вместе: 4 101 978

Мужчины со слабостями / Come As You Are (2019) WEB-DL [1080p] ATV


 
 
RSS
Начать новую тему   Ответить на тему    Торрент-трекер NNM-Club -> Аудио и Видео -> Зарубежное видео HD для устройств Apple
Автор Сообщение
Весельчак У ®
Модератор Apple
Стаж: 6 лет 3 мес.
Сообщений: 5259
Ratio: 148,187
Поблагодарили: 171431
93.94%
Откуда: От Москвы недалеко...
ussr.gif
Мужчины со слабостями / Come As You Are (2019) WEB-DL [1080p] ATV «Everyone Has Needs»
Производство: США / Chicago Media Angels, Florida Hill
Жанр: Драма, комедия

Режиссер: Ричард Вонг
Продюсер: Жаклин Е. Ингрэм, Грант Розенмейер, Баррет Стюарт
Актеры: Грант Розенмейер, Хейден Сзето, Рави Патель, Габури Сидибе, Джанин Гарофало, К.С. Ли, Дженнифер Джелсема, Марта Кувахара, Дейзи Тутор, Делани Файнер

Описание:
Смешная до слез и одновременно очень трогательная история, основанная на реальных событиях. Трое молодых людей с ограниченными возможностями, но безграничной дерзостью, отправляются навстречу приключениям по пути в один особенный бордель в Монреале.


Возраст: 18+ (зрителям, достигшим 18 лет. запрещено для детей)
Дата мировой премьеры: 9 марта 2019
Дата российской премьеры: 3 марта 2020, «Вольга»

Релиз от: NNMClub

Продолжительность: 01:46:59
Качество видео: WEB-DL 1080р (Amazon)
Перевод: Дублированный (iTunes)
Субтитры: Русские (full), английские (full, SDH)

Видео: H.264, 1920x816 (2.40:1), ~8024 kbps, 23.976 fps
Аудио#1: AAC, 2 ch, 197 Kbps - Русский DUB, iTunes
Аудио#2: AAC, 2 ch, 197 Kbps - English Original
Аудио#3: AC3, 6 ch, 384 Kbps - Русский DUB, iTunes
Аудио#4: AC3, 6 ch, 640 Kbps - English Original

Общее
Полное имя : /Volumes/HDD/Movies/NNMC/Come.As.You.Are.2019.WEB-DL.1080p.m4v
Формат : MPEG-4
Идентификатор кодека : M4V (M4V /M4A /mp42/isom)
Размер файла : 7,06 Гбайт
Продолжительность : 1 ч. 46 м.
Режим общего битрейта : Переменный
Общий поток : 9452 Кбит/сек
Название фильма : Мужчины со слабостями
Исполнитель : Ричард Вонг
Режиссёр : Ричард Вонг
Исполнитель : Грант Розенмейер / Хейден Сзето / Рави Патель / Габури Сидибе / Джанин Гарофало
Сценарист : Эрик Линхорст
Продюсер : Грант Розенмейер / Жаклин Е. Ингрэм / Баррет Стюарт
Студия-производитель : Chicago Media Angels, Florida Hill, The Black List
Жанр : Комедии
Тип содержимого : Short Film
Дата записи : UTC 2020-03-03 08:00:00
Дата кодирования : UTC 2020-03-03 07:20:21
Дата пометки : UTC 2020-03-03 07:26:05
Авторское право : © 2020 Volga Film
Обложка : Yes
LongDescription : Смешная до слез и одновременно очень трогательная история, основанная на реальных событиях. Трое молодых людей с ограниченными возможностями, но безграничной дерзостью, отправляются навстречу приключениям по пути в один особенный бордель в Монреале.
AppleStoreCountry : Russia
AppleStoreCatalogID : 1500109395
ContentRating : ru-movie|18+|400|

Видео
Идентификатор : 1
Формат : AVC
Формат/Информация : Advanced Video Codec
Профиль формата : High@L4
Настройки формата : CABAC / 4 Ref Frames
Параметр CABAC формата : Да
Параметр ReFrames формата : 4 кадра
Идентификатор кодека : avc1
Идентификатор кодека/Информация : Advanced Video Coding
Продолжительность : 1 ч. 46 м.
Вид битрейта : Постоянный
Битрейт : 8024 Кбит/сек
Номинальный битрейт : 10000 Кбит/сек
Ширина : 1920 пикселей
Высота : 816 пикселей
Соотношение сторон : 2,35:1
Соотношение сторон в оригинале : 2,35:1
Режим частоты кадров : Переменный
Частота кадров : 23,976 (24000/1001) кадра/сек
Минимальная частота кадров : 23,810 кадра/сек
Максимальная частота кадров : 24,390 кадра/сек
Цветовое пространство : YUV
Субдискретизация насыщенности : 4:2:0
Битовая глубина : 8 бит
Тип развёртки : Прогрессивная
Бит/(Пиксели*Кадры) : 0.214
Размер потока : 6,00 Гбайт (85%)
Язык : English
Дата кодирования : UTC 2020-03-03 07:20:21
Дата пометки : UTC 2020-03-03 07:26:04
Цветовой диапазон : Limited
Основные цвета : BT.709
Характеристики трансфера : BT.709
Коэффициенты матрицы : BT.709
Codec configuration box : avcC

Аудио #1
Идентификатор : 2
Формат : AAC LC
Формат/Информация : Advanced Audio Codec Low Complexity
Идентификатор кодека : mp4a-40-2
Продолжительность : 1 ч. 46 м.
Вид битрейта : Переменный
Битрейт : 197 Кбит/сек
Максимальный битрейт : 297 Кбит/сек
Каналы : 2 канала
Channel layout : L R
Частота : 48,0 КГц
Частота кадров : 46,875 кадров/сек (1024 SPF)
Метод сжатия : С потерями
Размер потока : 151 Мбайт (2%)
Язык : Russian
Default : Да
Alternate group : 1
Дата кодирования : UTC 2020-03-03 07:20:21
Дата пометки : UTC 2020-03-03 07:26:04
Fallback From : 4
tagc : public.main-program-content

Аудио #2
Идентификатор : 3
Формат : AAC LC
Формат/Информация : Advanced Audio Codec Low Complexity
Идентификатор кодека : mp4a-40-2
Продолжительность : 1 ч. 46 м.
Продолжительность оригинала : 1 ч. 46 м.
Вид битрейта : Переменный
Битрейт : 197 Кбит/сек
Максимальный битрейт : 315 Кбит/сек
Каналы : 2 канала
Channel layout : L R
Частота : 48,0 КГц
Частота кадров : 46,875 кадров/сек (1024 SPF)
Метод сжатия : С потерями
Размер потока : 151 Мбайт (2%)
Размер потока оригинала : 151 Мбайт (2%)
Язык : English
Default : Нет
Alternate group : 1
Дата кодирования : UTC 2020-03-03 07:20:21
Дата пометки : UTC 2020-03-03 07:22:22
Fallback From : 5
tagc : public.main-program-content

Аудио #3
Идентификатор : 4
Формат : AC-3
Формат/Информация : Audio Coding 3
Коммерческое название : Dolby Digital
Идентификатор кодека : ac-3
Продолжительность : 1 ч. 46 м.
Вид битрейта : Постоянный
Битрейт : 384 Кбит/сек
Каналы : 6 каналов
Channel layout : L R C LFE Ls Rs
Частота : 48,0 КГц
Частота кадров : 31,250 кадров/сек (1536 SPF)
Метод сжатия : С потерями
Размер потока : 294 Мбайт (4%)
Язык : Russian
Service kind : Complete Main
Default : Inherited From: 2
Alternate group : 1
Дата кодирования : UTC 2020-03-03 07:20:21
Дата пометки : UTC 2020-03-03 07:26:04
Fallback To : 2
tagc : public.main-program-content

Аудио #4
Идентификатор : 5
Формат : AC-3
Формат/Информация : Audio Coding 3
Коммерческое название : Dolby Digital
Идентификатор кодека : ac-3
Продолжительность : 1 ч. 46 м.
Вид битрейта : Постоянный
Битрейт : 640 Кбит/сек
Каналы : 6 каналов
Channel layout : L R C LFE Ls Rs
Частота : 48,0 КГц
Частота кадров : 31,250 кадров/сек (1536 SPF)
Метод сжатия : С потерями
Размер потока : 490 Мбайт (7%)
Язык : English
Service kind : Complete Main
Default : Нет
Alternate group : 1
Дата кодирования : UTC 2020-03-03 07:20:21
Дата пометки : UTC 2020-03-03 07:22:22
Fallback To : 3
tagc : public.main-program-content

Текст #1
Идентификатор : 6
Формат : Timed Text
Режим смешивания : sbtl
Идентификатор кодека : tx3g
Продолжительность : 1 ч. 44 м.
Вид битрейта : Переменный
Битрейт : 125 бит/сек
Размер потока : 95,6 Кбайт (0%)
Язык : Russian
Default : Да
Forced : Нет
Alternate group : 2
Дата кодирования : UTC 2020-03-03 07:20:21
Дата пометки : UTC 2020-03-03 07:26:05
tagc : public.main-program-content

Текст #2
Идентификатор : 7
Формат : Timed Text
Режим смешивания : sbtl
Идентификатор кодека : tx3g
Продолжительность : 1 ч. 44 м.
Вид битрейта : Переменный
Битрейт : 80 бит/сек
Размер потока : 61,3 Кбайт (0%)
Язык : English
Default : Нет
Forced : Нет
Alternate group : 2
Дата кодирования : UTC 2020-03-03 07:20:21
Дата пометки : UTC 2020-03-03 07:26:05
tagc : public.main-program-content

Текст #3
Идентификатор : 8
Формат : Timed Text
Режим смешивания : sbtl
Идентификатор кодека : tx3g
Продолжительность : 1 ч. 44 м.
Вид битрейта : Переменный
Битрейт : 83 бит/сек
Размер потока : 62,9 Кбайт (0%)
Язык : English
Default : Нет
Forced : Нет
Alternate group : 2
Дата кодирования : UTC 2020-03-03 07:20:21
Дата пометки : UTC 2020-03-03 07:26:05
tagc : public.accessibility.transcribes-spoken-dialog


Name: Мужчины со слабостями
Artist: Ричард Вонг
Media Kind: Movie
HD Video: 1080p
Genre: Комедии
Release Date: 2020-03-03T08:00:00Z
Long Description: Смешная до слез и одновременно очень трогательная история, основанная на реальных событиях. Трое молодых людей с ограниченными возможностями, но безграничной дерзостью, отправляются навстречу приключениям по пути в один особенный бордель в Монреале.
Rating: ru-movie|18+|400|
Studio: Chicago Media Angels, Florida Hill, The Black List
Cast: Грант Розенмейер, Хейден Сзето, Рави Патель, Габури Сидибе, Джанин Гарофало
Director: Ричард Вонг
Producers: Грант Розенмейер, Жаклин Е. Ингрэм, Баррет Стюарт
Screenwriters: Эрик Линхорст
Copyright: © 2020 Volga Film
content ID: 1500109395
iTunes Country: 143469

Скриншоты:


Все одноименные релизы в Клубе
Время раздачи: 24/7 (до появления первых 3-5 скачавших)

Релиз подготовлен для просмотра на Apple TV, iPad, iPhone, iPod Touch.
Для просмотра данного релиза на компьютере с ОС Windows рекомендуется использовать VLC media player
[NNMClub.to]_Come.As.You.Are.2019.WEB-DL.1080p.m4v.torrent
 Торрент: Платиновая раздача  Зарегистрирован
 
Скачать


Примагнититься
 Зарегистрирован:   03 Мар 2020 10:38:42
 Размер:   7,06 GB  (
 Рейтинг:    (Голосов: 8)
 Поблагодарили:   68
 Проверка:   Оформление проверено модератором 03 Мар 2020 10:58:40
Как cкачать  ·  Как раздать  ·  Правильно оформить  ·  Поднять ратио!  

_________________
«Всё против нас, только ветер навстречу…».
🍏Apple iMac 21.5 (mid 2011) / Intel Core i5 2.7 GHz / AMD Radeon HD 6770M 512 Mb / 12GB DDR3 / Apple Trackpad, Apple Keyboard / macOS High Sierra 10.13.6 (17G12034)
Весельчак У ®
Модератор Apple
Стаж: 6 лет 3 мес.
Сообщений: 5259
Ratio: 148,187
Поблагодарили: 171431
93.94%
Откуда: От Москвы недалеко...
ussr.gif
Ремейк Приходи как есть / Hasta la Vista! (2011) BDRip [1080p] ATV [MVO]

_________________
«Всё против нас, только ветер навстречу…».
🍏Apple iMac 21.5 (mid 2011) / Intel Core i5 2.7 GHz / AMD Radeon HD 6770M 512 Mb / 12GB DDR3 / Apple Trackpad, Apple Keyboard / macOS High Sierra 10.13.6 (17G12034)
Показать сообщения:   
Начать новую тему   Ответить на тему    Торрент-трекер NNM-Club -> Аудио и Видео -> Зарубежное видео HD для устройств Apple Часовой пояс: GMT + 3
Страница 1 из 1