Классический форум-трекер
canvas not supported
Нас вместе: 4 114 244

Robert Plant - Digging Deep (2020) [DSD 128|tracks|Vinyl-Rip] <Pop/Rock>


 
 
RSS
Начать новую тему   Ответить на тему    Торрент-трекер NNM-Club -> HD Audio и Многоканальная Музыка -> Vinyl-Rip и Hand-Made
Автор Сообщение
tegoffs ®
Виниловод. Сталкер
Стаж: 12 лет 5 мес.
Сообщений: 2944
Ratio: 17,675
Поблагодарили: 10170
100%
Откуда: мне знать?
honduras.gif
Robert Plant - Digging Deep(2020)
Год: 2020
Лейбл: Es Paranza Records (190296878176)
Страна: USA
Жанр: Pop/Rock
Продолжительность: 01:17:14

Кодек: DSD 128
Тип рипа: tracks
Формат записи: 1/5.6 MHz
Формат раздачи: 1/5.6 MHz

Треклист:
01. Burning Down One Side (3:55)
02. Like I've Never Been Gone (5:58)
03. Big Log (5:07)
04. In The Mood (5:21)
05. Too Loud (4:10)
06. Little By Little (4:43)
07. Ship of Fools (5:01)
08. Tall Cool One (4:41)
09. Hurting Kind (4:09)
10. Tie Dye on the Highway (5:16)
11. Calling To You (5:50)
12. 29 Palms (4:53)
13. Song To The Siren (5:52)
14. Morning Dew (4:24)
15. Shine It All Around (4:04)
16. Tin Pan Valley (3:49)
Состояние диска более-менее - ex.
Тракт: AT-OC9/III -> Yamaha GT-750 -> Lehmann Audio Black Cube SE -> Korg MR-2000S (интерконнекты Yamaha и AudioQuest Evergreen).
Без обработки.
Постер и дополнительная информация прописаны в треках.
Ковриков нет.
Код: выделить все
General
Complete name                            : Z:\Music - vinyl collection\p\Plant, Robert\2019-Digging Deep\01. Burning Down One Side.dsf
Format                                   : DSF
Format/Info                              : Direct Stream Digital Stream File
Format version                           : Version 1
File size                                : 317 MiB
Duration                                 : 3 min 55 s
Overall bit rate                         : 11.3 Mb/s
Album replay gain                        : -1.44 dB
Album replay gain peak                   : 1.170474
Album                                    : Digging Deep
Track name                               : Burning Down One Side
Track name/Position                      : 1
Track name/Total                         : 16
Performer                                : Robert Plant
Publisher                                : https://www.discogs.com/Robert-Plant-Digging-Deep/release/14857865
Recorded date                            : 2019
Writing library                          : KORG AudioGate ver.4.5.2 (Windows 7)
Cover                                    : Yes
Cover type                               : Cover (front)
Cover MIME                               : image/jpeg
Comment                                  : AT-OC9/III -> Yamaha GT-750 -> Lehmann Audio Black Cube SE -> Korg MR-2000S (интерконнекты Yamaha и AudioQuest Evergreen).

Audio
Format                                   : DSD
Format/Info                              : Direct Stream Digital
Commercial name                          : DSD128
Format settings                          : Little
Duration                                 : 3 min 55 s
Bit rate                                 : 11.3 Mb/s
Channel(s)                               : 2 channels
Channel layout                           : L R
Sampling rate                            : 5 645 kHz
Compression mode                         : Lossless
Replay gain                              : -1.44 dB
Replay gain peak                         : 1.170474
Stream size                              : 317 MiB (100%)

General
Complete name                            : Z:\Music - vinyl collection\p\Plant, Robert\2019-Digging Deep\02. Like I've Never Been Gone.dsf
Format                                   : DSF
Format/Info                              : Direct Stream Digital Stream File
Format version                           : Version 1
File size                                : 482 MiB
Duration                                 : 5 min 57 s
Overall bit rate                         : 11.3 Mb/s
Album replay gain                        : -1.44 dB
Album replay gain peak                   : 1.170474
Album                                    : Digging Deep
Track name                               : Like I've Never Been Gone
Track name/Position                      : 2
Track name/Total                         : 16
Performer                                : Robert Plant
Publisher                                : https://www.discogs.com/Robert-Plant-Digging-Deep/release/14857865
Recorded date                            : 2019
Writing library                          : KORG AudioGate ver.4.5.2 (Windows 7)
Cover                                    : Yes
Cover type                               : Cover (front)
Cover MIME                               : image/jpeg
Comment                                  : AT-OC9/III -> Yamaha GT-750 -> Lehmann Audio Black Cube SE -> Korg MR-2000S (интерконнекты Yamaha и AudioQuest Evergreen).

Audio
Format                                   : DSD
Format/Info                              : Direct Stream Digital
Commercial name                          : DSD128
Format settings                          : Little
Duration                                 : 5 min 57 s
Bit rate                                 : 11.3 Mb/s
Channel(s)                               : 2 channels
Channel layout                           : L R
Sampling rate                            : 5 645 kHz
Compression mode                         : Lossless
Replay gain                              : -1.44 dB
Replay gain peak                         : 1.170474
Stream size                              : 482 MiB (100%)

General
Complete name                            : Z:\Music - vinyl collection\p\Plant, Robert\2019-Digging Deep\03. Big Log.dsf
Format                                   : DSF
Format/Info                              : Direct Stream Digital Stream File
Format version                           : Version 1
File size                                : 413 MiB
Duration                                 : 5 min 6 s
Overall bit rate                         : 11.3 Mb/s
Album replay gain                        : -1.44 dB
Album replay gain peak                   : 1.170474
Album                                    : Digging Deep
Track name                               : Big Log
Track name/Position                      : 3
Track name/Total                         : 16
Performer                                : Robert Plant
Publisher                                : https://www.discogs.com/Robert-Plant-Digging-Deep/release/14857865
Recorded date                            : 2019
Writing library                          : KORG AudioGate ver.4.5.2 (Windows 7)
Cover                                    : Yes
Cover type                               : Cover (front)
Cover MIME                               : image/jpeg
Comment                                  : AT-OC9/III -> Yamaha GT-750 -> Lehmann Audio Black Cube SE -> Korg MR-2000S (интерконнекты Yamaha и AudioQuest Evergreen).

Audio
Format                                   : DSD
Format/Info                              : Direct Stream Digital
Commercial name                          : DSD128
Format settings                          : Little
Duration                                 : 5 min 6 s
Bit rate                                 : 11.3 Mb/s
Channel(s)                               : 2 channels
Channel layout                           : L R
Sampling rate                            : 5 645 kHz
Compression mode                         : Lossless
Replay gain                              : -1.44 dB
Replay gain peak                         : 1.170474
Stream size                              : 413 MiB (100%)

General
Complete name                            : Z:\Music - vinyl collection\p\Plant, Robert\2019-Digging Deep\04. In The Mood.dsf
Format                                   : DSF
Format/Info                              : Direct Stream Digital Stream File
Format version                           : Version 1
File size                                : 432 MiB
Duration                                 : 5 min 20 s
Overall bit rate                         : 11.3 Mb/s
Album replay gain                        : -1.44 dB
Album replay gain peak                   : 1.170474
Album                                    : Digging Deep
Track name                               : In The Mood
Track name/Position                      : 4
Track name/Total                         : 16
Performer                                : Robert Plant
Publisher                                : https://www.discogs.com/Robert-Plant-Digging-Deep/release/14857865
Recorded date                            : 2019
Writing library                          : KORG AudioGate ver.4.5.2 (Windows 7)
Cover                                    : Yes
Cover type                               : Cover (front)
Cover MIME                               : image/jpeg
Comment                                  : AT-OC9/III -> Yamaha GT-750 -> Lehmann Audio Black Cube SE -> Korg MR-2000S (интерконнекты Yamaha и AudioQuest Evergreen).

Audio
Format                                   : DSD
Format/Info                              : Direct Stream Digital
Commercial name                          : DSD128
Format settings                          : Little
Duration                                 : 5 min 20 s
Bit rate                                 : 11.3 Mb/s
Channel(s)                               : 2 channels
Channel layout                           : L R
Sampling rate                            : 5 645 kHz
Compression mode                         : Lossless
Replay gain                              : -1.44 dB
Replay gain peak                         : 1.170474
Stream size                              : 432 MiB (100%)

General
Complete name                            : Z:\Music - vinyl collection\p\Plant, Robert\2019-Digging Deep\05. Too Loud.dsf
Format                                   : DSF
Format/Info                              : Direct Stream Digital Stream File
Format version                           : Version 1
File size                                : 337 MiB
Duration                                 : 4 min 10 s
Overall bit rate                         : 11.3 Mb/s
Album replay gain                        : -1.44 dB
Album replay gain peak                   : 1.170474
Album                                    : Digging Deep
Track name                               : Too Loud
Track name/Position                      : 5
Track name/Total                         : 16
Performer                                : Robert Plant
Publisher                                : https://www.discogs.com/Robert-Plant-Digging-Deep/release/14857865
Recorded date                            : 2019
Writing library                          : KORG AudioGate ver.4.5.2 (Windows 7)
Cover                                    : Yes
Cover type                               : Cover (front)
Cover MIME                               : image/jpeg
Comment                                  : AT-OC9/III -> Yamaha GT-750 -> Lehmann Audio Black Cube SE -> Korg MR-2000S (интерконнекты Yamaha и AudioQuest Evergreen).

Audio
Format                                   : DSD
Format/Info                              : Direct Stream Digital
Commercial name                          : DSD128
Format settings                          : Little
Duration                                 : 4 min 10 s
Bit rate                                 : 11.3 Mb/s
Channel(s)                               : 2 channels
Channel layout                           : L R
Sampling rate                            : 5 645 kHz
Compression mode                         : Lossless
Replay gain                              : -1.44 dB
Replay gain peak                         : 1.170474
Stream size                              : 337 MiB (100%)

General
Complete name                            : Z:\Music - vinyl collection\p\Plant, Robert\2019-Digging Deep\06. Little By Little.dsf
Format                                   : DSF
Format/Info                              : Direct Stream Digital Stream File
Format version                           : Version 1
File size                                : 382 MiB
Duration                                 : 4 min 43 s
Overall bit rate                         : 11.3 Mb/s
Album replay gain                        : -1.44 dB
Album replay gain peak                   : 1.170474
Album                                    : Digging Deep
Track name                               : Little By Little
Track name/Position                      : 6
Track name/Total                         : 16
Performer                                : Robert Plant
Publisher                                : https://www.discogs.com/Robert-Plant-Digging-Deep/release/14857865
Recorded date                            : 2019
Writing library                          : KORG AudioGate ver.4.5.2 (Windows 7)
Cover                                    : Yes
Cover type                               : Cover (front)
Cover MIME                               : image/jpeg
Comment                                  : AT-OC9/III -> Yamaha GT-750 -> Lehmann Audio Black Cube SE -> Korg MR-2000S (интерконнекты Yamaha и AudioQuest Evergreen).

Audio
Format                                   : DSD
Format/Info                              : Direct Stream Digital
Commercial name                          : DSD128
Format settings                          : Little
Duration                                 : 4 min 43 s
Bit rate                                 : 11.3 Mb/s
Channel(s)                               : 2 channels
Channel layout                           : L R
Sampling rate                            : 5 645 kHz
Compression mode                         : Lossless
Replay gain                              : -1.44 dB
Replay gain peak                         : 1.170474
Stream size                              : 381 MiB (100%)

General
Complete name                            : Z:\Music - vinyl collection\p\Plant, Robert\2019-Digging Deep\07. Ship of Fools.dsf
Format                                   : DSF
Format/Info                              : Direct Stream Digital Stream File
Format version                           : Version 1
File size                                : 405 MiB
Duration                                 : 5 min 0 s
Overall bit rate                         : 11.3 Mb/s
Album replay gain                        : -1.44 dB
Album replay gain peak                   : 1.170474
Album                                    : Digging Deep
Track name                               : Ship of Fools
Track name/Position                      : 7
Track name/Total                         : 16
Performer                                : Robert Plant
Publisher                                : https://www.discogs.com/Robert-Plant-Digging-Deep/release/14857865
Recorded date                            : 2019
Writing library                          : KORG AudioGate ver.4.5.2 (Windows 7)
Cover                                    : Yes
Cover type                               : Cover (front)
Cover MIME                               : image/jpeg
Comment                                  : AT-OC9/III -> Yamaha GT-750 -> Lehmann Audio Black Cube SE -> Korg MR-2000S (интерконнекты Yamaha и AudioQuest Evergreen).

Audio
Format                                   : DSD
Format/Info                              : Direct Stream Digital
Commercial name                          : DSD128
Format settings                          : Little
Duration                                 : 5 min 0 s
Bit rate                                 : 11.3 Mb/s
Channel(s)                               : 2 channels
Channel layout                           : L R
Sampling rate                            : 5 645 kHz
Compression mode                         : Lossless
Replay gain                              : -1.44 dB
Replay gain peak                         : 1.170474
Stream size                              : 405 MiB (100%)

General
Complete name                            : Z:\Music - vinyl collection\p\Plant, Robert\2019-Digging Deep\08. Tall Cool One.dsf
Format                                   : DSF
Format/Info                              : Direct Stream Digital Stream File
Format version                           : Version 1
File size                                : 378 MiB
Duration                                 : 4 min 41 s
Overall bit rate                         : 11.3 Mb/s
Album replay gain                        : -1.44 dB
Album replay gain peak                   : 1.170474
Album                                    : Digging Deep
Track name                               : Tall Cool One
Track name/Position                      : 8
Track name/Total                         : 16
Performer                                : Robert Plant
Publisher                                : https://www.discogs.com/Robert-Plant-Digging-Deep/release/14857865
Recorded date                            : 2019
Writing library                          : KORG AudioGate ver.4.5.2 (Windows 7)
Cover                                    : Yes
Cover type                               : Cover (front)
Cover MIME                               : image/jpeg
Comment                                  : AT-OC9/III -> Yamaha GT-750 -> Lehmann Audio Black Cube SE -> Korg MR-2000S (интерконнекты Yamaha и AudioQuest Evergreen).

Audio
Format                                   : DSD
Format/Info                              : Direct Stream Digital
Commercial name                          : DSD128
Format settings                          : Little
Duration                                 : 4 min 41 s
Bit rate                                 : 11.3 Mb/s
Channel(s)                               : 2 channels
Channel layout                           : L R
Sampling rate                            : 5 645 kHz
Compression mode                         : Lossless
Replay gain                              : -1.44 dB
Replay gain peak                         : 1.170474
Stream size                              : 378 MiB (100%)

General
Complete name                            : Z:\Music - vinyl collection\p\Plant, Robert\2019-Digging Deep\09. Hurting Kind.dsf
Format                                   : DSF
Format/Info                              : Direct Stream Digital Stream File
Format version                           : Version 1
File size                                : 336 MiB
Duration                                 : 4 min 9 s
Overall bit rate                         : 11.3 Mb/s
Album replay gain                        : -2.05 dB
Album replay gain peak                   : 1.382755
Album                                    : Digging Deep
Track name                               : Hurting Kind
Track name/Position                      : 9
Track name/Total                         : 16
Performer                                : Robert Plant
Publisher                                : https://www.discogs.com/Robert-Plant-Digging-Deep/release/14857865
Recorded date                            : 2019
Writing library                          : KORG AudioGate ver.4.5.2 (Windows 7)
Cover                                    : Yes
Cover type                               : Cover (front)
Cover MIME                               : image/jpeg
Comment                                  : AT-OC9/III -> Yamaha GT-750 -> Lehmann Audio Black Cube SE -> Korg MR-2000S (интерконнекты Yamaha и AudioQuest Evergreen).

Audio
Format                                   : DSD
Format/Info                              : Direct Stream Digital
Commercial name                          : DSD128
Format settings                          : Little
Duration                                 : 4 min 9 s
Bit rate                                 : 11.3 Mb/s
Channel(s)                               : 2 channels
Channel layout                           : L R
Sampling rate                            : 5 645 kHz
Compression mode                         : Lossless
Replay gain                              : -2.05 dB
Replay gain peak                         : 1.382755
Stream size                              : 336 MiB (100%)

General
Complete name                            : Z:\Music - vinyl collection\p\Plant, Robert\2019-Digging Deep\10. Tie Dye on the Highway.dsf
Format                                   : DSF
Format/Info                              : Direct Stream Digital Stream File
Format version                           : Version 1
File size                                : 426 MiB
Duration                                 : 5 min 16 s
Overall bit rate                         : 11.3 Mb/s
Album replay gain                        : -2.05 dB
Album replay gain peak                   : 1.382755
Album                                    : Digging Deep
Track name                               : Tie Dye on the Highway
Track name/Position                      : 10
Track name/Total                         : 16
Performer                                : Robert Plant
Publisher                                : https://www.discogs.com/Robert-Plant-Digging-Deep/release/14857865
Recorded date                            : 2019
Writing library                          : KORG AudioGate ver.4.5.2 (Windows 7)
Cover                                    : Yes
Cover type                               : Cover (front)
Cover MIME                               : image/jpeg
Comment                                  : AT-OC9/III -> Yamaha GT-750 -> Lehmann Audio Black Cube SE -> Korg MR-2000S (интерконнекты Yamaha и AudioQuest Evergreen).

Audio
Format                                   : DSD
Format/Info                              : Direct Stream Digital
Commercial name                          : DSD128
Format settings                          : Little
Duration                                 : 5 min 16 s
Bit rate                                 : 11.3 Mb/s
Channel(s)                               : 2 channels
Channel layout                           : L R
Sampling rate                            : 5 645 kHz
Compression mode                         : Lossless
Replay gain                              : -2.05 dB
Replay gain peak                         : 1.382755
Stream size                              : 426 MiB (100%)

General
Complete name                            : Z:\Music - vinyl collection\p\Plant, Robert\2019-Digging Deep\11. Calling To You.dsf
Format                                   : DSF
Format/Info                              : Direct Stream Digital Stream File
Format version                           : Version 1
File size                                : 471 MiB
Duration                                 : 5 min 50 s
Overall bit rate                         : 11.3 Mb/s
Album replay gain                        : -2.05 dB
Album replay gain peak                   : 1.382755
Album                                    : Digging Deep
Track name                               : Calling To You
Track name/Position                      : 11
Track name/Total                         : 16
Performer                                : Robert Plant
Publisher                                : https://www.discogs.com/Robert-Plant-Digging-Deep/release/14857865
Recorded date                            : 2019
Writing library                          : KORG AudioGate ver.4.5.2 (Windows 7)
Cover                                    : Yes
Cover type                               : Cover (front)
Cover MIME                               : image/jpeg
Comment                                  : AT-OC9/III -> Yamaha GT-750 -> Lehmann Audio Black Cube SE -> Korg MR-2000S (интерконнекты Yamaha и AudioQuest Evergreen).

Audio
Format                                   : DSD
Format/Info                              : Direct Stream Digital
Commercial name                          : DSD128
Format settings                          : Little
Duration                                 : 5 min 50 s
Bit rate                                 : 11.3 Mb/s
Channel(s)                               : 2 channels
Channel layout                           : L R
Sampling rate                            : 5 645 kHz
Compression mode                         : Lossless
Replay gain                              : -2.05 dB
Replay gain peak                         : 1.382755
Stream size                              : 471 MiB (100%)

General
Complete name                            : Z:\Music - vinyl collection\p\Plant, Robert\2019-Digging Deep\12. 29 Palms.dsf
Format                                   : DSF
Format/Info                              : Direct Stream Digital Stream File
Format version                           : Version 1
File size                                : 394 MiB
Duration                                 : 4 min 52 s
Overall bit rate                         : 11.3 Mb/s
Album replay gain                        : -2.05 dB
Album replay gain peak                   : 1.382755
Album                                    : Digging Deep
Track name                               : 29 Palms
Track name/Position                      : 12
Track name/Total                         : 16
Performer                                : Robert Plant
Publisher                                : https://www.discogs.com/Robert-Plant-Digging-Deep/release/14857865
Recorded date                            : 2019
Writing library                          : KORG AudioGate ver.4.5.2 (Windows 7)
Cover                                    : Yes
Cover type                               : Cover (front)
Cover MIME                               : image/jpeg
Comment                                  : AT-OC9/III -> Yamaha GT-750 -> Lehmann Audio Black Cube SE -> Korg MR-2000S (интерконнекты Yamaha и AudioQuest Evergreen).

Audio
Format                                   : DSD
Format/Info                              : Direct Stream Digital
Commercial name                          : DSD128
Format settings                          : Little
Duration                                 : 4 min 52 s
Bit rate                                 : 11.3 Mb/s
Channel(s)                               : 2 channels
Channel layout                           : L R
Sampling rate                            : 5 645 kHz
Compression mode                         : Lossless
Replay gain                              : -2.05 dB
Replay gain peak                         : 1.382755
Stream size                              : 394 MiB (100%)

General
Complete name                            : Z:\Music - vinyl collection\p\Plant, Robert\2019-Digging Deep\13. Song To The Siren.dsf
Format                                   : DSF
Format/Info                              : Direct Stream Digital Stream File
Format version                           : Version 1
File size                                : 475 MiB
Duration                                 : 5 min 52 s
Overall bit rate                         : 11.3 Mb/s
Album replay gain                        : -2.05 dB
Album replay gain peak                   : 1.382755
Album                                    : Digging Deep
Track name                               : Song To The Siren
Track name/Position                      : 13
Track name/Total                         : 16
Performer                                : Robert Plant
Publisher                                : https://www.discogs.com/Robert-Plant-Digging-Deep/release/14857865
Recorded date                            : 2019
Writing library                          : KORG AudioGate ver.4.5.2 (Windows 7)
Cover                                    : Yes
Cover type                               : Cover (front)
Cover MIME                               : image/jpeg
Comment                                  : AT-OC9/III -> Yamaha GT-750 -> Lehmann Audio Black Cube SE -> Korg MR-2000S (интерконнекты Yamaha и AudioQuest Evergreen).

Audio
Format                                   : DSD
Format/Info                              : Direct Stream Digital
Commercial name                          : DSD128
Format settings                          : Little
Duration                                 : 5 min 52 s
Bit rate                                 : 11.3 Mb/s
Channel(s)                               : 2 channels
Channel layout                           : L R
Sampling rate                            : 5 645 kHz
Compression mode                         : Lossless
Replay gain                              : -2.05 dB
Replay gain peak                         : 1.382755
Stream size                              : 474 MiB (100%)

General
Complete name                            : Z:\Music - vinyl collection\p\Plant, Robert\2019-Digging Deep\14. Morning Dew.dsf
Format                                   : DSF
Format/Info                              : Direct Stream Digital Stream File
Format version                           : Version 1
File size                                : 355 MiB
Duration                                 : 4 min 23 s
Overall bit rate                         : 11.3 Mb/s
Album replay gain                        : -2.05 dB
Album replay gain peak                   : 1.382755
Album                                    : Digging Deep
Track name                               : Morning Dew
Track name/Position                      : 14
Track name/Total                         : 16
Performer                                : Robert Plant
Publisher                                : https://www.discogs.com/Robert-Plant-Digging-Deep/release/14857865
Recorded date                            : 2019
Writing library                          : KORG AudioGate ver.4.5.2 (Windows 7)
Cover                                    : Yes
Cover type                               : Cover (front)
Cover MIME                               : image/jpeg
Comment                                  : AT-OC9/III -> Yamaha GT-750 -> Lehmann Audio Black Cube SE -> Korg MR-2000S (интерконнекты Yamaha и AudioQuest Evergreen).

Audio
Format                                   : DSD
Format/Info                              : Direct Stream Digital
Commercial name                          : DSD128
Format settings                          : Little
Duration                                 : 4 min 23 s
Bit rate                                 : 11.3 Mb/s
Channel(s)                               : 2 channels
Channel layout                           : L R
Sampling rate                            : 5 645 kHz
Compression mode                         : Lossless
Replay gain                              : -2.05 dB
Replay gain peak                         : 1.382755
Stream size                              : 355 MiB (100%)

General
Complete name                            : Z:\Music - vinyl collection\p\Plant, Robert\2019-Digging Deep\15. Shine It All Around.dsf
Format                                   : DSF
Format/Info                              : Direct Stream Digital Stream File
Format version                           : Version 1
File size                                : 329 MiB
Duration                                 : 4 min 4 s
Overall bit rate                         : 11.3 Mb/s
Album replay gain                        : -2.05 dB
Album replay gain peak                   : 1.382755
Album                                    : Digging Deep
Track name                               : Shine It All Around
Track name/Position                      : 15
Track name/Total                         : 16
Performer                                : Robert Plant
Publisher                                : https://www.discogs.com/Robert-Plant-Digging-Deep/release/14857865
Recorded date                            : 2019
Writing library                          : KORG AudioGate ver.4.5.2 (Windows 7)
Cover                                    : Yes
Cover type                               : Cover (front)
Cover MIME                               : image/jpeg
Comment                                  : AT-OC9/III -> Yamaha GT-750 -> Lehmann Audio Black Cube SE -> Korg MR-2000S (интерконнекты Yamaha и AudioQuest Evergreen).

Audio
Format                                   : DSD
Format/Info                              : Direct Stream Digital
Commercial name                          : DSD128
Format settings                          : Little
Duration                                 : 4 min 4 s
Bit rate                                 : 11.3 Mb/s
Channel(s)                               : 2 channels
Channel layout                           : L R
Sampling rate                            : 5 645 kHz
Compression mode                         : Lossless
Replay gain                              : -2.05 dB
Replay gain peak                         : 1.382755
Stream size                              : 329 MiB (100%)

General
Complete name                            : Z:\Music - vinyl collection\p\Plant, Robert\2019-Digging Deep\16. Tin Pan Valley.dsf
Format                                   : DSF
Format/Info                              : Direct Stream Digital Stream File
Format version                           : Version 1
File size                                : 308 MiB
Duration                                 : 3 min 48 s
Overall bit rate                         : 11.3 Mb/s
Album replay gain                        : -2.05 dB
Album replay gain peak                   : 1.382755
Album                                    : Digging Deep
Track name                               : Tin Pan Valley
Track name/Position                      : 16
Track name/Total                         : 16
Performer                                : Robert Plant
Publisher                                : https://www.discogs.com/Robert-Plant-Digging-Deep/release/14857865
Recorded date                            : 2019
Writing library                          : KORG AudioGate ver.4.5.2 (Windows 7)
Cover                                    : Yes
Cover type                               : Cover (front)
Cover MIME                               : image/jpeg
Comment                                  : AT-OC9/III -> Yamaha GT-750 -> Lehmann Audio Black Cube SE -> Korg MR-2000S (интерконнекты Yamaha и AudioQuest Evergreen).

Audio
Format                                   : DSD
Format/Info                              : Direct Stream Digital
Commercial name                          : DSD128
Format settings                          : Little
Duration                                 : 3 min 48 s
Bit rate                                 : 11.3 Mb/s
Channel(s)                               : 2 channels
Channel layout                           : L R
Sampling rate                            : 5 645 kHz
Compression mode                         : Lossless
Replay gain                              : -2.05 dB
Replay gain peak                         : 1.382755
Stream size                              : 308 MiB (100%)

General
Complete name                            : Z:\Music - vinyl collection\p\Plant, Robert\2019-Digging Deep\Thumbs.db
File size                                : 26.5 KiB

General
Complete name                            : Z:\Music - vinyl collection\p\Plant, Robert\2019-Digging Deep\cover.jpg
Format                                   : JPEG
File size                                : 160 KiB

Image
Format                                   : JPEG
Width                                    : 599 pixels
Height                                   : 514 pixels
Color space                              : YUV
Chroma subsampling                       : 4:4:4
Bit depth                                : 8 bits
Compression mode                         : Lossy
Stream size                              : 160 KiB (100%)

General
Complete name                            : Z:\Music - vinyl collection\p\Plant, Robert\2019-Digging Deep\foo_dr.txt
File size                                : 1.72 KiB

Код: выделить все
foobar2000 1.4.6 / Dynamic Range Meter 1.1.1
log date: 2020-04-23 11:11:05

--------------------------------------------------------------------------------
Analyzed: Robert Plant / Digging Deep
--------------------------------------------------------------------------------

DR         Peak         RMS     Duration Track
--------------------------------------------------------------------------------
DR13      -2.82 dB   -17.53 dB      3:55 01-Burning Down One Side
DR13      -3.18 dB   -18.90 dB      5:58 02-Like I've Never Been Gone
DR13      -4.86 dB   -19.90 dB      5:07 03-Big Log
DR14      -3.40 dB   -19.69 dB      5:21 04-In The Mood
DR14      -3.35 dB   -19.30 dB      4:10 05-Too Loud
DR13      -2.82 dB   -18.60 dB      4:43 06-Little By Little
DR13      -1.57 dB   -18.67 dB      5:01 07-Ship of Fools
DR13      -0.31 dB   -16.50 dB      4:41 08-Tall Cool One
DR12      -3.71 dB   -18.65 dB      4:09 09-Hurting Kind
DR13      -1.63 dB   -16.77 dB      5:16 10-Tie Dye on the Highway
DR12      -2.35 dB   -17.34 dB      5:50 11-Calling To You
DR12      -3.48 dB   -17.45 dB      4:53 12-29 Palms
DR10      -5.01 dB   -19.94 dB      5:52 13-Song To The Siren
DR11      -4.18 dB   -19.72 dB      4:24 14-Morning Dew
DR11      -2.16 dB   -15.22 dB      4:04 15-Shine It All Around
DR11      -1.74 dB   -18.52 dB      3:49 16-Tin Pan Valley
--------------------------------------------------------------------------------

Number of tracks:  16
Official DR value: DR12

Samplerate:        5644800 Hz / PCM Samplerate: 176400 Hz
Channels:          2
Bits per sample:   1
Bitrate:           11290 kbps
Codec:             DSD128
================================================================================
Первый клип - Роберт Плант рассуждает по поводу альбома (это первый эпизод, если кто-то заинтересуется, они все есть в его подписке на ютубе)
YouTube
Второй клип - один из треков.
YouTube
Время раздачи: 24/7 до пяти скачавших.
[NNMClub.to]_Robert Plant - 2019 - Digging Deep.torrent
 Торрент: Платиновая раздача  Зарегистрирован
 
Скачать


Примагнититься
 Зарегистрирован:   23 Апр 2020 18:45:34
 Размер:   6,09 GB  (
 Рейтинг:   4,9 (Голосов: 19)
 Поблагодарили:   95
 Проверка:   Оформление проверено модератором 23 Апр 2020 20:15:38
Как cкачать  ·  Как раздать  ·  Правильно оформить  ·  Поднять ратио!  
ALLic
Модератор Музыки
Стаж: 12 лет 6 мес.
Сообщений: 3852
Ratio: 336,899
Поблагодарили: 39328
100%
Откуда: Широка страна моя родная!
ussr.gif
Перешел на однобитное аудио? Или это только для трекера? :подмигивание:
tegoffs ®
Виниловод. Сталкер
Стаж: 12 лет 5 мес.
Сообщений: 2944
Ratio: 17,675
Поблагодарили: 10170
100%
Откуда: мне знать?
honduras.gif
ALLic
Перешёл, звук чище получается.
Прикупил себе этот корг, а он оказался с подвохом - с него можно воспроизводить, только если на него закинуть нужные файлы :)
Но пишет он без проблем. А так - у меня еще есть отдельная приблуда, которая воспроизводит DSD без преобразований - через неё и слушаю.

_________________
It's only rock 'n' roll but I like it! (c) Jagger and Richards
IGOR047
Стаж: 10 лет 5 мес.
Сообщений: 191
Ratio: 40,489
100%
russia.gif
tegoffs
Спасибо! Мне понравилось! Ждём продолжения Ваших релизов в DSD!
:респект:
gintaras661
Стаж: 6 лет 6 мес.
Сообщений: 47
Ratio: 13,032
Раздал: 2,129 TB
100%
Откуда: LITUANIA
lithuania.gif
Спасибо ,вот ето настоящии аудиофильскии подход,отличное качество.Ах если все винилы Зеппелинов,в таком качестве......
Aquarius_​Sashulya​
Стаж: 2 года 9 мес.
Сообщений: 11
Ratio: 3,162
43.66%
Откуда: Калининград ( Konigsberg)
russia.gif
Спасибо большое.
Afanasiy99
Стаж: 8 лет 6 мес.
Сообщений: 6
Ratio: 4,923
21.88%
ussr.gif
Спасибо!
Показать сообщения:   
Начать новую тему   Ответить на тему    Торрент-трекер NNM-Club -> HD Audio и Многоканальная Музыка -> Vinyl-Rip и Hand-Made Часовой пояс: GMT + 3
Страница 1 из 1