Классический форум-трекер
canvas not supported
Нас вместе: 4 114 722

Первая передача на НТВ. Автомобильная передача (26.04.2020) SATRip


 
 
RSS
Начать новую тему   Ответить на тему    Торрент-трекер NNM-Club -> Документалистика и Телепередачи -> За рулем
Автор Сообщение
Катюша ®
Мне бы в небо!
Стаж: 8 лет 2 мес.
Сообщений: 532
Ratio: 212,992
Поблагодарили: 46734
100%
witch.png
Первая передача на НТВ. Автомобильная передача (26.04.2020) SATRip

Телекомпания: НТВ
Жанр: Автопередача

Ведущий: Алексей Куличков

Описание:
Села за руль без прав и на чужой машине: виновница ДТП с участием 9 автомобилей не собирается возмещать убыток пострадавшим. Как и с кого в таком случае взыскать ущерб? Автобокс слетел с крыши автомобиля, попал под колесо и послужил причиной ДТП. Кто виноват — хозяин багажника или невнимательный водитель, который не заметил препятствия на дороге?Водительские удостоверения, срок действия которых истекает в срок с 1 февраля по 15 июля 2020 года, считаются действительными, в связи с пандемией коронавируса. Управляющая компания выставила сооружения, сужающие проезжую часть и мешающие парковке: куда жаловаться, чтобы устранить незаконное препятствие?Есть на дорогах, но нет в ПДД: почему для гироскутеров, сегвеев, электросамокатов и моноколес до сих пор не создали правила движения?

Релиз от: -=FOX=-
Продолжительность: 00:26:24
Качество видео: SATRip

Видео: MPEG4, XviD, 720x400, 1800 Kbps
Аудио: MP3, 2 ch, 128 Kbps

Общее
Полное имя : Pervaya.peredacha.(2020.04.26).SATRip.avi
Формат : AVI
Формат/Информация : Audio Video Interleave
Размер файла : 366 Мбайт
Продолжительность : 26 м. 24 с.
Общий поток : 1938 Кбит/сек
Программа кодирования : VirtualDubMod 1.5.10.3 | www.virtualdub-fr.org || (build 2550/release)
Библиотека кодирования : VirtualDubMod build 2550/release

Видео
Идентификатор : 0
Формат : MPEG-4 Visual
Профиль формата : Advanced Simple@L5
Настройки формата : BVOP2
Параметр BVOP формата : 2
Параметр QPel формата : Нет
Параметр GMC формата : Без точки перехода
Параметр матрицы формата : Default (H.263)
Идентификатор кодека : XVID
Идентификатор кодека/Подсказка : XviD
Продолжительность : 26 м. 24 с.
Битрейт : 1800 Кбит/сек
Ширина : 720 пикселей
Высота : 400 пикселей
Соотношение сторон : 16:9
Частота кадров : 25,000 кадров/сек
Цветовое пространство : YUV
Субдискретизация насыщенности : 4:2:0
Битовая глубина : 8 бит
Тип развёртки : Прогрессивная
Метод сжатия : С потерями
Бит/(Пиксели*Кадры) : 0.250
Размер потока : 340 Мбайт (93%)
Библиотека кодирования : XviD 1.2.1 (UTC 2008-12-04)

Аудио
Идентификатор : 1
Формат : MPEG Audio
Версия формата : Version 1
Профиль формата : Layer 3
Идентификатор кодека : 55
Идентификатор кодека/Подсказка : MP3
Продолжительность : 26 м. 24 с.
Вид битрейта : Постоянный
Битрейт : 128 Кбит/сек
Каналы : 2 канала
Частота : 48,0 КГц
Частота кадров : 41,667 кадра/сек (1152 SPF)
Метод сжатия : С потерями
Размер потока : 24,2 Мбайт (7%)
Выравнивание : Соединение по промежуткам
Продолжительность промежутка : 40 мс. (1,00 видеокадр)
Время предзагрузки промежутка : 504 мс.
Библиотека кодирования : LAME3.99r
Настройки программы : -m s -V 4 -q 2 -lowpass 17 -b 128

Скриншоты:


Все одноименные релизы в Клубе
Время раздачи: 24/7. До первых 5 скачавших.
[NNMClub.to]_Pervaya.peredacha.(2020.04.26).SATRip.avi.torrent
 Торрент:   Зарегистрирован
 
Зарегистрируйтесь и скачайте торрент!
14,7 KB
Free Leech
Примагнититься
 Зарегистрирован:   26 Апр 2020 07:46:34
 Размер:   366 MB  (
 Рейтинг:   5 (Голосов: 14)
 Поблагодарили:   60
 Проверка:   Оформление проверено модератором 26 Апр 2020 07:47:42
Как cкачать  ·  Как раздать  ·  Правильно оформить  ·  Поднять ратио!  

_________________
С годами старые фильмы становятся все лучше, а новые - все хуже.
Показать сообщения:   
Начать новую тему   Ответить на тему    Торрент-трекер NNM-Club -> Документалистика и Телепередачи -> За рулем Часовой пояс: GMT + 3
Страница 1 из 1