Классический форум-трекер
canvas not supported
Нас вместе: 4 125 013

Эфир / Eter (2018) WEB-DL [1080p] ATV [AVO]


 
 
RSS
Начать новую тему   Ответить на тему    Торрент-трекер NNM-Club -> Аудио и Видео -> Зарубежное видео HD для устройств Apple
Автор Сообщение
Весельчак У ®
Модератор Apple
Uploader 100+
Стаж: 6 лет 9 мес.
Сообщений: 7004
Ratio: 171,376
Поблагодарили: 223822
89.38%
Откуда: От Москвы недалеко...
ussr.gif
Эфир / Eter (2018) WEB-DL [1080p] ATV
Производство: Польша, Украина, Литва, Венгрия, Италия / Bielle Re, Canal+, Hungarian National Film Fund, Interfilm Production Studio, Polish Film Institute, Revolver, Studio Filmowe "Tor"
Жанр: Триллер, драма, история

Режиссер: Кшиштоф Занусси
Продюсер: Януш Вахала, Кшиштоф Занусси, Елена Фетисова
Актеры: Яцек Понедзялек, Остап Вакулюк, Остап Ступка, Мария Рябошапка, Малгожата Притуляк, Жольт Ласло, Анджей Хыра, Барбара Гарстка, Виктория Дзинни, Ремо Джироне

Описание:
Начало XX века, задворки Российской Империи. Сельский доктор дает одной из своих пациенток - объекту своего вожделения - эфир. Доза оказывается смертельной и пациентка умирает. После совершенного преступления доктор вынужден бежать. Он находит работу в крепости, где продолжает свои эксперименты с эфиром как обезболивающим средством и средством контроля над людьми. Несмотря на все зло, которое он уже совершил, душа его еще может быть спасена...



Дата мировой премьеры: 20 сентября 2018

Релиз от: NNMClub

Продолжительность: 01:52:46
Качество видео: WEB-DL 1080р
Перевод: Авторский одноголосый (Михаил Чадов)
Субтитры: Русские, украинские, английские (вшитые, отключаемые)

Видео: H.264, 1920x1080 (16:9), ~5974 kbps, 25.000 fps
Аудио#1: AAC, 2.0 ch, 230 Kbps - Русский AVO, Михаил Чадов
Аудио#2: AAC, 2.0 ch, 170 Kbps - Український DUB, LeDoyen
Аудио#3: AAC, 2.0 ch, 230 Kbps - Polskie Original
Аудио#4: AC3, 6.0 ch, 448 Kbps - Русский AVO, Михаил Чадов
Аудио#5: AC3, 6.0 ch, 448 Kbps - Polskie Original

Общее
Полное имя : /Volumes/HDD/Movies/NNMClub/Eter.2018.WEB-DL.1080p.NNMClub.m4v
Формат : MPEG-4
Идентификатор кодека : M4V (M4V /M4A /mp42/isom)
Размер файла : 5,91 Гбайт
Продолжительность : 1 ч. 52 м.
Режим общего битрейта : Переменный
Общий поток : 7 508 Кбит/сек
Название фильма : Эфир
Исполнитель : Krzysztof Zanussi
Режиссёр : Krzysztof Zanussi
Исполнитель : Jacek Poniedziałek / Andrzej Chyra / Małgorzata Pritulak / Zsolt László / Ostap Vakulyuk / Maria Ryaboshapka / Leonardo Lacaria / Rafał Mohr / Victoria Zinny / Remo Girone / Ostap Stupka / Yaroslav Fedorchuk / Natalka Polovynka / Stanislav Kolokolnikov / Stefan Górski / Arturas Dubaka / Przemyslaw Stippa / Zsuzsa Pálos / Sebastian Pawlak / Dominik Rybiałek / Oleksandr Loginov / Maciek Hanczewski / Tural Agayev / Vasily Lukyanenko / Tadeusz Bradecki / Svetlana Kosolapova / Barbara Garstka / Dóra Sztarenki / Polett Svak / Fruzsina Háda / Olívia Csúcs / Hanna Erkel / János Hajnal / Volodymyr Antonov / Vova Makovskyi / Karolina Porcari / Diana Yurash / Dmytro Stupka / Bartłomiej Firlet / Maciej Charyton / Grazyna Zielinska / Paweł Kowalski / Artur Mikolajewski / Dariusz Karpiński / Martina Valentini Marinaz / Kinga Józsa Kovács / Artem Manuilov / Andrzej Szenajch / Leonardo Zanier / Adriano Braidotti / Hanna Zbyryt / Yevhen Malukha / Pawel Okraska / Alina Kaminska / Viktor Glushkov / Gabriela Mielzynska / Irina Melnik / Tomasz Leszczynski / Krzysztof Lazicki / Robert Kuliński / Karol Górski / Michal Dobrucki / Daniel Namiotko / Attila Pocsai / Tibor Toll / Bogdan Rybka / Oleh Tsiona / Volodymyr Ganulich / Eduard Nevedrov / Vasyl Balitskiy / Viacheslav Repin / Alla Lan / Oleksandr Chesherov / Andriy Tsyganenko / Victor Lafarovych / Taras Yurychko / Bogdan Revkevich / Vasyl Bespalenko / Ivan Oleksyn / Serhiy Yakovenko / Szilard Cservenák / Adam Ferency / Magdalena Górska / Magdalena Kuta / Marcin Bytniewski
Сценарист : Krzysztof Zanussi
Продюсер : Krzysztof Zanussi / Janusz Wąchała
Исполнительный продюсер : Galina Kim
Студия-производитель : Studio Filmowe Tor, Interfilm Production Studio, Studio Uljana Kim, Laokoon Filmgroup, Bielle Re, Wytwórnia Filmów Dokumentalnych i Fabularnych, PISF, The Ministry of Culture and National Heritage, Ukrainian State Film Agency, Hungarian National Film Fund, Lithuanian Film Center
Жанр : история, драма, триллер, военный
Тип содержимого : Short Film
Дата записи : UTC 2018-11-30 12:00:00
Дата кодирования : UTC 2020-09-16 12:20:30
Дата пометки : UTC 2020-09-16 12:27:32
Обложка : Yes
LongDescription : Конец 19 века, задворки Российской Империи. Сельский доктор дает одной из своих пациенток - объекту своего вожделения - эфир. Доза оказывается смертельной и пациентка умирает. После совершенного преступления доктор вынужден бежать. Он находит работу в крепости, где продолжает свои эксперименты с эфиром как обезболивающим средством и средством контроля над людьми. Несмотря на все зло, которое он уже совершил, душа его еще может быть спасена...

Видео
Идентификатор : 1
Формат : AVC
Формат/Информация : Advanced Video Codec
Профиль формата : High@L4
Настройки формата : CABAC / 2 Ref Frames
Параметр CABAC формата : Да
Параметр RefFrames формата : 2 кадра
Параметр GOP формата : M=3, N=75
Идентификатор кодека : avc1
Идентификатор кодека/Информация : Advanced Video Coding
Продолжительность : 1 ч. 52 м.
Вид битрейта : Переменный
Битрейт : 5 974 Кбит/сек
Максимальный битрейт : 8 000 Кбит/сек
Ширина : 1 920 пикселей
Высота : 1 080 пикселей
Соотношение сторон : 16:9
Режим частоты кадров : Постоянный
Частота кадров : 25,000 кадров/сек
Стандарт вещания : PAL
Цветовое пространство : YUV
Субдискретизация насыщенности : 4:2:0
Битовая глубина : 8 бит
Тип развёртки : Прогрессивная
Бит/(Пиксели*Кадры) : 0.115
Размер потока : 4,71 Гбайт (80%)
Язык : English
Дата кодирования : UTC 2020-09-16 12:20:30
Дата пометки : UTC 2020-09-16 12:27:31
Цветовой диапазон : Limited
Основные цвета : BT.709
Характеристики трансфера : BT.709
Коэффициенты матрицы : BT.709
Codec configuration box : avcC

Аудио #1
Идентификатор : 2
Формат : AAC LC
Формат/Информация : Advanced Audio Codec Low Complexity
Идентификатор кодека : mp4a-40-2
Продолжительность : 1 ч. 52 м.
Вид битрейта : Переменный
Битрейт : 229 Кбит/сек
Максимальный битрейт : 382 Кбит/сек
Каналы : 2 канала
Channel layout : L R
Частота : 48,0 КГц
Частота кадров : 46,875 кадров/сек (1024 SPF)
Метод сжатия : С потерями
Размер потока : 184 Мбайт (3%)
Язык : Russian
Default : Да
Alternate group : 1
Дата кодирования : UTC 2020-09-16 12:20:30
Дата пометки : UTC 2020-09-16 12:27:31
Fallback From : 5
tagc : public.main-program-content

Аудио #2
Идентификатор : 3
Формат : AAC LC
Формат/Информация : Advanced Audio Codec Low Complexity
Идентификатор кодека : mp4a-40-2
Продолжительность : 1 ч. 52 м.
Вид битрейта : Переменный
Битрейт : 170 Кбит/сек
Максимальный битрейт : 232 Кбит/сек
Каналы : 2 канала
Channel layout : L R
Частота : 48,0 КГц
Частота кадров : 46,875 кадров/сек (1024 SPF)
Метод сжатия : С потерями
Размер потока : 137 Мбайт (2%)
Язык : Ukrainian
Default : Нет
Alternate group : 1
Дата кодирования : UTC 2020-09-16 12:20:30
Дата пометки : UTC 2020-09-16 12:27:31
tagc : public.main-program-content

Аудио #3
Идентификатор : 4
Формат : AAC LC
Формат/Информация : Advanced Audio Codec Low Complexity
Идентификатор кодека : mp4a-40-2
Продолжительность : 1 ч. 52 м.
Вид битрейта : Переменный
Битрейт : 230 Кбит/сек
Максимальный битрейт : 421 Кбит/сек
Каналы : 2 канала
Channel layout : L R
Частота : 48,0 КГц
Частота кадров : 46,875 кадров/сек (1024 SPF)
Метод сжатия : С потерями
Размер потока : 186 Мбайт (3%)
Язык : Polish
Default : Нет
Alternate group : 1
Дата кодирования : UTC 2020-09-16 12:20:30
Дата пометки : UTC 2020-09-16 12:27:31
Fallback From : 6
tagc : public.main-program-content

Аудио #4
Идентификатор : 5
Формат : AC-3
Формат/Информация : Audio Coding 3
Коммерческое название : Dolby Digital
Идентификатор кодека : ac-3
Продолжительность : 1 ч. 52 м.
Вид битрейта : Постоянный
Битрейт : 448 Кбит/сек
Каналы : 6 каналов
Channel layout : L R C LFE Ls Rs
Частота : 48,0 КГц
Частота кадров : 31,250 кадров/сек (1536 SPF)
Метод сжатия : С потерями
Размер потока : 361 Мбайт (6%)
Язык : Russian
Service kind : Complete Main
Default : Inherited From: 2
Alternate group : 1
Дата кодирования : UTC 2020-09-16 12:20:30
Дата пометки : UTC 2020-09-16 12:27:31
Fallback To : 2
tagc : public.main-program-content

Аудио #5
Идентификатор : 6
Формат : AC-3
Формат/Информация : Audio Coding 3
Коммерческое название : Dolby Digital
Идентификатор кодека : ac-3
Продолжительность : 1 ч. 52 м.
Вид битрейта : Постоянный
Битрейт : 448 Кбит/сек
Каналы : 6 каналов
Channel layout : L R C LFE Ls Rs
Частота : 48,0 КГц
Частота кадров : 31,250 кадров/сек (1536 SPF)
Метод сжатия : С потерями
Размер потока : 361 Мбайт (6%)
Язык : Polish
Service kind : Complete Main
Default : Нет
Alternate group : 1
Дата кодирования : UTC 2020-09-16 12:20:30
Дата пометки : UTC 2020-09-16 12:27:31
Fallback To : 4
tagc : public.main-program-content

Текст #1
Идентификатор : 7
Формат : Timed Text
Режим смешивания : sbtl
Идентификатор кодека : tx3g
Продолжительность : 1 ч. 47 м.
Вид битрейта : Переменный
Битрейт : 65 бит/сек
Размер потока : 50,7 Кбайт (0%)
Язык : Russian
Default : Да
Forced : Нет
Alternate group : 2
Дата кодирования : UTC 2020-09-16 12:20:30
Дата пометки : UTC 2020-09-16 12:27:31
tagc : public.main-program-content

Текст #2
Идентификатор : 8
Формат : Timed Text
Режим смешивания : sbtl
Идентификатор кодека : tx3g
Продолжительность : 1 ч. 47 м.
Вид битрейта : Переменный
Битрейт : 63 бит/сек
Размер потока : 49,7 Кбайт (0%)
Язык : Ukrainian
Default : Нет
Forced : Нет
Alternate group : 2
Дата кодирования : UTC 2020-09-16 12:20:30
Дата пометки : UTC 2020-09-16 12:27:31
tagc : public.main-program-content

Текст #3
Идентификатор : 9
Формат : Timed Text
Режим смешивания : sbtl
Идентификатор кодека : tx3g
Продолжительность : 1 ч. 47 м.
Вид битрейта : Переменный
Битрейт : 32 бит/сек
Размер потока : 25,0 Кбайт (0%)
Язык : English
Default : Нет
Forced : Нет
Alternate group : 2
Дата кодирования : UTC 2020-09-16 12:20:30
Дата пометки : UTC 2020-09-16 12:27:31
tagc : public.main-program-content


Name: Эфир
Artist: Krzysztof Zanussi
Media Kind: Movie
HD Video: 1080р
Genre: история, драма, триллер, военный
Release Date: 2018-11-30T12:00:00Z
Long Description: Конец 19 века, задворки Российской Империи. Сельский доктор дает одной из своих пациенток - объекту своего вожделения - эфир. Доза оказывается смертельной и пациентка умирает. После совершенного преступления доктор вынужден бежать. Он находит работу в крепости, где продолжает свои эксперименты с эфиром как обезболивающим средством и средством контроля над людьми. Несмотря на все зло, которое он уже совершил, душа его еще может быть спасена...
Studio: Studio Filmowe Tor, Interfilm Production Studio, Studio Uljana Kim, Laokoon Filmgroup, Bielle Re, Wytwórnia Filmów Dokumentalnych i Fabularnych, PISF, The Ministry of Culture and National Heritage, Ukrainian State Film Agency, Hungarian National Film Fund, Lithuanian Film Center
Cast: Jacek Poniedziałek, Andrzej Chyra, Małgorzata Pritulak, Zsolt László, Ostap Vakulyuk, Maria Ryaboshapka, Leonardo Lacaria, Rafał Mohr, Victoria Zinny, Remo Girone, Ostap Stupka, Yaroslav Fedorchuk, Natalka Polovynka, Stanislav Kolokolnikov, Stefan Górski, Arturas Dubaka, Przemyslaw Stippa, Zsuzsa Pálos, Sebastian Pawlak, Dominik Rybiałek, Oleksandr Loginov, Maciek Hanczewski, Tural Agayev, Vasily Lukyanenko, Tadeusz Bradecki, Svetlana Kosolapova, Barbara Garstka, Dóra Sztarenki, Polett Svak, Fruzsina Háda, Olívia Csúcs, Hanna Erkel, János Hajnal, Volodymyr Antonov, Vova Makovskyi, Karolina Porcari, Diana Yurash, Dmytro Stupka, Bartłomiej Firlet, Maciej Charyton, Grazyna Zielinska, Paweł Kowalski, Artur Mikolajewski, Dariusz Karpiński, Martina Valentini Marinaz, Kinga Józsa Kovács, Artem Manuilov, Andrzej Szenajch, Leonardo Zanier, Adriano Braidotti, Hanna Zbyryt, Yevhen Malukha, Pawel Okraska, Alina Kaminska, Viktor Glushkov, Gabriela Mielzynska, Irina Melnik, Tomasz Leszczynski, Krzysztof Lazicki, Robert Kuliński, Karol Górski, Michal Dobrucki, Daniel Namiotko, Attila Pocsai, Tibor Toll, Bogdan Rybka, Oleh Tsiona, Volodymyr Ganulich, Eduard Nevedrov, Vasyl Balitskiy, Viacheslav Repin, Alla Lan, Oleksandr Chesherov, Andriy Tsyganenko, Victor Lafarovych, Taras Yurychko, Bogdan Revkevich, Vasyl Bespalenko, Ivan Oleksyn, Serhiy Yakovenko, Szilard Cservenák, Adam Ferency, Magdalena Górska, Magdalena Kuta, Marcin Bytniewski
Director: Krzysztof Zanussi
Producers: Krzysztof Zanussi, Janusz Wąchała
Executive Producer: Galina Kim
Screenwriters: Krzysztof Zanussi

Скриншоты:


Все одноименные релизы в Клубе
Время раздачи: 24/7 (до появления первых 3-5 скачавших)

Релиз подготовлен для просмотра на Apple TV, iPad, iPhone, iPod Touch.
Для просмотра данного релиза на компьютере с ОС Windows рекомендуется использовать VLC media player
Eter.2018.WEB-DL.1080p.NNMClub.m4v.torrent
 Торрент: Платиновая раздача  Зарегистрирован
 
Скачать


Примагнититься
 Зарегистрирован:   16 Сен 2020 15:35:29
 Размер:   5,91 GB  (
 Рейтинг:    (Голосов: 5)
 Поблагодарили:   46
 Проверка:   Оформление проверено модератором 16 Сен 2020 23:23:57
Как cкачать  ·  Как раздать  ·  Правильно оформить  ·  Поднять ратио!  

_________________
«Всё против нас, только ветер навстречу…».
🍏Apple iMac 21.5 (mid 2011) / Intel Core i5 2.7 GHz / AMD Radeon HD 6770M 512 Mb / 12GB DDR3 / Apple Trackpad, Apple Keyboard / macOS High Sierra 10.13.6 (17G13033)
VikusK
 
Стаж: 8 лет 7 мес.
Сообщений: 521
Ratio: 2,459
34.22%
Стоит оно того или нет?
Показать сообщения:   
Начать новую тему   Ответить на тему    Торрент-трекер NNM-Club -> Аудио и Видео -> Зарубежное видео HD для устройств Apple Часовой пояс: GMT + 3
Страница 1 из 1