Классический форум-трекер
canvas not supported
Нас вместе: 4 072 959
Loading...

Любка (2009) DVDRip


 
 
RSS
Начать новую тему   Ответить на тему    Торрент-трекер NNM-Club -> Отечественное кино -> Отечественные Фильмы (HD*Rip/LQ, DVDRip, SATRip, VHSRip)
Автор Сообщение
максим788809 ®
Стаж: 9 лет 6 мес.
Сообщений: 262
Ratio: 9,845
Поблагодарили: 14761
100%
Откуда: Мо$ква
Любка (2009) DVDRip
Год выпуска: 2009
Производство: Россия, кинокомпания "Русское"
Жанр: Драма, мелодрама

Описание фильма:
Судьба сталкивает двух девочек в самом начале их жизней. Семилетняя Любка, растущая среди уличных воров, отвлекает внимание богатой семьи на вокзале, а в этот момент у них крадут чемодан. После этого случая, «маленькая разбойница» часто представляет себя на месте хорошо одетой девочки, с мамой, папой и красивой куколкой в руках.

Прошли годы, и они вновь встречаются в далеком уральском городке, куда Ирина, уже молодой врач, попала по распределению. Ее мать, Фаина Семеновна вскоре умирает, и Ирина остается совсем одна. Она ищет няню для своей дочки. Но в маленьком городке при металлургическом комбинате трудно найти подходящую кандидатуру: основной контингент — бывшие заключенные и вольнонаемные. Девушка выбирает своенравную девицу, только-только отсидевшую срок, Любку.

Все окружающие шокированы. Они уверены: нельзя доверять бывшей зэчке, более того, она наверняка опасна для ребенка! Но Ирина Михайловна уже приняла решение: за Сонечкой будет ухаживать Любка.

Как сложится дальнейшая судьба главной героини? Помимо всего, что пришлось пережить, ей, еврейке по национальности, еще предстоит пройти по делу «убийц в белых халатах», потерять работу, пережить предательство. Окажется ли грубая уголовница Любка рядом в трудную минуту или правы окажутся коллеги и Ирина пригрела на груди настоящую змею?

Режиссер: Станислав Митин
Актеры: Елена Лядова, Анастасия Городенцева, Наталья Чернявская, Артем Артемьев, Александр Сирин, Марина Куделинская, Ольга Онищенко, Владимир Горюшин, Владимир Сычев, Тимофей Трибунцев, Владимир Шульга, Елена Дубровская, Александр Пашков, Анна Маркова, Михаил Лебедев, Ричард Бондарев

Продолжительность: 02:33:21 (00:38:07 + 00:36:32 + 00:39:45 + 00:38:57)
Качество видео: DVDRip



Видео: DivX 5, 1 661 Kbps, 704 x 384 pixels, 25.000 fps, Bits/(Pixel*Frame) : 0.246
Аудио: AC-3 , 256 Kbps, 2 channels, 48.0 KHz
General
Complete name : D:\РЕСТАВРАЦИЯ\Любка (2009)\Lubka (2009) 01.avi
Format : AVI
Format/Info : Audio Video Interleave
File size : 525 MiB
Duration : 38mn 7s
Overall bit rate : 1 926 Kbps
Writing application : FairUse Wizard - http://fairusewizard.com
Writing library : The best and REALLY easy backup tool

Video
ID : 0
Format : MPEG-4 Visual
Format settings, BVOP : 1
Format settings, QPel : No
Format settings, GMC : No warppoints
Format settings, Matrix : Default (H.263)
Muxing mode : Packed bitstream
Codec ID : DX50
Codec ID/Hint : DivX 5
Duration : 38mn 7s
Bit rate : 1 661 Kbps
Width : 704 pixels
Height : 384 pixels
Display aspect ratio : 1.85:1
Frame rate : 25.000 fps
Color space : YUV
Chroma subsampling : 4:2:0
Bit depth : 8 bits
Scan type : Progressive
Compression mode : Lossy
Bits/(Pixel*Frame) : 0.246
Stream size : 453 MiB (86%)
Writing library : DivX 6.8.3-6.8.4 (UTC 2008-06-07)

Audio
ID : 1
Format : AC-3
Format/Info : Audio Coding 3
Mode extension : CM (complete main)
Format settings, Endianness : Big
Codec ID : 2000
Duration : 38mn 7s
Bit rate mode : Constant
Bit rate : 256 Kbps
Channel(s) : 2 channels
Channel positions : Front: L R
Sampling rate : 48.0 KHz
Bit depth : 16 bits
Compression mode : Lossy
Stream size : 69.8 MiB (13%)
Alignment : Split accross interleaves
Interleave, duration : 40 ms (1.00 video frame)
Interleave, preload duration : 500 ms

General
Complete name : D:\РЕСТАВРАЦИЯ\Любка (2009)\Lubka (2009) 02.avi
Format : AVI
Format/Info : Audio Video Interleave
File size : 525 MiB
Duration : 36mn 32s
Overall bit rate : 2 009 Kbps
Writing application : FairUse Wizard - http://fairusewizard.com
Writing library : The best and REALLY easy backup tool

Video
ID : 0
Format : MPEG-4 Visual
Format settings, BVOP : 1
Format settings, QPel : No
Format settings, GMC : No warppoints
Format settings, Matrix : Default (H.263)
Muxing mode : Packed bitstream
Codec ID : DX50
Codec ID/Hint : DivX 5
Duration : 36mn 32s
Bit rate : 1 743 Kbps
Width : 704 pixels
Height : 384 pixels
Display aspect ratio : 1.85:1
Frame rate : 25.000 fps
Color space : YUV
Chroma subsampling : 4:2:0
Bit depth : 8 bits
Scan type : Progressive
Compression mode : Lossy
Bits/(Pixel*Frame) : 0.258
Stream size : 456 MiB (87%)
Writing library : DivX 6.8.3-6.8.4 (UTC 2008-06-07)

Audio
ID : 1
Format : AC-3
Format/Info : Audio Coding 3
Mode extension : CM (complete main)
Format settings, Endianness : Big
Codec ID : 2000
Duration : 36mn 32s
Bit rate mode : Constant
Bit rate : 256 Kbps
Channel(s) : 2 channels
Channel positions : Front: L R
Sampling rate : 48.0 KHz
Bit depth : 16 bits
Compression mode : Lossy
Stream size : 66.9 MiB (13%)
Alignment : Split accross interleaves
Interleave, duration : 40 ms (1.00 video frame)
Interleave, preload duration : 500 ms

General
Complete name : D:\РЕСТАВРАЦИЯ\Любка (2009)\Lubka (2009) 03.avi
Format : AVI
Format/Info : Audio Video Interleave
File size : 525 MiB
Duration : 39mn 45s
Overall bit rate : 1 846 Kbps
Writing application : FairUse Wizard - http://fairusewizard.com
Writing library : The best and REALLY easy backup tool

Video
ID : 0
Format : MPEG-4 Visual
Format settings, BVOP : 1
Format settings, QPel : No
Format settings, GMC : No warppoints
Format settings, Matrix : Default (H.263)
Muxing mode : Packed bitstream
Codec ID : DX50
Codec ID/Hint : DivX 5
Duration : 39mn 45s
Bit rate : 1 580 Kbps
Width : 704 pixels
Height : 384 pixels
Display aspect ratio : 1.85:1
Frame rate : 25.000 fps
Color space : YUV
Chroma subsampling : 4:2:0
Bit depth : 8 bits
Scan type : Progressive
Compression mode : Lossy
Bits/(Pixel*Frame) : 0.234
Stream size : 449 MiB (86%)
Writing library : DivX 6.8.3-6.8.4 (UTC 2008-06-07)

Audio
ID : 1
Format : AC-3
Format/Info : Audio Coding 3
Mode extension : CM (complete main)
Format settings, Endianness : Big
Codec ID : 2000
Duration : 39mn 45s
Bit rate mode : Constant
Bit rate : 256 Kbps
Channel(s) : 2 channels
Channel positions : Front: L R
Sampling rate : 48.0 KHz
Bit depth : 16 bits
Compression mode : Lossy
Stream size : 72.8 MiB (14%)
Alignment : Split accross interleaves
Interleave, duration : 40 ms (1.00 video frame)
Interleave, preload duration : 500 ms

General
Complete name : D:\РЕСТАВРАЦИЯ\Любка (2009)\Lubka (2009) 04.avi
Format : AVI
Format/Info : Audio Video Interleave
File size : 525 MiB
Duration : 38mn 57s
Overall bit rate : 1 883 Kbps
Writing application : FairUse Wizard - http://fairusewizard.com
Writing library : The best and REALLY easy backup tool

Video
ID : 0
Format : MPEG-4 Visual
Format settings, BVOP : 1
Format settings, QPel : No
Format settings, GMC : No warppoints
Format settings, Matrix : Default (H.263)
Muxing mode : Packed bitstream
Codec ID : DX50
Codec ID/Hint : DivX 5
Duration : 38mn 57s
Bit rate : 1 682 Kbps
Width : 704 pixels
Height : 384 pixels
Display aspect ratio : 1.85:1
Frame rate : 25.000 fps
Color space : YUV
Chroma subsampling : 4:2:0
Bit depth : 8 bits
Scan type : Progressive
Compression mode : Lossy
Bits/(Pixel*Frame) : 0.249
Stream size : 468 MiB (89%)
Writing library : DivX 6.8.3-6.8.4 (UTC 2008-06-07)

Audio
ID : 1
Format : AC-3
Format/Info : Audio Coding 3
Mode extension : CM (complete main)
Format settings, Endianness : Big
Codec ID : 2000
Duration : 38mn 57s
Bit rate mode : Constant
Bit rate : 192 Kbps
Channel(s) : 2 channels
Channel positions : Front: L R
Sampling rate : 48.0 KHz
Bit depth : 16 bits
Compression mode : Lossy
Stream size : 53.5 MiB (10%)
Alignment : Split accross interleaves
Interleave, duration : 40 ms (1.00 video frame)
Interleave, preload duration : 500 ms
Скриншоты:



Реставрация релиза: smaster67

Все релизы фильма на NNM-club
[NNM-Club.ru]_Lyubka (2009).torrent
 Торрент: Платиновая раздача  Зарегистрирован
 
Скачать


 Зарегистрирован:   12 Апр 2010 23:23:22
 Размер:   2,05 GB  (
 Рейтинг:   4,8 (Голосов: 49)
 Поблагодарили:   288
 Проверка:   Оформление проверено модератором 13 Апр 2010 09:15:40
Как cкачать  ·  Как раздать  ·  Правильно оформить  ·  Поднять ратио!  
codcodnn
Стаж: 12 лет 4 мес.
Сообщений: 66
Ratio: 6,329
22.52%
фильм супер
Ramzecas
Стаж: 9 лет 2 мес.
Сообщений: 38
Ratio: 11,081
100%
lithuania.gif
Очень, очень понравилься! Огромное спасибо +10/10 :поклоняется:
ДедАбанамат
 
Стаж: 9 лет 7 мес.
Сообщений: 1159
Ratio: 13,627
Поблагодарили: 8293
100%
Откуда: Москва - Torrevieja
spain.gif
максим788809
Большое Спасибо.Нам очень понравилось.Великолепный фильм.
smaster67
Модератор Видео
Покровитель талантов Uploader 300+
Стаж: 9 лет 10 мес.
Сообщений: 7119
Ratio: 226,822
Поблагодарили: 214703
100%
Показать сообщения:   
Начать новую тему   Ответить на тему    Торрент-трекер NNM-Club -> Отечественное кино -> Отечественные Фильмы (HD*Rip/LQ, DVDRip, SATRip, VHSRip) Часовой пояс: GMT + 3
Страница 1 из 1