Классический форум-трекер
canvas not supported
Нас вместе: 4 104 119

Неподдающиеся (1959) DVDRip


 
 
RSS
Начать новую тему   Ответить на тему    Торрент-трекер NNM-Club -> Классика кино и Старые фильмы до 90-х -> Отечественная Классика (HD*Rip/LQ, DVDRip, SATRip, VHSRip)
Автор Сообщение
viktor561 ®
Гость
Неподдающиеся (1959) DVDRip
Жанр: Комедия, Мелодрама

Описание:
Есть на заводе два паренька, два друга, из-за которых показатели молодёжной бригады вечно страдают. Уже было твёрдо решено уволить Анатолия Грачкина и его дружка Виктора Громобоева, как ребят взяла на поруки Надя Берестова, маленькая смешная девчонка, общая любимица. На собрании она пожалела друзей, а комсомольцы, не растерявшись, сразу «записали» ей поручение.
Поначалу Надя взялась за него с неохотой и опаской, но постепенно это поручение становится самым главным в жизни. Девушка настолько втягивается в дело перевоспитания, что ради своих подшефных забывает собственные привязанности.

Режиссер: Юрий Чулюкин
Актеры: Надежда Румянцева, Юрий Белов, Алексей Кожевников, Владимир Козлов, Светлана Харитонова, Юрий Никулин, Владимир Земляникин, Вера Карпова, Валерий Егоров, Константин Нассонов и др.

Продолжительность: 01:15:31



Видеокодек: DivX Codec 5.x or 6.x
Битрейт видео: ~2401 kb/s avg, 0.26 bit/pixel
Размер кадра: 704x528 (1.33:1)
Качество видео: DVDRip
Аудиокодек: MP3
Битрейт аудио: ~176.75 kbps
Общее
Полное имя : H:\фильмы\Наше кино\nepoddajuschiesja.avi
Формат : AVI
Формат/Информация : Audio Video Interleave
Размер файла : 1,37 Гбайт
Продолжительность : 1 ч. 15 м.
Режим общего битрейта : Переменный
Общий поток : 2592 Кбит/сек
Программа кодирования : VirtualDubMod 1.5.4.1 (build 2178/release)
Библиотека кодирования : VirtualDubMod build 2178/release

Видео
Идентификатор : 0
Формат : MPEG-4 Visual
Параметр BVOP формата : 1
Параметр QPel формата : Нет
Параметр GMC формата : Без точки перехода
Параметр матрицы формата : Default (H.263)
Режим смешивания : Сжатый битовый поток
Идентификатор кодека : DX50
Идентификатор кодека/Подсказка : DivX 5
Продолжительность : 1 ч. 15 м.
Битрейт : 2403 Кбит/сек
Ширина : 704 пикселя
Высота : 528 пикселей
Соотношение сторон : 4:3
Частота кадров : 25,000 кадров/сек
Цветовое пространство : YUV
Субдискретизация насыщенности : 4:2:0
Битовая глубина : 8 бит
Тип развёртки : Прогрессивная
Метод сжатия : С потерями
Бит/(Пиксели*Кадры) : 0.259
Размер потока : 1,27 Гбайт (93%)
Библиотека кодирования : DivX 6.8.0 (UTC 2007-12-04)

Аудио
Идентификатор : 1
Формат : MPEG Audio
Версия формата : Version 1
Профиль формата : Layer 3
Режим : Joint stereo
Идентификатор кодека : 55
Идентификатор кодека/Подсказка : MP3
Продолжительность : 1 ч. 15 м.
Вид битрейта : Переменный
Битрейт : 177 Кбит/сек
Номинальный битрейт : 192 Кбит/сек
Каналы : 2 канала
Частота : 48,0 КГц
Метод сжатия : С потерями
Размер потока : 95,5 Мбайт (7%)
Выравнивание : Соединение по промежуткам
Продолжительность промежутка : 24 мс. (0,60 видеокадр)
Время предзагрузки промежутка : 517 мс.
Библиотека кодирования : LAME3.97
Настройки программы : -m j -V 4 -q 2 -lowpass 18.6 --abr 192
Язык : Russian
Скриншоты:




Время раздачи: 24/7 - круглосуточно до 10 скачавших
[NNM-Club.ru]_nepoddajuschiesja.avi.torrent
 Торрент: Платиновая раздача  Зарегистрирован
 
Скачать


Примагнититься
 Зарегистрирован:   07 Апр 2011 19:30:28
 Размер:   1,37 GB  (
 Рейтинг:   4,8 (Голосов: 130)
 Поблагодарили:   363
 Проверка:   Оформление проверено модератором 08 Апр 2011 00:43:50
Как cкачать  ·  Как раздать  ·  Правильно оформить  ·  Поднять ратио!  
иж27е
Стаж: 9 лет 7 мес.
Сообщений: 45
Ratio: 4,399
100%
russia.gif
Спасибо добрый Человек!
Chench
Стаж: 10 лет 7 мес.
Сообщений: 436
Ratio: 25,186
100%
Откуда: Lanet
ukraine.gif
Отличный фильм!

_________________
Семья есть? Привет семье!
lynx-mag
Стаж: 9 лет 11 мес.
Сообщений: 91
Ratio: 1,108
Поблагодарили: 501
100%
russia.gif
сенкс!
handroid
Стаж: 8 лет 6 мес.
Сообщений: 74
Ratio: 20,24
100%
ussr.gif
Спасибо!
cizov
Стаж: 10 лет 6 мес.
Сообщений: 129
Ratio: 15,158
100%
russia.gif
Огромное спасибо
maykov
RG Music
 
Стаж: 10 лет 10 мес.
Сообщений: 7466
Ratio: 820,064
Поблагодарили: 593898
100%
Откуда: Киев
ukraine.gif
Бомба
Показать сообщения:   
Начать новую тему   Ответить на тему    Торрент-трекер NNM-Club -> Классика кино и Старые фильмы до 90-х -> Отечественная Классика (HD*Rip/LQ, DVDRip, SATRip, VHSRip) Часовой пояс: GMT + 3
Страница 1 из 1