Классический форум-трекер
canvas not supported
Нас вместе: 4 078 900

Мистер Биг: обратно в Будокан 2009 / Mr.Big: back to Budokan 2009 (2009) DVDRip


 
 
RSS
Начать новую тему   Ответить на тему    Торрент-трекер NNM-Club -> Архив торрентов -> Архив Музыкального Видео
Автор Сообщение
DonSanches ®
Стаж: 7 лет 11 мес.
Сообщений: 4
Ratio: 13,279
Поблагодарили: 12
1.54%
Мистер Биг: обратно в Будокан 2009 / Mr.Big: back to Budokan 2009 (2009) DVDRip
Исполнитель: Mr.Big
Название: Back to Budokan
Год выпуска: 2009
Жанр: Концерт

Описание:
Back to Budokan концерт рок-группы Mr.Big, вышедший впоследствии на CD и DVD. Концерт был записан на арене Будокан в Токио, Япония 20 июня 2009 года.

Треклист:
01. "Daddy, Brother, Lover, Little Boy (The Electric Drill Song)" - 4:48
02. "Take Cover" - 4:46
03. "Green-Tinted Sixties Mind" - 3:53
04. "Alive and Kickin'" - 5:39
05. "Next Time Around" - 4:31
06. "Hold Your Head Up" - 5:37
07. "Just Take My Heart" - 4:46
08. "Temperamental" - 5:56
09. "It's for You ~ Mars" - 3:43 (Cilla Black and Gustav Holst covers)
10. "Pat Torpey Drum Solo" - 5:04
11. "Price You Gotta Pay" - 5:28
12. "Stay Together" - 3:39
13. "Wild World" - 4:18 (Cat Stevens cover)
14. "Goin' Where The Wind Blows" - 5:14
15. "Take A Walk" - 4:29
16. "Paul Gilbert Guitar Solo" - 3:46
17. "Paul Gilbert and Billy Sheehan Duo" - 3:09
18. "Double Human Capo" - 1:08
19. "The Whole World's Gonna Know" - 4:02
20. "Promise Her The Moon" - 4:16
21. "Rock & Roll Over" - 4:13
22. "Billy Sheehan Bass Solo" - 6:04
23. "Addicted To That Rush" - 9:04
24. "Introducing The Band" - 2:00
25. "To Be with You" - 3:58
26. "Colorado Bulldog" - 4:49
27. "Smoke on the Water" - 6:32 (Deep Purple cover)
28. "I Love You Japan" - 1:55
29. "Baba O'Riley" - 6:05 (The Who cover)
30. "Shyboy" - 5:12 (Talas cover)
31. "Next Time Around [Studio Version]" - 3:38
32. "Hold Your Head Up [Studio Version]" (Argent cover) - 4:36
33. "To Be with You [Acoustic Version]" - 3:50
Продолжительность: 02:20:37
Состав: Eric Martin – lead vocals, Paul Gilbert – guitar & vocals, Billy Sheehan – bass guitar & vocals, Pat Torpey – drums & vocals

Видеокодек: Xvid
Битрейт видео: ~1 625 Kbps
Размер кадра: 704х384
Качество видео: DVDRip
Аудиокодек: AC3 5.1
Битрейт аудио: 448 Kbps CBR
Код:

       Полное имя                               : Z:\Концерты\Mr_Big_Back_To_Budokan_2009.avi
Формат                                   : AVI
Формат/Информация                        : Audio Video Interleave
Размер файла                             : 2,05 Гбайт
Продолжительность                        : 2 ч. 20 м.
Общий поток                              : 2082 Кбит/сек
Программа кодирования                    : VirtualDubMod 1.5.10.3 | www.virtualdub-fr.org || (build 2550/release)
Библиотека кодирования                   : VirtualDubMod build 2550/release

Видео
Идентификатор                            : 0
Формат                                   : MPEG-4 Visual
Профиль формата                          : Advanced Simple@L5
Параметр BVOP формата                    : 1
Параметр QPel формата                    : Нет
Параметр GMC формата                     : Без точки перехода
Параметр матрицы формата                 : Выборочная
Режим смешивания                         : Сжатый битовый поток
Идентификатор кодека                     : XVID
Идентификатор кодека/Подсказка           : XviD
Продолжительность                        : 2 ч. 20 м.
Битрейт                                  : 1625 Кбит/сек
Ширина                                   : 704 пикселя
Высота                                   : 384 пикселя
Соотношение сторон                       : 1,85:1
Частота кадров                           : 23,976 кадра/сек
Цветовое пространство                    : YUV
Субдискретизация насыщенности            : 4:2:0
Битовая глубина                          : 8 бит
Тип развёртки                            : Прогрессивная
Метод сжатия                             : С потерями
Бит/(Пиксели*Кадры)                      : 0.251
Размер потока                            : 1,60 Гбайт (78%)
Библиотека кодирования                   : XviD 1.2.1 (UTC 2008-12-04)

Аудио
Идентификатор                            : 1
Формат                                   : AC-3
Формат/Информация                        : Audio Coding 3
Расширение режима                        : CM (complete main)
Параметр Endianness формата              : Big
Идентификатор кодека                     : 2000
Продолжительность                        : 2 ч. 20 м.
Вид битрейта                             : Постоянный
Битрейт                                  : 448 Кбит/сек
Каналы                                   : 6 каналов
Расположение каналов                     : Front: L C R, Side: L R, LFE
Частота                                  : 48,0 КГц
Битовая глубина                          : 16 бит
Метод сжатия                             : С потерями
Размер потока                            : 451 Мбайт (22%)
Выравнивание                             : Разделение по промежуткам
Продолжительность промежутка             : 42  мс. (1,00 видеокадр)
Время предзагрузки промежутка            : 500  мс.         
Скриншоты:
Время раздачи: круглосуточно
[NNM-Club.ru]_Mr_Big_Back_To_Budokan_2009.avi.torrent
 Торрент: Золотая раздача  Зарегистрирован
 
Зарегистрируйтесь и скачайте торрент!
10,5 KB

Примагнититься
 Зарегистрирован:   28 Ноя 2011 21:48:20
 Размер:   2,05 GB  (
 Рейтинг:    (Голосов: 4)
 Поблагодарили:   12
 Проверка:   Оформление проверено модератором 30 Ноя 2011 04:01:39
Как cкачать  ·  Как раздать  ·  Правильно оформить  ·  Поднять ратио!  
Загрузка...
Топик был перенесен из форума Концерты в форум Архив Музыкального Видео

Причина переноса: Раздающего не было более месяца.
Robert Ingil
Показать сообщения:   
Начать новую тему   Ответить на тему    Торрент-трекер NNM-Club -> Архив торрентов -> Архив Музыкального Видео Часовой пояс: GMT + 3
Страница 1 из 1