Классический форум-трекер
canvas not supported
Нас вместе: 4 077 794

Приключения Незнайки и его друзей (Коротышки из Цветочного города) (1971) DVDRip


 
 
RSS
Начать новую тему   Ответить на тему    Торрент-трекер NNM-Club -> Мультфильмы -> Отечественные Мультфильмы для детей
Автор Сообщение
SerVR ®
Стаж: 12 лет
Сообщений: 9
Ratio: 16,225
Поблагодарили: 1031
7.05%
russia.gif
Приключения Незнайки и его друзей (Коротышки из Цветочного города) (1971) DVDRip
Жанр: Кукольный
Производство: Союзмультфильм
Режиссер: Ю.Трофимов, Ю.Клепацкий, К.Малянтович
Актеры: З.Гердт, Р.Зелёная, М.Корабельникова, М.Виноградова и др.


Описание:
О самом известном среди коротышек, живущих в Цветочном городе, малыше Незнайке, который прославился тем, что ничего не знал, но сочинял разные небылицы и поэтому частенько попадал в самые невероятные истории.
Фильм первый - Коротышки из Цветочного города,
Фильм второй - Незнайка за рулём,
Фильм третий - Незнайка-музыкант,
Фильм четвёртый - Незнайка-поэт,
Фильм пятый - Незнайка-художник.




Продолжительность: 01:27:00

Видеокодек: XviD
Битрейт видео: ~2402 кб/с
Размер кадра: 640 х 512
Качество видео: DVDRip
Аудиокодек: MP3, 2ch
Битрейт аудио: 128 кб/с VBR
General
Format : AVI
Format/Info : Audio Video Interleave
File size : 700 MiB
Duration : 38mn 25s
Overall bit rate mode : Variable
Overall bit rate : 2 547 Kbps
Writing application : VirtualDubMod 1.5.10.2 (build 2540/release)
Writing library : VirtualDubMod build 2540/release

Video
ID : 0
Format : MPEG-4 Visual
Format profile : Advanced Simple@L5
Format settings, BVOP : 2
Format settings, QPel : Yes
Format settings, GMC : No warppoints
Format settings, Matrix : Default (MPEG)
Muxing mode : Packed bitstream
Codec ID : XVID
Codec ID/Hint : XviD
Duration : 38mn 25s
Bit rate : 2 402 Kbps
Width : 640 pixels
Height : 512 pixels
Display aspect ratio : 4:3
Frame rate : 25.000 fps
Color space : YUV
Chroma subsampling : 4:2:0
Bit depth : 8 bits
Scan type : Progressive
Compression mode : Lossy
Bits/(Pixel*Frame) : 0.293
Stream size : 660 MiB (94%)
Writing library : XviD 1.0.3 (UTC 2004-12-20)

Audio
ID : 1
Format : MPEG Audio
Format version : Version 1
Format profile : Layer 3
Mode : Joint stereo
Mode extension : MS Stereo
Codec ID : 55
Codec ID/Hint : MP3
Duration : 38mn 25s
Bit rate mode : Variable
Bit rate : 128 Kbps
Channel(s) : 2 channels
Sampling rate : 48.0 KHz
Compression mode : Lossy
Stream size : 36.2 MiB (5%)
Alignment : Aligned on interleaves
Interleave, duration : 24 ms (0.60 video frame)
Interleave, preload duration : 494 ms
Writing library : LAME3.90.
Encoding settings : -m j -V 4 -q 2 -lowpass 17.6 --abr 128
Скриншоты:
Реставрация от: Ден Казаров
Unknown.torrent
 Торрент: Платиновая раздача  Зарегистрирован
 
Скачать


 Зарегистрирован:   12 Ноя 2007 19:11:05
 Размер:   1,37 GB  (
 Рейтинг:   4,6 (Голосов: 56)
 Поблагодарили:   229
 Проверка:   Оформление проверено модератором 12 Ноя 2007 21:02:21
Как cкачать  ·  Как раздать  ·  Правильно оформить  ·  Поднять ратио!  
LET
Инквизитор
Стаж: 12 лет 6 мес.
Сообщений: 4888
Ratio: 85,027
Поблагодарили: 19552
100%
ussr.gif
SerVR
Добавьте пожалуйста скриншоты. Скриншотов должно быть не меньше трех, но не более пяти штук.

_________________
rgo
Стаж: 12 лет 5 мес.
Сообщений: 29
Ratio: 31,754
18.6%
russia.gif
Спасибо качаю!
SerVR ®
Стаж: 12 лет
Сообщений: 9
Ratio: 16,225
Поблагодарили: 1031
7.05%
russia.gif
Дело сделано.
Показать сообщения:   
Начать новую тему   Ответить на тему    Торрент-трекер NNM-Club -> Мультфильмы -> Отечественные Мультфильмы для детей Часовой пояс: GMT + 3
Страница 1 из 1