Классический форум-трекер
canvas not supported
Нас вместе: 4 094 202

Звёздный Крейсер Галактика / BattleStar Galactica (2004-2010) HDTVRip [полная хронология]


Страницы:  1, 2, 3  След. 
 
RSS
Начать новую тему   Ответить на тему    Торрент-трекер NNM-Club -> Зарубежные сериалы -> Звездный Крейсер Галактика / BattleStar Galactica
Автор Сообщение
SidAlGen ®
Стаж: 10 лет 3 мес.
Сообщений: 49
Ratio: 4,872
Поблагодарили: 1223
100%
Откуда: С высоких берегов Амура
russia.gif
Звёздный Крейсер Галактика / BattleStar Galactica (2004-2010) HDTVRip [полная хронология]
Русское название: Звёздный Крейсер Галактика
Оригинальное название: BattleStar Galactica
Год выпуска: 2003-2010
Жанр: Фантастика, Боевик, Приключения

Перевод: Многоголосый закадровый, профессиональный
Озвучка / Автор перевода: LostFilm



Режиссер: Майкл Раймер, Феликс Энрикез Алькала, Майкл Нанкин, Жонас Пате, Эдвард Джеймс Олмос
Актеры: Эдвард Джеймс Олмос, Мэри МакДоннелл, Джейми Бамбер, Джеймс Кэллис, Тришиа Хелфер, Грейс Пак, Кэти Сакхофф, Майкл Хоган, Аарон Дуглас, Тамо Пеникетт

Описание фильма:
Чудом уцелев после нападения Сайлонов на колонии Кобола, гражданский колониальный флот в сопровождении Звёздного крейсера Галактика летит прочь от мест, где их могут найти вражеские силы. Восстановив гражданское правительство и собрав все имеющиеся силы, остатки человечества начинают неравную борьбу со временем, обстоятельствами и Сайлонами. Разбираясь с всё новыми внешними и внутренними проблемами, постепенно раскрывая личности 12 человекоподобных моделей Сайлонов, они летят на поиски давно потерянной 13 колонии Кобола, упоминания о которой есть в древних сказаниях, нового дома, имя которому — Земля.
Milanisto91:
Что и за чем смотреть. Предупреждаю сразу, что не всегда все должно в хронологическом порядке идти. По крайне мере во время первого просмотра сериала. Почему, напишу ниже, в самом списке. В списке есть ссылки на все сезоны, вебэпизоды и фильмы. Ну, собственно список:

"Каприка"

Сериал "Каприка" - приквел к БСГ, который начали снимать не так давно. И уже успели закрыть. В принципе, его можно смотреть когда угодно. Если учитывать хронологию событий, то его нужно смотреть до БСГ. НО! Есть вероятность, что это может немного испортить впечатление от просмтора БСГ, т. к. в "Каприке" раскрывается происхождение сайлонов. И вообще, есть спойлеры.

Когда смотреть "Каприку" - решать Вам!
Если хотите хронологию событий, то его нужно смотреть до БСГ, если же по годам выхода этих двух сериалов, то после БСГ.
Я же, для первого просмотра, рекомендую смотреть в той последовательности, которую нам предлагают создатели сериала - после БСГ, а не в хронологии.

1. мини-сериал - пилотная серия (3 часа)

2. 1 сезон(целиком)

3. 2 сезон (целиком)

4. webisode 1-10 - по порядку:
1-6 вебизоды

7 вебизод

8 вебизод

9 вебизод

10 вебизод

5. 3 сезон - по порядку

6. Сезон 3.5 "Лезвие - ретроспекция" - по порядку:

1 эпизод

2 эпизод

3 эпизод

4 эпизод

5 эпизод

6 эпизод

7 эпизод

7. "Лезвие"

Действие фильма происходит между 2.17 и 2.19й сериями, но при первом просмотре лучше смотреть после третьего сезона. Обусловлено тем же, что и "Каприка" - имеются спойлеры, посему в первый раз лучше смотреть НЕ в хронологии, а так, как написано выше. Так задумано самими создателями сериала. Снималось не в хронологии, а в такой последовательности (смотрите даты выхода сериала на экраны).

8. "Звездный крейсер Галактика - Разоблачение."

9.1 Сезон 4, 1-11 серии

9.2 после одиннадцатой серии смотрим "Лицо врага"

9.3 Сезон 4, 12-20 серии (до конца)

10. "Звездный крейсер Галактика: План".

Действие происходит от минисерий до конца второго сезона, но при первом просмотре лучше смотреть после финала. Все та же причина - спойлеры. Категорически не советую в первый раз смотреть в полной хронологии. Снимали сериал и фильмы НЕ в хронологии, потому и последовательность не в полной хронологии.
Правильнее, по моему, уже не куда. Вроде все разжевал как мог.
1_Минисериал\Battlestar.Galactica.Miniseries.rus.LostFilm.TV.avi
Format : AVI
Format/Info : Audio Video Interleave
Format profile : OpenDML
File size : 2.39 GiB
Duration : 3h 2mn
Overall bit rate : 1 872 Kbps
Writing application : Nandub v1.0rc2
Writing library : Nandub build 1853/release

Video
ID : 0
Format : MPEG-4 Visual
Format profile : Simple@L3
Format settings, BVOP : 1
Format settings, QPel : No
Format settings, GMC : No warppoints
Format settings, Matrix : Custom
Codec ID : XVID
Codec ID/Hint : XviD
Duration : 3h 2mn
Bit rate : 1 728 Kbps
Width : 720 pixels
Height : 416 pixels
Display aspect ratio : 16:9
Frame rate : 23.976 fps
Color space : YUV
Chroma subsampling : 4:2:0
Bit depth : 8 bits
Scan type : Progressive
Compression mode : Lossy
Bits/(Pixel*Frame) : 0.241
Stream size : 2.20 GiB (92%)
Writing library : XviD 1.0.3 (UTC 2004-12-20)

Audio
ID : 1
Format : MPEG Audio
Format version : Version 1
Format profile : Layer 3
Mode : Joint stereo
Mode extension : MS Stereo
Codec ID : 55
Codec ID/Hint : MP3
Duration : 3h 2mn
Bit rate mode : Constant
Bit rate : 128 Kbps
Channel(s) : 2 channels
Sampling rate : 48.0 KHz
Compression mode : Lossy
Stream size : 167 MiB (7%)
Alignment : Aligned on interleaves
Interleave, duration : 24 ms (0.58 video frame)
Interleave, preload duration : 480 ms
Продолжительность: 3:02:34
Видеокодек: XviD
Битрейт видео: 1737 kbps
Размер кадра: 720x416 (1.73:1), 23.976 fps,
Аудиокодек: 48 kHz, MPEG Layer 3, 2 ch
Битрейт аудио: ~128.00

Скриншоты:
BSG.s01e01.rus.Lostfilm.TV.avi
Format : AVI
Format/Info : Audio Video Interleave
File size : 311 MiB
Duration : 45mn 1s
Overall bit rate : 965 Kbps
Writing application : Nandub v1.0rc2
Writing library : Nandub build 1852/release

Video
ID : 0
Format : MPEG-4 Visual
Format profile : Simple@L3
Format settings, BVOP : 1
Format settings, QPel : No
Format settings, GMC : No warppoints
Format settings, Matrix : Custom
Codec ID : XVID
Codec ID/Hint : XviD
Duration : 45mn 1s
Bit rate : 824 Kbps
Width : 624 pixels
Height : 352 pixels
Display aspect ratio : 16:9
Frame rate : 23.976 fps
Color space : YUV
Chroma subsampling : 4:2:0
Bit depth : 8 bits
Scan type : Progressive
Compression mode : Lossy
Bits/(Pixel*Frame) : 0.156
Stream size : 265 MiB (85%)
Writing library : XviD 1.0.3 (UTC 2004-12-20)

Audio
ID : 1
Format : MPEG Audio
Format version : Version 1
Format profile : Layer 3
Mode : Joint stereo
Codec ID : 55
Codec ID/Hint : MP3
Duration : 45mn 1s
Bit rate mode : Constant
Bit rate : 128 Kbps
Channel(s) : 2 channels
Sampling rate : 48.0 KHz
Compression mode : Lossy
Stream size : 41.2 MiB (13%)
Alignment : Aligned on interleaves
Interleave, duration : 24 ms (0.58 video frame)
Interleave, preload duration : 480 ms
1. Тридцать три. (33).
2. Вода (Water).
3. День взятия Бастилии (Bastille Day).
4. Жест раскаяния (Act of Contrition).
5. Домой ты больше не вернёшься. (You Can't Go Home Again).
6. Лакмус (Litmus).
7. Шесть степеней расставания (Six Degreеs of Separation).
8. Плоть и кости (Flesh and Bone).
9. СпуТАЙ меня, запуТАЙ меня. (Tigh Me Up Tigh Me Down).
10. Рука Божья (Hand of God).
11. День Колоний (Colonial Day).
12. Последнее сияние Кобола, часть 1 (Kobol's Last Gleamin', part 1).
13. Последнее сияние Кобола, часть 2 (Kobol's Last Gleamin', part 2).
Продолжительность: 13 x ~00:45
Видеокодек: XviD
Битрейт видео: ~900 kbps
Размер кадра: 624x352
Аудиокодек: 48 kHz, MPEG Layer 3, 2 ch
Битрейт аудио: ~128.00

Скриншоты:
BSG.s02e01.rus.LostFilm.TV.avi
Format : AVI
Format/Info : Audio Video Interleave
Format profile : OpenDML
Format settings : rec
File size : 567 MiB
Duration : 43mn 59s
Overall bit rate mode : Variable
Overall bit rate : 1 801 Kbps
Writing application : AVI-Mux GUI 1.17.8.3, Feb 16 201019:42:50

Video
ID : 0
Format : MPEG-4 Visual
Format profile : Simple@L3
Format settings, BVOP : 1
Format settings, QPel : No
Format settings, GMC : No warppoints
Format settings, Matrix : Custom
Codec ID : XVID
Codec ID/Hint : XviD
Duration : 43mn 59s
Bit rate : 1 584 Kbps
Width : 624 pixels
Height : 352 pixels
Display aspect ratio : 16:9
Frame rate : 23.976 fps
Color space : YUV
Chroma subsampling : 4:2:0
Bit depth : 8 bits
Scan type : Progressive
Compression mode : Lossy
Bits/(Pixel*Frame) : 0.301
Stream size : 499 MiB (88%)
Writing library : XviD 1.0.3 (UTC 2004-12-20)

Audio
ID : 1
Format : MPEG Audio
Format version : Version 1
Format profile : Layer 3
Codec ID : 55
Codec ID/Hint : MP3
Duration : 43mn 59s
Bit rate mode : Variable
Bit rate : 208 Kbps
Channel(s) : 2 channels
Sampling rate : 44.1 KHz
Compression mode : Lossy
Stream size : 65.4 MiB (12%)
Alignment : Aligned on interleaves
Interleave, duration : 26 ms (0.63 video frame)
Interleave, preload duration : 98 ms
Title : 2x01_RUS_audio
1). Разброд (Scattered).
2). Долина Тени (Valley of Darkness).
3). Удар в спину (Fragged).
4). Сопротивление (Resistance).
5). Ферма (The Farm).
6). Дом. Часть 1 (Home. Part 1).
7). Дом. Часть 2 (Home. Part 2).
8). Окончательный монтаж / Final Cut).
9). Полет Феникса (Flight of the Phoenix).
10). "Пегас" (расширенная версия)(Pegasus (extended cut)).
11). Корабль Воскрешения. Часть 1 (Resurrection Ship. Part 1).
12). Корабль Воскрешения. Часть 2 (Resurrection Ship. Part 2).
13). Прозрения (Epiphanies).
14). Черный рынок (Black Market).
15). Шрам (Scar).
16). Жертвоприношение (Sacrifice).
17). Помощь капитана (Captain's Hand).
18). Загруженные (Downloaded).
19). Сбросьте бремя своё. Часть 1 (Lay Down Your Burdens. Part 1).
20). Сбросьте бремя своё. Часть 2 (Lay Down Your Burdens. Part 2).
Продолжительность: 13 x ~00:45
Видеокодек: XviD
Битрейт видео: ~1560 kbps
Размер кадра: 624x352
Аудиокодек: 44 kHz, MPEG Layer 3, 2 ch
Битрейт аудио: ~128.00

Скриншоты:
The.Resistance.Webisode.01.rus.lostfilm.avi
Format : AVI
Format/Info : Audio Video Interleave
File size : 20.0 MiB
Duration : 4mn 3s
Overall bit rate : 688 Kbps
Writing application : Nandub v1.0rc2
Writing library : Nandub build 1853/release

Video
ID : 0
Format : MPEG-4 Visual
Format profile : Simple@L1
Format settings, BVOP : No
Format settings, QPel : No
Format settings, GMC : No warppoints
Format settings, Matrix : Default (H.263)
Codec ID : DIVX
Codec ID/Info : Project Mayo
Codec ID/Hint : DivX 4
Duration : 4mn 3s
Bit rate : 547 Kbps
Width : 320 pixels
Height : 240 pixels
Display aspect ratio : 4:3
Frame rate : 25.000 fps
Color space : YUV
Chroma subsampling : 4:2:0
Bit depth : 8 bits
Scan type : Progressive
Compression mode : Lossy
Bits/(Pixel*Frame) : 0.285
Stream size : 15.9 MiB (79%)

Audio
ID : 1
Format : MPEG Audio
Format version : Version 1
Format profile : Layer 3
Mode : Joint stereo
Mode extension : MS Stereo
Codec ID : 55
Codec ID/Hint : MP3
Duration : 4mn 3s
Bit rate mode : Constant
Bit rate : 128 Kbps
Channel(s) : 2 channels
Sampling rate : 48.0 KHz
Compression mode : Lossy
Stream size : 3.71 MiB (19%)
Alignment : Aligned on interleaves
Interleave, duration : 24 ms (0.60 video frame)
Interleave, preload duration : 480 ms
Продолжительность: 10 x ~00:04
Видеокодек: DivX
Битрейт видео: ~700 ~1500 kbps
Размер кадра: 720x544 320x240
Аудиокодек: 48 kHz, MPEG Layer 3, 2 ch
Битрейт аудио: ~128.00

Скриншоты:
Battlestar.Galactica.s03e01.rus.lostfilm.tv.avi
Format : AVI
Format/Info : Audio Video Interleave
File size : 346 MiB
Duration : 44mn 6s
Overall bit rate : 1 098 Kbps
Writing application : Nandub v1.0rc2
Writing library : Nandub build 1853/release

Video
ID : 0
Format : MPEG-4 Visual
Format profile : Advanced Simple@L5
Format settings, BVOP : 2
Format settings, QPel : No
Format settings, GMC : No warppoints
Format settings, Matrix : Default (H.263)
Muxing mode : Packed bitstream
Codec ID : XVID
Codec ID/Hint : XviD
Duration : 44mn 6s
Bit rate : 957 Kbps
Width : 640 pixels
Height : 352 pixels
Display aspect ratio : 16:9
Frame rate : 23.976 fps
Color space : YUV
Chroma subsampling : 4:2:0
Bit depth : 8 bits
Scan type : Progressive
Compression mode : Lossy
Bits/(Pixel*Frame) : 0.177
Stream size : 302 MiB (87%)
Writing library : XviD 1.0.3 (UTC 2004-12-20)

Audio
ID : 1
Format : MPEG Audio
Format version : Version 1
Format profile : Layer 3
Mode : Joint stereo
Mode extension : MS Stereo
Codec ID : 55
Codec ID/Hint : MP3
Duration : 44mn 6s
Bit rate mode : Constant
Bit rate : 128 Kbps
Channel(s) : 2 channels
Sampling rate : 48.0 KHz
Compression mode : Lossy
Stream size : 40.4 MiB (12%)
Alignment : Aligned on interleaves
Interleave, duration : 24 ms (0.58 video frame)
Interleave, preload duration : 480 ms
1). Оккупация (Occupation).
2). Провал (Precipice).
3). Исход: Часть 1 (Exodus: Part 1).
4). Исход: Часть 2 (Exodus: Part 2).
5). Пособники (Collaborators).
6). Раскол (Torn).
7). Цена спасения (A Measure of Salvation).
8). Герой (Hero).
9). Неоконченные дела (Unfinished Business).
10). The Passage.
11). Глаз Юпитера (The Eye of Jupiter).
12). Вознесение (Rapture).
13). Takin' a Break from All Your Worries.
14). Женщина по имени Кинг (The Woman King).
15). Один день из жизни (A Day In The Life).
16). Dirty Hands.
17). Водоворот (Maelstrom).
18). Сын выходит из тени (The Son Also Rises).
19). Перекрёстки часть 1 (Crossroads: Part 1).
20). Перекрёстки: часть 2 (Crossroads: Part 2).
Продолжительность: 20 x ~00:45
Видеокодек: XviD
Битрейт видео: ~1000 kbps
Размер кадра: 640x352
Аудиокодек: 48 kHz, MPEG Layer 3, 2 ch
Битрейт аудио: ~128.00

Скриншоты:
Battlestar.Galactica.S03E01.rus.LostFilm.TV.avi
Format : AVI
Format/Info : Audio Video Interleave
File size : 346 MiB
Duration : 44mn 6s
Overall bit rate : 1 098 Kbps
Writing application : Nandub v1.0rc2
Writing library : Nandub build 1853/release

Video
ID : 0
Format : MPEG-4 Visual
Format profile : Advanced Simple@L5
Format settings, BVOP : 2
Format settings, QPel : No
Format settings, GMC : No warppoints
Format settings, Matrix : Default (H.263)
Muxing mode : Packed bitstream
Codec ID : XVID
Codec ID/Hint : XviD
Duration : 44mn 6s
Bit rate : 957 Kbps
Width : 640 pixels
Height : 352 pixels
Display aspect ratio : 16:9
Frame rate : 23.976 fps
Color space : YUV
Chroma subsampling : 4:2:0
Bit depth : 8 bits
Scan type : Progressive
Compression mode : Lossy
Bits/(Pixel*Frame) : 0.177
Stream size : 302 MiB (87%)
Writing library : XviD 1.0.3 (UTC 2004-12-20)

Audio
ID : 1
Format : MPEG Audio
Format version : Version 1
Format profile : Layer 3
Mode : Joint stereo
Mode extension : MS Stereo
Codec ID : 55
Codec ID/Hint : MP3
Duration : 44mn 6s
Bit rate mode : Constant
Bit rate : 128 Kbps
Channel(s) : 2 channels
Sampling rate : 48.0 KHz
Compression mode : Lossy
Stream size : 40.4 MiB (12%)
Alignment : Aligned on interleaves
Interleave, duration : 24 ms (0.58 video frame)
Interleave, preload duration : 480 ms
Лезвие - Ретроспекция, эпизод первый.
Лезвие - Ретроспекция, "В Ангаре".
Лезвие - Ретроспекция, "Коготь Рэптора".
Лезвие - Ретроспекция, "Свободное падение".
Лезвие - Ретроспекция, "Лаборатория".
Лезвие - Ретроспекция, эпизод 6.
Лезвие - Ретроспекция, эпизод 7.
Продолжительность: 07 x ~00:45
Видеокодек: XviD
Битрейт видео: ~1000 kbps
Размер кадра: 640x352
Аудиокодек: 48 kHz, MPEG Layer 3, 2 ch
Битрейт аудио: ~128.00

Скриншоты:
Battlestar.Galactica.Razor.rus.Lostfilm.tv.avi
Format : AVI
Format/Info : Audio Video Interleave
File size : 655 MiB
Duration : 1h 43mn
Overall bit rate mode : Variable
Overall bit rate : 884 Kbps
Writing application : Nandub v1.0rc2
Writing library : Nandub build 1853/release

Video
ID : 0
Format : MPEG-4 Visual
Format profile : Simple@L3
Format settings, BVOP : 2
Format settings, QPel : No
Format settings, GMC : No warppoints
Format settings, Matrix : Default (H.263)
Muxing mode : Packed bitstream
Codec ID : XVID
Codec ID/Hint : XviD
Duration : 1h 43mn
Bit rate : 764 Kbps
Width : 624 pixels
Height : 336 pixels
Display aspect ratio : 1.857
Frame rate : 23.976 fps
Color space : YUV
Chroma subsampling : 4:2:0
Bit depth : 8 bits
Scan type : Progressive
Compression mode : Lossy
Bits/(Pixel*Frame) : 0.152
Stream size : 566 MiB (86%)
Writing library : XviD 1.0.3 (UTC 2004-12-20)

Audio
ID : 1
Format : MPEG Audio
Format version : Version 1
Format profile : Layer 3
Mode : Joint stereo
Codec ID : 55
Codec ID/Hint : MP3
Duration : 1h 43mn
Bit rate mode : Variable
Bit rate : 107 Kbps
Channel(s) : 2 channels
Sampling rate : 48.0 KHz
Compression mode : Lossy
Stream size : 79.6 MiB (12%)
Alignment : Aligned on interleaves
Interleave, duration : 24 ms (0.58 video frame)
Interleave, preload duration : 480 ms
Продолжительность: 01:43
Видеокодек: XviD
Битрейт видео: ~1000 kbps
Размер кадра: 624x336
Аудиокодек: 48 kHz, MPEG Layer 3, 2 ch
Битрейт аудио: ~107.00

Скриншоты:
Battlestar.Galactica.Revealed.rus.LostFilm.TV.avi
Format : AVI
Format/Info : Audio Video Interleave
File size : 176 MiB
Duration : 21mn 40s
Overall bit rate : 1 133 Kbps
Writing application : Nandub v1.0rc2
Writing library : Nandub build 1853/release

Video
ID : 0
Format : MPEG-4 Visual
Format profile : Advanced Simple@L5
Format settings, BVOP : 2
Format settings, QPel : No
Format settings, GMC : No warppoints
Format settings, Matrix : Default (H.263)
Codec ID : XVID
Codec ID/Hint : XviD
Duration : 21mn 40s
Bit rate : 993 Kbps
Width : 624 pixels
Height : 352 pixels
Display aspect ratio : 16:9
Frame rate : 23.976 fps
Color space : YUV
Chroma subsampling : 4:2:0
Bit depth : 8 bits
Scan type : Progressive
Compression mode : Lossy
Bits/(Pixel*Frame) : 0.188
Stream size : 154 MiB (88%)
Writing library : XviD 1.2.0SMP (UTC 2006-01-08)

Audio
ID : 1
Format : MPEG Audio
Format version : Version 1
Format profile : Layer 3
Mode : Joint stereo
Mode extension : MS Stereo
Codec ID : 55
Codec ID/Hint : MP3
Duration : 21mn 40s
Bit rate mode : Constant
Bit rate : 128 Kbps
Channel(s) : 2 channels
Sampling rate : 48.0 KHz
Compression mode : Lossy
Stream size : 19.8 MiB (11%)
Alignment : Aligned on interleaves
Interleave, duration : 24 ms (0.58 video frame)
Interleave, preload duration : 480 ms
Продолжительность: 00:21:40
Видеокодек: XviD
Битрейт видео: ~1000 kbps
Размер кадра: 624x352
Аудиокодек: 48 kHz, MPEG Layer 3, 2 ch
Битрейт аудио: ~128.00

Скриншоты:
Battlestar.Galactica.s04e01.rus.LostFilm.TV.avi
Format : AVI
Format/Info : Audio Video Interleave
File size : 350 MiB
Duration : 42mn 58s
Overall bit rate : 1 140 Kbps
Writing application : Nandub v1.0rc2
Writing library : Nandub build 1853/release

Video
ID : 0
Format : MPEG-4 Visual
Format profile : Advanced Simple@L5
Format settings, BVOP : 2
Format settings, QPel : No
Format settings, GMC : No warppoints
Format settings, Matrix : Default (H.263)
Muxing mode : Packed bitstream
Codec ID : XVID
Codec ID/Hint : XviD
Duration : 42mn 58s
Bit rate : 999 Kbps
Width : 624 pixels
Height : 352 pixels
Display aspect ratio : 16:9
Frame rate : 23.976 fps
Color space : YUV
Chroma subsampling : 4:2:0
Bit depth : 8 bits
Scan type : Progressive
Compression mode : Lossy
Bits/(Pixel*Frame) : 0.190
Stream size : 307 MiB (88%)
Writing library : XviD 1.1.2 (UTC 2006-11-01)

Audio
ID : 1
Format : MPEG Audio
Format version : Version 1
Format profile : Layer 3
Mode : Joint stereo
Mode extension : MS Stereo
Codec ID : 55
Codec ID/Hint : MP3
Duration : 42mn 58s
Bit rate mode : Constant
Bit rate : 128 Kbps
Channel(s) : 2 channels
Sampling rate : 48.0 KHz
Compression mode : Lossy
Stream size : 39.3 MiB (11%)
Alignment : Aligned on interleaves
Interleave, duration : 24 ms (0.58 video frame)
Interleave, preload duration : 480 ms
1). Верующий в меня (He That Believeth in Me).
2). Равенство противоречий (Six of One).
3). То, что нас связывает (The Ties That Bind).
4). Момент отрыва (Escape Velocity).
5). Неизбранный путь (The Road Less Travelled).
6). Вера (Faith).
7). Посмотрите, кто пришел (Guess What's Coming to Dinner).
8). Sine Qua Non (Без чего нет).
9). Узел (The Hub).
10). Откровения (Revelations).
11). Иногда так и хочется (Sometimes a Great Notion).
12). И нет душе покоя (A Disquiet Follows My Soul).
13). Присяга (The Oath).
14). Кровь на чаше весов (Blood on the Scales).
15). За запертой дверью (No Exit).
16). Тупик (Deadlock).
17). Тот, кто меня бережёт (Someone to Watch Over Me).
18). Затерянные среди звёзд (Islanded in a Stream of Stars).
19). Рассвет, часть 1 (Daybreak: Part 1).
20). Рассвет, часть 2 (Daybreak: Part 2).
Продолжительность: 20 x ~00:45
Видеокодек: XviD
Битрейт видео: ~1000 kbps
Размер кадра: 624x352
Аудиокодек: 48 kHz, MPEG Layer 3, 2 ch
Битрейт аудио: ~128.00

Скриншоты:
The.Face.of.the.Enemy.e01.rus.LostFilm.TV.avi
Format : AVI
Format/Info : Audio Video Interleave
File size : 27.2 MiB
Duration : 4mn 13s
Overall bit rate : 900 Kbps
Writing application : Nandub v1.0rc2
Writing library : Nandub build 1853/release

Video
ID : 0
Format : MPEG-4 Visual
Format profile : Simple@L3
Format settings, BVOP : No
Format settings, QPel : No
Format settings, GMC : No warppoints
Format settings, Matrix : Default (H.263)
Codec ID : XVID
Codec ID/Hint : XviD
Duration : 4mn 13s
Bit rate : 758 Kbps
Width : 480 pixels
Height : 272 pixels
Display aspect ratio : 16:9
Frame rate : 26.087 fps
Original frame rate : 26.089 fps
Color space : YUV
Chroma subsampling : 4:2:0
Bit depth : 8 bits
Scan type : Progressive
Compression mode : Lossy
Bits/(Pixel*Frame) : 0.223
Stream size : 22.9 MiB (84%)
Writing library : XviD 1.1.2 (UTC 2006-11-01)

Audio
ID : 1
Format : MPEG Audio
Format version : Version 1
Format profile : Layer 3
Mode : Joint stereo
Mode extension : MS Stereo
Codec ID : 55
Codec ID/Hint : MP3
Duration : 4mn 13s
Bit rate mode : Constant
Bit rate : 128 Kbps
Channel(s) : 2 channels
Sampling rate : 48.0 KHz
Compression mode : Lossy
Stream size : 3.87 MiB (14%)
Alignment : Aligned on interleaves
Interleave, duration : 24 ms (0.63 video frame)
Interleave, preload duration : 480 ms
Продолжительность: 10 x ~00:04
Видеокодек: XviD
Битрейт видео: ~1000 kbps
Размер кадра: 480x272 640x360
Аудиокодек: 48 kHz, MPEG Layer 3, 2 ch
Битрейт аудио: ~128.00

Скриншоты:
Battlestar.Galactica.The.Plan.rus.LostFilm.TV.avi
Format : AVI
Format/Info : Audio Video Interleave
File size : 1.41 GiB
Duration : 1h 51mn
Overall bit rate : 1 805 Kbps
Writing application : Nandub v1.0rc2
Writing library : Nandub build 1853/release

Video
ID : 0
Format : MPEG-4 Visual
Format profile : Advanced Simple@L5
Format settings, BVOP : 1
Format settings, QPel : No
Format settings, GMC : No warppoints
Format settings, Matrix : Custom
Codec ID : XVID
Codec ID/Hint : XviD
Duration : 1h 51mn
Bit rate : 1 664 Kbps
Width : 624 pixels
Height : 352 pixels
Display aspect ratio : 16:9
Frame rate : 23.976 fps
Color space : YUV
Chroma subsampling : 4:2:0
Bit depth : 8 bits
Scan type : Progressive
Compression mode : Lossy
Bits/(Pixel*Frame) : 0.316
Stream size : 1.30 GiB (92%)
Writing library : XviD 1.2.1 (UTC 2008-12-04)

Audio
ID : 1
Format : MPEG Audio
Format version : Version 1
Format profile : Layer 3
Mode : Joint stereo
Mode extension : MS Stereo
Codec ID : 55
Codec ID/Hint : MP3
Duration : 1h 51mn
Bit rate mode : Constant
Bit rate : 128 Kbps
Channel(s) : 2 channels
Sampling rate : 48.0 KHz
Compression mode : Lossy
Stream size : 102 MiB (7%)
Alignment : Aligned on interleaves
Interleave, duration : 24 ms (0.58 video frame)
Interleave, preload duration : 480 ms
Продолжительность: 01:51:31
Видеокодек: XviD
Битрейт видео: ~1600 kbps
Размер кадра: 624x352
Аудиокодек: 48 kHz, MPEG Layer 3, 2 ch
Битрейт аудио: ~128.00

Скриншоты:
Caprica.Pilot.rus.LostFilm.TV.avi
Format : AVI
Format/Info : Audio Video Interleave
File size : 696 MiB
Duration : 1h 32mn
Overall bit rate : 1 054 Kbps
Writing application : Nandub v1.0rc2
Writing library : Nandub build 1853/release

Video
ID : 0
Format : MPEG-4 Visual
Format profile : Advanced Simple@L5
Format settings, BVOP : 2
Format settings, QPel : No
Format settings, GMC : No warppoints
Format settings, Matrix : Default (H.263)
Muxing mode : Packed bitstream
Codec ID : XVID
Codec ID/Hint : XviD
Duration : 1h 32mn
Bit rate : 913 Kbps
Width : 624 pixels
Height : 352 pixels
Display aspect ratio : 16:9
Frame rate : 23.976 fps
Color space : YUV
Chroma subsampling : 4:2:0
Bit depth : 8 bits
Scan type : Progressive
Compression mode : Lossy
Bits/(Pixel*Frame) : 0.173
Stream size : 603 MiB (87%)
Writing library : XviD 1.2.1 (UTC 2008-12-04)

Audio
ID : 1
Format : MPEG Audio
Format version : Version 1
Format profile : Layer 3
Mode : Joint stereo
Mode extension : MS Stereo
Codec ID : 55
Codec ID/Hint : MP3
Duration : 1h 32mn
Bit rate mode : Constant
Bit rate : 128 Kbps
Channel(s) : 2 channels
Sampling rate : 48.0 KHz
Compression mode : Lossy
Stream size : 84.5 MiB (12%)
Alignment : Aligned on interleaves
Interleave, duration : 24 ms (0.58 video frame)
Interleave, preload duration : 480 ms
1. Пилот(Pilot)
2. Возрождение(Rebirth)
3. Справиться с водоворотом(Reins of a Waterfall)
4. Танцы на могилах(Gravedancing)
5. Под другим небом(There Is Another Sky)
6. Знай врага своего(Know Thy Enemy)
7. Несовершенство памяти(The Imperfections of Memory)
8. Души в машине(Ghosts in the Machine)
9. Конец пути(End of Line)
10. Непокоренные(Unvanquished)
11. Возмездие (Retribution)
12. То, что мы храним в тайне (Things We Lock Away)
13. Притворные усилия (False Labor)
14. Обратная волна (Blowback)
15. Грязеочистители (The Dirteaters)
16. И возвысятся небеса (The Heavens Will Rise)
17. Здесь драконы (Here Be Dragons)
18. Апофеоз (Apotheosis)
Продолжительность: 18 x ~00:45
Видеокодек: XviD
Битрейт видео: ~1000 kbps
Размер кадра: 624x352
Аудиокодек: 48 kHz, MPEG Layer 3, 2 ch
Битрейт аудио: ~128.00

Скриншоты:
Скриншоты:



Торрент обновлен, замените

Время раздачи: 24/7 - круглосуточно
[NNM-Club.ru]_Zvezdnyiy Kreyser Galaktika.torrent
 Торрент: Платиновая раздача  Зарегистрирован
 
Скачать


 Зарегистрирован:   02 Май 2012 09:03:02
 Размер:   44,5 GB  (
 Рейтинг:   4,9 (Голосов: 239)
 Поблагодарили:   828
 Проверка:   Оформление проверено модератором 02 Май 2012 12:22:21
Как cкачать  ·  Как раздать  ·  Правильно оформить  ·  Поднять ратио!  
skynet281978
Стаж: 10 лет 3 мес.
Сообщений: 177
Ratio: 2,108
100%
ukraine.gif
Раздача классная. Вот бы и скорость раздачи была такой же...
XmasterX
 
Стаж: 10 лет 1 мес.
Сообщений: 471
Ratio: 214,997
Поблагодарили: 12895
100%
Откуда: Оттуда
krevedko.png
глоток свежего воздуха)

_________________
DNS-325 / ffp 0.7 / transmission 2.82
skynet281978
Стаж: 10 лет 3 мес.
Сообщений: 177
Ratio: 2,108
100%
ukraine.gif
4 сезон грузовой какой-то. одни разговоры, только в конце развязка...
Лицо врага вообще бред. Гейта не зря такое имя получил :) Не Гейта, а Гейон :)
pupkin2804
 
Стаж: 12 лет 8 мес.
Сообщений: 111
Ratio: 79,222
Поблагодарили: 494
100%
ussr.gif
Сезон 3.5 - это первые семь серий из 3-го сезона. Но никак не сезон 3.5.
Такая же ошибка и на лостфильме.

_________________
VisioVisio
Стаж: 9 лет 6 мес.
Сообщений: 1
Ratio: 12,556
66.67%
Сидов много, а скорости даже до 100 кбс не доходит...
S.T.A.L.K​.E.R._1​
Стаж: 10 лет 1 мес.
Сообщений: 8
Ratio: 1,062
100%
Спасибо!
VLADixy
Стаж: 10 лет 4 мес.
Сообщений: 147
Ratio: 68,614
Раздал: 30,49 TB
100%
Откуда: ЗЕМЛЯ
russia.gif
Кто в курсе : какие серии или сезоны заслуживают внимания ,т.е. наиболее интересны ?
Сделайте пожалуйста пометки ,а то все смотреть терпения не хватит :смущение: :пока:
Academon
Uploaders
 
Стаж: 13 лет
Сообщений: 669
Ratio: 41,881
100%
ukraine.gif
все.
и вообще, зачем при просмотре использовать терпение? надо смотреть для удовольствия, по идее...
VLADixy
Стаж: 10 лет 4 мес.
Сообщений: 147
Ratio: 68,614
Раздал: 30,49 TB
100%
Откуда: ЗЕМЛЯ
russia.gif
Если выбросить разглагольствования о дерьмократических ценностях (в "американском" стиле), то сериал можно оценить на 9 из 10.
sfv
Стаж: 8 лет 10 мес.
Сообщений: 1
Ratio: 3,648
100%
ussr.gif
Вышли две серии Blood & Chrome. Не планируете добавить в раздачу?
Codem83
Стаж: 8 лет 10 мес.
Сообщений: 74
Ratio: 10,352
89.47%
Откуда: Гуманоидо​дроченск​
ussr.gif
народ навалите скорости то )))))
HameroK
Стаж: 8 лет 3 мес.
Сообщений: 34
Ratio: 2,274
1.46%
Народ что то скорость, не о чём((( :(
man-eas
Стаж: 9 лет 8 мес.
Сообщений: 49
Ratio: 18,672
Поблагодарили: 611
100%
ukraine.gif
Это полное собрание эпизодов,всего сериала,кроме Кровь и Хром???Почему спрашиваю,так как не хочу качать десятки торрентов и слаживать их воедино,так и запутаешся.Хочется скачать,просмотреть весь с начала и до конца.
Kemanorel
Стаж: 12 лет 2 мес.
Сообщений: 39
Ratio: 5,619
Поблагодарили: 627
21.45%
Откуда: Москва
russia.gif
Папка 6 - сезон 3,5 - должны быть такие же мини-серии как вэбизоды.
На лостфильме они лежат.
Предлагаю релизеру перекачать данную папку.
Суммарно все 7 серий не превышают 210 метров.
Показать сообщения:   
Начать новую тему   Ответить на тему    Торрент-трекер NNM-Club -> Зарубежные сериалы -> Звездный Крейсер Галактика / BattleStar Galactica Часовой пояс: GMT + 3
Страницы:  1, 2, 3  След.
Страница 1 из 3