Классический форум-трекер
canvas not supported
Нас вместе: 4 076 710

Ва-банк II, или Ответный удар / Vabank II, czyli riposta (1984) HDTVRip [H.264/720p-LQ]


 
 
RSS
Начать новую тему   Ответить на тему    Торрент-трекер NNM-Club -> Классика кино и Старые фильмы до 90-х -> Зарубежная Классика (HD, UHD, UHD-LQ, 3D)
Автор Сообщение
VirtualBox ®
 
Стаж: 7 лет 3 мес.
Сообщений: 240
Ratio: 2M
Раздал: 30,19 TB
Поблагодарили: 21168
100%
Ва-банк II, или Ответный удар / Vabank II, czyli riposta (1984) HDTVRip [H.264/720p-LQ]
Производство: Польша, Zespol Filmowy "Kadr"
Жанр: Комедия, криминал

Режисcер: Юлиуш Махульский
Актеры: Ян Махульский, Леонард Петрашак, Витольд Пыркош, Бронислав Вроцлавский, Эва Шикульска, Беата Тышкевич, Яцек Хмельник, Кшиштоф Кершновский, Марек Вальчевский

Описание: Май 1936 года. Мошенник Крамер, получивший 8 лет по обвинению в грабеже собственного банка, который инсценировали Квинто и его друзья, сбегает из тюрьмы. Скрыться он может только в Швейцарии, где у него еще остались немалые деньги. Но прежде он хочет отомстить своему ненавистному врагу медвежатнику Квинто. Реванш почти удается. Но неистощимый на выдумку Квинто снова проводит блестящую операцию и оставляет Крамера с носом.



Продолжительность: 01:37:22
Качество: 720p
Перевод:Дублированный (Советский дубляж, ст. "Ленфильм), Профессиональный (многолосый закадровый) Мастер Тэйп
Субтитры: русские, английские

Видеокодек: MPEG4 AVC/H.264
Битрейт видео: 4284 kbps
Размер кадра: 1280x720
Аудио#1: AC3, 2 ch, 192 Кбит/с - Русский ( ст. "Ленфильм")
Аудио#2: AC3, 6 ch, 448 Кбит/с - Русский (Мастер Тэйп)
Аудио#3: AC3, 6 ch, 448 Кбит/с - Оригинал
General
Unique ID : 227759626513355695096787131117744879930 (0xAB58E8924E565DE1A18F9F5C9DB6F93A)
Complete name : \Ва-банк 2.1985.HDTVRip.720p.mkv
Format : Matroska
Format version : Version 2
File size : 3.73 GiB
Duration : 1h 37mn
Overall bit rate : 5 481 Kbps
Movie name : Vabank.II.1985.HDTVRip.720p.mkv
Encoded date : UTC 2012-05-05 04:42:30
Writing application : mkvmerge v5.4.0 ('Piper') built on Mar 10 2012 13:34:39
Writing library : libebml v1.2.3 + libmatroska v1.3.0

Video
ID : 1
Format : AVC
Format/Info : Advanced Video Codec
Format profile : High@L4.1
Format settings, CABAC : Yes
Format settings, ReFrames : 5 frames
Codec ID : V_MPEG4/ISO/AVC
Duration : 1h 37mn
Bit rate : 4 284 Kbps
Width : 1 280 pixels
Height : 720 pixels
Display aspect ratio : 16:9
Frame rate : 25.000 fps
Color space : YUV
Chroma subsampling : 4:2:0
Bit depth : 8 bits
Scan type : Progressive
Bits/(Pixel*Frame) : 0.186
Stream size : 2.91 GiB (78%)
Title : Vabank.II.1985
Writing library : x264 core 120 r2164 da19765
Encoding settings : cabac=1 / ref=5 / deblock=1:-1:-1 / analyse=0x3:0x113 / me=umh / subme=7 / psy=1 / psy_rd=1.00:0.15 / mixed_ref=1 / me_range=20 / chroma_me=1 / trellis=1 / 8x8dct=1 / cqm=0 / deadzone=21,11 / fast_pskip=0 / chroma_qp_offset=-3 / threads=12 / sliced_threads=0 / slices=4 / nr=0 / decimate=1 / interlaced=0 / bluray_compat=1 / constrained_intra=0 / bframes=3 / b_pyramid=0 / b_adapt=1 / b_bias=0 / direct=1 / weightb=1 / open_gop=1 / weightp=1 / keyint=60 / keyint_min=1 / scenecut=40 / intra_refresh=0 / rc_lookahead=40 / rc=crf / mbtree=1 / crf=18.0 / qcomp=0.60 / qpmin=10 / qpmax=51 / qpstep=4 / ip_ratio=1.40 / aq=1:1.00
Language : Polish
Default : Yes
Forced : No
Color primaries : BT.709-5, BT.1361, IEC 61966-2-4, SMPTE RP177
Transfer characteristics : BT.709-5, BT.1361
Matrix coefficients : BT.709-5, BT.1361, IEC 61966-2-4 709, SMPTE RP177

Audio #1
ID : 2
Format : AC-3
Format/Info : Audio Coding 3
Mode extension : CM (complete main)
Format settings, Endianness : Big
Codec ID : A_AC3
Duration : 1h 37mn
Bit rate mode : Constant
Bit rate : 192 Kbps
Channel(s) : 2 channels
Channel positions : Front: L R
Sampling rate : 48.0 KHz
Bit depth : 16 bits
Compression mode : Lossy
Stream size : 134 MiB (4%)
Title : Dub (Советский, Ленфильм)
Language : Russian
Default : Yes
Forced : No

Audio #2
ID : 3
Format : AC-3
Format/Info : Audio Coding 3
Mode extension : CM (complete main)
Format settings, Endianness : Big
Codec ID : A_AC3
Duration : 1h 37mn
Bit rate mode : Constant
Bit rate : 448 Kbps
Channel(s) : 6 channels
Channel positions : Front: L C R, Side: L R, LFE
Sampling rate : 48.0 KHz
Bit depth : 16 bits
Compression mode : Lossy
Stream size : 312 MiB (8%)
Title : MVO
Language : Russian
Default : No
Forced : No

Audio #3
ID : 4
Format : AC-3
Format/Info : Audio Coding 3
Mode extension : CM (complete main)
Format settings, Endianness : Big
Codec ID : A_AC3
Duration : 1h 37mn
Bit rate mode : Constant
Bit rate : 448 Kbps
Channel(s) : 6 channels
Channel positions : Front: L C R, Side: L R, LFE
Sampling rate : 48.0 KHz
Bit depth : 16 bits
Compression mode : Lossy
Stream size : 312 MiB (8%)
Title : Original
Language : Polish
Default : No
Forced : No

Text #1
ID : 5
Format : UTF-8
Codec ID : S_TEXT/UTF8
Codec ID/Info : UTF-8 Plain Text
Title : Титры на дубляж
Language : Russian
Default : Yes
Forced : No

Text #2
ID : 6
Format : UTF-8
Codec ID : S_TEXT/UTF8
Codec ID/Info : UTF-8 Plain Text
Language : English
Default : No
Forced : No
    • Занимает 91-е место по посещаемости среди зарубежных фильмов в советском кинопрокате.
Все релизы этого фильма (дилогии) в Клубе
Время раздачи: 24/7 до 5 сидов
[NNM-Club.ru]_Va-bank 2.1985.HDTVRip.720p.mkv.torrent
 Торрент: Платиновая раздача  Зарегистрирован
 
Скачать


Примагнититься
 Зарегистрирован:   29 Ноя 2018 07:46:14
 Размер:   3,73 GB  (
 Рейтинг:   4,9 (Голосов: 188)
 Поблагодарили:   690
 Проверка:   Оформление проверено модератором 29 Ноя 2018 11:16:57
Как cкачать  ·  Как раздать  ·  Правильно оформить  ·  Поднять ратио!  
ZikZak2012
Стаж: 9 лет 1 мес.
Сообщений: 27
Ratio: 5,884
6.1%
witch.png
Супер фильм, еще в школьное время понравился
vitala1988
Стаж: 7 лет 8 мес.
Сообщений: 26
Ratio: 7,683
Раздал: 3,783 TB
100%
Откуда: ПОЛТАВА
ukraine.gif
ДА СОГЛАСЕН!!!!!!ФИЛЬМЕЦ СУПЕР!!!!АВТОРУ++++++

_________________
что вижу-то и раздаю!!!
CTACevich
Стаж: 8 лет 9 мес.
Сообщений: 99
Ratio: 3,636
100%
Откуда: Екатеринбург
russia.gif
Спасибо!!!!!!!!!!!!!!
kalt12
Uploader 100+
Стаж: 6 лет 9 мес.
Сообщений: 2713
Ratio: 155,241
Раздал: 171,5 TB
100%
russia.gif
Качественная вещь.Автору :респект: !
Показать сообщения:   
Начать новую тему   Ответить на тему    Торрент-трекер NNM-Club -> Классика кино и Старые фильмы до 90-х -> Зарубежная Классика (HD, UHD, UHD-LQ, 3D) Часовой пояс: GMT + 3
Страница 1 из 1