Классический форум-трекер
canvas not supported
Нас вместе: 4 093 643

То, что её заводит / Fa meg pa, for faen (2011) [720p] BDRip


 
 
RSS
Начать новую тему   Ответить на тему    Торрент-трекер NNM-Club -> Архив торрентов -> Архив Видео
Автор Сообщение
SNAUTS ®
Ценитель HD
Uploader 1000+
Стаж: 9 лет 8 мес.
Сообщений: 2111
Ratio: 70K
Поблагодарили: 140771
100%
Откуда: .. и только свежий космос
ussr.gif
То, что её заводит / Fa meg pa, for faen (2011) [720p] BDRip


Русское название: То, что её заводит
Оригинальное название: Fa meg pa, for faen
Страна: Норвегия
Год выпуска: 2011
Жанр: Мелодрама, комедия

Описание фильма:
Альме 15 лет, ее самые «заводные» годы проходят в захолустном норвежском городке. Здесь тишина, покой и овечки на лугах — кошмар для барышни с чрезвычайно развитым воображением и непрекращающимся гормональным взрывом! Неудивительно, что Альма полностью погрузилась в эротические мечты, подогреваемые телефонной службой «Дикие и горячие фантазии». И только мама возвращает Альму к реальности, когда видит счета за «секс по телефону»!

Режиссер: Яннике Систад Якобсен
Актеры: Хелен Бергшолм, Малин Бьорховде, Генриетта Стинстрап, Беате Стефринг, Матиас Мюрен, Ларс Нордтвайт Лиштау, Йон Блейкле Девик, Джулия Баке-Виг, Джулия Шахт, Артур Бернинг

Продолжительность: 01:12:34
Перевод: Многоголосый закадровый
Субтитры: Английские, Русские



Дата мировой премьеры: 20 апреля 2011
Дата РФ премьеры: 29 марта 2012, «Русский репортаж»
Дата DVD премьеры: 7 мая 2012, «Новый Диск»

Видеокодек: MPEG-4 AVC
Битрейт видео: ~ 5231 Кбит/с
Размер кадра: 1280x690
Качество видео: BDRip

Аудио:
1. Dolby Digital Русский 5.1 48 kHz 448 kbps (Многоголосый закадровый)
2. Dolby Digital Норвежский 5.1 48 kHz 448 kbps
Формат : Matroska
Версия формата : Version 1
Размер файла : 3,11 Гбайт
Продолжительность : 1 ч. 12 м.
Общий поток : 6127 Кбит/сек
Дата кодирования : UTC 2012-05-10 04:50:37
Программа кодирования : mkvmerge v2.3.0 ('Freak U') built on Sep 8 2008 18:32:16
Библиотека кодирования : libebml v0.7.7 + libmatroska v0.8.1

Видео
Идентификатор : 1
Формат : AVC
Формат/Информация : Advanced Video Codec
Профиль формата : High@L4.1
Параметр CABAC формата : Да
Параметр ReFrames формата : 8 кадров
Идентификатор кодека : V_MPEG4/ISO/AVC
Продолжительность : 1 ч. 12 м.
Битрейт : 5231 Кбит/сек
Ширина : 1280 пикселей
Высота : 690 пикселей
Соотношение сторон : 1,855
Частота кадров : 25,000 кадров/сек
Цветовое пространство : YUV
Субдискретизация насыщенности : 4:2:0
Битовая глубина : 8 бит
Тип развёртки : Прогрессивная
Бит/(Пиксели*Кадры) : 0.237
Размер потока : 2,59 Гбайт (83%)
Библиотека кодирования : x264 core 119 r2106 07efeb4
Настройки программы : cabac=1 / ref=8 / deblock=1:-3:-3 / analyse=0x3:0x113 / me=umh / subme=11 / psy=1 / psy_rd=1.05:0.10 / mixed_ref=1 / me_range=32 / chroma_me=1 / trellis=2 / 8x8dct=1 / cqm=0 / deadzone=21,11 / fast_pskip=0 / chroma_qp_offset=-3 / threads=24 / sliced_threads=0 / nr=0 / decimate=1 / interlaced=0 / bluray_compat=0 / constrained_intra=0 / bframes=5 / b_pyramid=2 / b_adapt=2 / b_bias=0 / direct=3 / weightb=1 / open_gop=0 / weightp=2 / keyint=360 / keyint_min=1 / scenecut=40 / intra_refresh=0 / rc_lookahead=60 / rc=2pass / mbtree=1 / bitrate=5231 / ratetol=1.0 / qcomp=0.60 / qpmin=0 / qpmax=69 / qpstep=4 / cplxblur=20.0 / qblur=0.5 / vbv_maxrate=40000 / vbv_bufsize=30000 / nal_hrd=none / ip_ratio=1.40 / aq=1:0.80
Язык : Norwegian

Аудио #1
Идентификатор : 2
Формат : AC-3
Формат/Информация : Audio Coding 3
Расширение режима : CM (complete main)
Идентификатор кодека : A_AC3
Продолжительность : 1 ч. 12 м.
Вид битрейта : Постоянный
Битрейт : 448 Кбит/сек
Каналы : 6 каналов
Расположение каналов : Front: L C R, Side: L R, LFE
Частота : 48,0 КГц
Битовая глубина : 16 бит
Метод сжатия : С потерями
Размер потока : 233 Мбайт (7%)
Язык : Russian

Аудио #2
Идентификатор : 3
Формат : AC-3
Формат/Информация : Audio Coding 3
Расширение режима : CM (complete main)
Идентификатор кодека : A_AC3
Продолжительность : 1 ч. 12 м.
Вид битрейта : Постоянный
Битрейт : 448 Кбит/сек
Каналы : 6 каналов
Расположение каналов : Front: L C R, Side: L R, LFE
Частота : 48,0 КГц
Битовая глубина : 16 бит
Метод сжатия : С потерями
Размер потока : 233 Мбайт (7%)
Язык : Norwegian

Текст #1
Идентификатор : 4
Формат : UTF-8
Идентификатор кодека : S_TEXT/UTF8
Идентификатор кодека/Информация : UTF-8 Plain Text
Язык : English

Текст #2
Идентификатор : 5
Формат : UTF-8
Идентификатор кодека : S_TEXT/UTF8
Идентификатор кодека/Информация : UTF-8 Plain Text
Язык : Russian
Скриншоты:

Раздача: 24/7
Не забываем говорить спасибо, Вам не сложно, а мне приятно)))
Прошу с раздачи не уходить! Скачал сам, дай и другим скачать!!!
Приятного просмотра)))
[NNM-Club.ru]_To.chto.ee.zavodit.2011.x264.BDRip.720p.mkv.torrent
 Торрент: Платиновая раздача  Зарегистрирован
 
Скачать


 Зарегистрирован:   10 Май 2012 10:53:25
 Размер:   3,11 GB  (
 Рейтинг:   4,3 (Голосов: 15)
 Поблагодарили:   43
 Проверка:   Оформление проверено модератором 10 Май 2012 20:07:19
Как cкачать  ·  Как раздать  ·  Правильно оформить  ·  Поднять ратио!  
Топик был перенесен из форума Зарубежные Фильмы (HD) в форум Архив Видео

Причина переноса: Последний раз раздающий был замечен более трёх месяцев назад

Исправил релиз - напиши ЛС FREEDONOR, дав ссылку на релиз.
Если нет ответа 24 часа - нажми на кнопку "Обратить внимание модераторов".
Показать сообщения:   
Начать новую тему   Ответить на тему    Торрент-трекер NNM-Club -> Архив торрентов -> Архив Видео Часовой пояс: GMT + 3
Страница 1 из 1