Классический форум-трекер
canvas not supported
Нас вместе: 4 094 045

То, что её заводит / Fa meg pa, for faen (2011) DVD9


 
 
RSS
Начать новую тему   Ответить на тему    Торрент-трекер NNM-Club -> Зарубежное кино -> Зарубежные Фильмы (DVD)
Автор Сообщение
Alex_Fors ®
Стаж: 9 лет 5 мес.
Сообщений: 387
Ratio: 102,587
Поблагодарили: 18458
100%
portugal.gif
То, что её заводит / Fa meg pa, for faen (2011) DVD9
Русское название: То, что её заводит
Оригинальное название: Fa meg pa, for faen
Год выпуска: 2011
Производство: Норвегия
Жанр: Мелодрама, Комедия
Перевод: Многоголосый закадровый
Субтитры: Отсутствуют

Дата мировой премьеры: 20 апреля 2011
Дата российской премьеры: 29 марта 2012, «Русский репортаж»
Дата выхода DVD релиза: 7 мая 2012, «Новый Диск»

Режиссер: Яннике Систад Якобсен
Актеры: Хелен Бергшолм, Малин Бьорховде, Генриетта Стинстрап, Беате Стефринг, Матиас Мюрен, Ларс Нордтвайт Лиштау, Йон Блейкле Девик, Джулия Баке-Виг, Джулия Шахт, Артур Бернинг ...

Описание фильма:
Альме 15 лет, ее самые «заводные» годы проходят в захолустном норвежском городке. Здесь тишина, покой и овечки на лугах — кошмар для барышни с чрезвычайно развитым воображением и непрекращающимся гормональным взрывом! Неудивительно, что Альма полностью погрузилась в эротические мечты, подогреваемые телефонной службой «Дикие и горячие фантазии». И только мама возвращает Альму к реальности, когда видит счета за «секс по телефону»!



Продолжительность: 01:12:32
Качество видео: DVD9

Видеокодек: MPEG-2
Битрейт видео: ~7001 kb/s
Размер кадра: 720x576@1024x576 (PAL 16:9) VBR Auto Letterboxed
Аудио: (Dolby AC3, 6 ch) 448 kb/s |Русский, многоголосый закадровый|
Аудио: (Dolby AC3, 6 ch) 448 kb/s |Норвежский, оригинальный|
СЭМПЛ
Дополнительные материалы: Анонсы
Title: То,что её заводит.2011.DVD9
Size: 4.74 Gb ( 4 966 280,00 KBytes ) - DVD-9
Enabled regions: 1, 2, 3, 4, 5, 6, 7, 8

VTS_01 :
Play Length: 00:00:15
Video: PAL 4:3 (720x576) VBR
Audio:
Not specified (Dolby AC3, 2 ch)

VTS_02 :
Play Length: 00:00:08
Video: PAL 16:9 (720x576) VBR, Auto Letterboxed
Audio:
Not specified (Dolby AC3, 2 ch)

VTS_03 :
Play Length: 00:00:12
Video: PAL 16:9 (720x576) VBR, Auto Letterboxed
Audio:
Not specified (Dolby AC3, 2 ch)

VTS_04 :
Play Length: 00:02:20
Video: PAL 4:3 (720x576) VBR
Audio:
Not specified (Dolby AC3, 2 ch)

VTS_05 :
Play Length: 00:01:47
Video: PAL 16:9 (720x576) VBR, Auto Letterboxed
Audio:
Not specified (Dolby AC3, 2 ch)

VTS_06 :
Play Length: 00:01:12
Video: PAL 16:9 (720x576) VBR, Auto Letterboxed
Audio:
Not specified (Dolby AC3, 2 ch)

VTS_07 :
Play Length: 00:02:06
Video: PAL 4:3 (720x576) VBR
Audio:
Not specified (Dolby AC3, 2 ch)

VTS_08 :
Play Length: 00:01:30
Video: PAL 16:9 (720x576) VBR, Auto Letterboxed
Audio:
Not specified (Dolby AC3, 2 ch)

VTS_09 :
Play Length: 00:02:34
Video: PAL 16:9 (720x576) VBR, Auto Letterboxed
Audio:
Not specified (Dolby AC3, 2 ch)

VTS_10 :
Play Length: 00:02:03
Video: PAL 16:9 (720x576) VBR, Auto Letterboxed
Audio:
Not specified (Dolby AC3, 2 ch)

VTS_11 :
Play Length: 00:02:33
Video: PAL 16:9 (720x576) VBR, Auto Letterboxed
Audio:
Not specified (Dolby AC3, 2 ch)

VTS_12 :
Play Length: 01:12:32
Video: PAL 16:9 (720x576) VBR, Auto Letterboxed
Audio:
Russian (Dolby AC3, 6 ch)
Norsk (Dolby AC3, 6 ch)

* Menus Information *

VIDEO_TS Menu
Video:
PAL 16:9 (720x576) VBR
Auto Pan&Scan
English Language Unit :
Title Menu

VTS_01 Menu
Video:
PAL 16:9 (720x576) VBR
Auto Letterboxed
Audio:
Not specified (Dolby AC3, 2 ch)
English Language Unit :
Root Menu
Chapter (PTT) Menu

VTS_02 Menu
Video:
PAL 4:3 (720x576) VBR
Auto Pan&Scan, Auto Letterboxed
English Language Unit :
Root Menu
Chapter (PTT) Menu

VTS_03 Menu
Video:
PAL 4:3 (720x576) VBR
Auto Pan&Scan, Auto Letterboxed
English Language Unit :
Root Menu
Chapter (PTT) Menu

VTS_04 Menu
Video:
PAL 4:3 (720x576) VBR
Auto Pan&Scan, Auto Letterboxed
English Language Unit :
Root Menu
Chapter (PTT) Menu

VTS_05 Menu
Video:
PAL 4:3 (720x576) VBR
Auto Pan&Scan, Auto Letterboxed
English Language Unit :
Root Menu
Chapter (PTT) Menu

VTS_06 Menu
Video:
PAL 4:3 (720x576) VBR
Auto Pan&Scan, Auto Letterboxed
English Language Unit :
Root Menu
Chapter (PTT) Menu

VTS_07 Menu
Video:
PAL 4:3 (720x576) VBR
Auto Pan&Scan, Auto Letterboxed
English Language Unit :
Root Menu
Chapter (PTT) Menu

VTS_08 Menu
Video:
PAL 4:3 (720x576) VBR
Auto Pan&Scan, Auto Letterboxed
English Language Unit :
Root Menu
Chapter (PTT) Menu

VTS_09 Menu
Video:
PAL 4:3 (720x576) VBR
Auto Pan&Scan, Auto Letterboxed
English Language Unit :
Root Menu
Chapter (PTT) Menu

VTS_10 Menu
Video:
PAL 4:3 (720x576) VBR
Auto Pan&Scan, Auto Letterboxed
English Language Unit :
Root Menu
Chapter (PTT) Menu

VTS_11 Menu
Video:
PAL 4:3 (720x576) VBR
Auto Pan&Scan, Auto Letterboxed
English Language Unit :
Root Menu
Chapter (PTT) Menu

VTS_12 Menu
Video:
PAL 4:3 (720x576) VBR
Auto Pan&Scan, Auto Letterboxed
English Language Unit :
Root Menu
Chapter (PTT) Menu
Формат : MPEG-PS
Размер файла : 1024 Мбайт
Продолжительность : 17 м.
Общий поток : 8057 Кбит/сек

Видео
Идентификатор : 224 (0xE0)
Формат : MPEG Video
Версия формата : Version 2
Профиль формата : Main@Main
Параметр BVOP формата : Да
Параметр матрицы формата : По умолчанию
Параметр GOP формата : M=3, N=12
Продолжительность : 17 м.
Вид битрейта : Переменный
Битрейт : 7001 Кбит/сек
Максимальный битрейт : 8200 Кбит/сек
Ширина : 720 пикселей
Высота : 576 пикселей
Соотношение сторон : 16:9
Частота кадров : 25,000 кадров/сек
Стандарт вещания : PAL
Цветовое пространство : YUV
Субдискретизация насыщенности : 4:2:0
Битовая глубина : 8 бит
Тип развёртки : Прогрессивная
Метод сжатия : С потерями
Бит/(Пиксели*Кадры) : 0.675
Размер потока : 890 Мбайт (87%)

Аудио #1
Идентификатор : 189 (0xBD)-128 (0x80)
Формат : AC-3
Формат/Информация : Audio Coding 3
Расширение режима : CM (complete main)
Режим смешивания : DVD-Video
Продолжительность : 17 м.
Вид битрейта : Постоянный
Битрейт : 448 Кбит/сек
Каналы : 6 каналов
Расположение каналов : Front: L C R, Side: L R, LFE
Частота : 48,0 КГц
Битовая глубина : 16 бит
Метод сжатия : С потерями
Задержка видео : -352 мс.
Размер потока : 56,9 Мбайт (6%)

Аудио #2
Идентификатор : 189 (0xBD)-129 (0x81)
Формат : AC-3
Формат/Информация : Audio Coding 3
Расширение режима : CM (complete main)
Режим смешивания : DVD-Video
Продолжительность : 17 м.
Вид битрейта : Постоянный
Битрейт : 448 Кбит/сек
Каналы : 6 каналов
Расположение каналов : Front: L C R, Side: L R, LFE
Частота : 48,0 КГц
Битовая глубина : 16 бит
Метод сжатия : С потерями
Задержка видео : -352 мс.
Размер потока : 56,9 Мбайт (6%)

Меню
Скриншоты:


Время раздачи: 15:00-20:00
[NNM-Club.ru]_To,chto ee zavodit.2011.DVD9.torrent
 Торрент: Платиновая раздача  Зарегистрирован
 
Скачать


 Зарегистрирован:   12 Май 2012 13:04:42
 Размер:   4,74 GB  (
 Рейтинг:   3,9 (Голосов: 27)
 Поблагодарили:   88
 Проверка:   Оформление проверено модератором 13 Май 2012 01:20:33
Как cкачать  ·  Как раздать  ·  Правильно оформить  ·  Поднять ратио!  
vova-art
Стаж: 10 лет 10 мес.
Сообщений: 17
Ratio: 12,046
Поблагодарили: 625
20.19%
Откуда: Odessa
ukraine.gif
Помогу :подмигивание:
sifa
Uploader 300+
Стаж: 12 лет 3 мес.
Сообщений: 1422
Ratio: 177,437
Раздал: 369,7 TB
Поблагодарили: 12347
100%
автору спасибо, фильм бредятина )))
Показать сообщения:   
Начать новую тему   Ответить на тему    Торрент-трекер NNM-Club -> Зарубежное кино -> Зарубежные Фильмы (DVD) Часовой пояс: GMT + 3
Страница 1 из 1