Классический форум-трекер
canvas not supported
Нас вместе: 4 079 278

Нацистские концлагеря (Нацистские концентрационные лагеря) / Nazi Concentration Camps (1945) DVDRip [EN / RU Sub]


 
 
RSS
Начать новую тему   Ответить на тему    Торрент-трекер NNM-Club -> Документалистика и Телепередачи -> Вторая Мировая война
Автор Сообщение
art-61 ®
Стаж: 8 лет 4 мес.
Сообщений: 1100
Ratio: 137,949
Поблагодарили: 141199
100%
Откуда: Санкт-Петербург
russia.gif
Нацистские концлагеря / Nazi Concentration Camps (1945) DVDRip [EN / RU Sub]
Производство: CША, US Department of Defense
Жанр: Документальный, История, Хроника

Режиссер: Джордж Стивенс

Описание:
Фильм был снят военными корреспондентами союзников, сразу после освобождения немецких концлагерей и был показан стороной обвинения на заседании Нюрнбергского трибунала как документ N 2430-PS. Фильм наполнен реальными кадрами, которые снимали союзники при освобождении заключенных из лагерей смерти. Кадры показывают нам всю жестокость нацисткой системы и отвергают все сомнения в трактовке обвинения «преступления против человечества».

Доп. информация: Не рекомендуется к просмотру детям и лицам с неустойчивой психикой.



Продолжительность: 00:59:15
Качество видео: DVDRip
Перевод: Отсутствует
Язык озвучки: Английский
Язык субтитров: Русские (Lem), отдельным файлом (SRT)

Видео: Xvid, 704x528, ~1500 Kbps
Аудио: MP3, 2ch, 128 Kbps
Общее
Полное имя : E:\Nacistkie.koncentracionnye.lagerja.1945.XviD.DVDRip\Nacistkie.koncentracionnye.lagerja.1945.XviD.DVDRip.avi
Формат : AVI
Формат/Информация : Audio Video Interleave
Размер файла : 696 Мбайт
Продолжительность : 59 м.
Общий поток : 1641 Кбит/сек
Программа кодирования : XviD4PSP 6.0 / 53.6.0

Видео
Идентификатор : 0
Формат : MPEG-4 Visual
Профиль формата : Advanced Simple@L5
Параметр BVOP формата : 1
Параметр QPel формата : Нет
Параметр GMC формата : Без точки перехода
Параметр матрицы формата : Default (H.263)
Идентификатор кодека : XVID
Идентификатор кодека/Подсказка : XviD
Продолжительность : 59 м.
Битрейт : 1499 Кбит/сек
Ширина : 704 пикселя
Высота : 528 пикселей
Соотношение сторон : 4:3
Частота кадров : 29,970 кадров/сек
Цветовое пространство : YUV
Субдискретизация насыщенности : 4:2:0
Битовая глубина : 8 бит
Тип развёртки : Прогрессивная
Метод сжатия : С потерями
Бит/(Пиксели*Кадры) : 0.135
Размер потока : 635 Мбайт (91%)
Библиотека кодирования : XviD 64

Аудио
Идентификатор : 1
Формат : MPEG Audio
Версия формата : Version 1
Профиль формата : Layer 3
Режим : Joint stereo
Идентификатор кодека : 55
Идентификатор кодека/Подсказка : MP3
Продолжительность : 59 м.
Вид битрейта : Постоянный
Битрейт : 128 Кбит/сек
Каналы : 2 канала
Частота : 48,0 КГц
Метод сжатия : С потерями
Размер потока : 54,3 Мбайт (8%)
Выравнивание : Соединение по промежуткам
Продолжительность промежутка : 24 мс. (0,72 видеокадр)
Скриншоты:


Все одноименные релизы в Клубе
Время раздачи: 24/7 по возможности
[NNM-Club.me]_Natsistskie kontslagerya.1945.DVDRip.torrent
 Торрент: Платиновая раздача  Зарегистрирован
 
Скачать


Примагнититься
 Зарегистрирован:   20 Апр 2019 22:56:29
 Размер:   696 MB  (
 Рейтинг:   5 (Голосов: 47)
 Поблагодарили:   191
 Проверка:   Оформление проверено модератором 20 Апр 2019 23:41:12
Как cкачать  ·  Как раздать  ·  Правильно оформить  ·  Поднять ратио!  

_________________
В этом безумном мире возможно всё!
mimozka
Стаж: 9 лет
Сообщений: 28
Ratio: 10,691
100%
Это КОШМАР, в это НЕЛЬЗЯ поверить, но это было!
fzilla
Стаж: 7 лет 10 мес.
Сообщений: 8
Ratio: 2,003
100%
эмоции переполняют ... всех этих надзирателей и комендантов надо было в месте с этими узниками хоронить!
Bombila52
Стаж: 8 лет 3 мес.
Сообщений: 1
Ratio: 313,565
50%
Откуда: дзер
Мдаа, а нынешняя молодежь (не вся конечно!) еще и старается подражать нацистам, типа скин хеды. Спасибо нашим дедам за победу!!!
Dementor
Uploaders 100+
 
Стаж: 10 лет 6 мес.
Сообщений: 292
Ratio: 568,051
Поблагодарили: 1602
100%
liechtenstein.gif
За раздачу поблагодарил, но оценку ставить не стал - это не тот фильм, который вообще хоть как-то можно оценивать - его стоит посмотреть и в который уже раз понять, что человечество не должно ни в коем случае допустить повторения случившегося. Да, войны были, есть и будут - видимо человек по своей природе не способен жить в мире, но даже у войны должна быть грань, которую переходить нельзя!
Ну и лично мое мнение: все люди, которые имели хоть какое-то отношение к работе в концентрационных лагерях должны были быть казнены. Да, я считаю, что не имеет значение отдавал ли "человек" приказы на уничтожение или опыты, или просто "охранял" заключенных - смерть единственное, чего эти выродки заслуживали.

_________________
Что толку, если не можешь сделать мир лучше?
Показать сообщения:   
Начать новую тему   Ответить на тему    Торрент-трекер NNM-Club -> Документалистика и Телепередачи -> Вторая Мировая война Часовой пояс: GMT + 3
Страница 1 из 1