Классический форум-трекер
canvas not supported
Нас вместе: 4 093 765

Утиные Истории: Заветная лампа / DuckTales: The Movie — Treasure of the Lost Lamp (1990) [H.264] HDTVRip


 
 
RSS
Начать новую тему   Ответить на тему    Торрент-трекер NNM-Club -> Мультфильмы -> Зарубежные Мультфильмы для детей
Автор Сообщение
romul7731 ®
Стаж: 9 лет 8 мес.
Сообщений: 203
Ratio: 26,668
Раздал: 25,34 TB
Поблагодарили: 21542
100%
Откуда: Донбасс
ussr.gif
Утиные Истории: Заветная лампа / DuckTales: The Movie — Treasure of the Lost Lamp (1990) [H.264] HDTVRip
Русское название: Утиные Истории: Заветная лампа
Оригинальное название: DuckTales: The Movie — Treasure of the Lost Lamp
Год выпуска: 1990
Жанр: мультфильм, фэнтези, комедия, приключения, семейный

Перевод: Дублированный
Вид субтитров: нет



Режиссер: Боб Хэчкок / Bob Hathcock
Персонажи: Алан Янг, Рип Тэйлор, Кристофер Ллойд, Расси Тэйлор, Ричард Либертини, Теренс МакГоверн, Джоан Гербер, Чак МакКанн, Джун Форэй, Чарльз Адлер

Описание фильма:
Запрыгивайте на верблюда, хватайте карту и приготовьтесь к захватывающему веселому приключению вместе с любимыми пернатыми друзьями Скруджем МакДаком, Хьюи, Дьюи, Луи и Веббигейл Вандеркваком!
Присоединяйтесь к команде Утиных Историй, пересекающих египетскую пустыню в бесстрашном поиске легендарных сокровищ Колли Бабы. Захватывающие моменты будут преследовать главных героев на каждом шагу, по мере приближения к сказочным сокровищам, а злой маг Мерлок будет идти по пятам. Но смелые утки и не могли предположить, что вместе с сокровищами найдут волшебную лампу с настоящим джином, исполняющим желания!
Наполненный весельем, приключениями и обожаемыми героями, фильм "Утиные истории: Заветная лампа" — истинная классика студии Дисней, которой насладится вся Ваша семья!

Продолжительность: 01:08:05
Качество видео: HDTVRip
Видеокодек: MPEG-4 AVC/H.264
Битрейт видео: ~2527 Kbps
Аудиокодек: AAC
Битрейт аудио: 1024x576
Аудио 1: Русский 48 kHz, AAC, 2ch, 170 kbps
Аудио 2: Английский 48 kHz, AAC, 2ch, 180 kbps

Утиные истории: Заветная лампа NNM-club
Общее
Полное имя : D:\Мульти\DuckTales The Movie Treasure of the Lost Lamp.m4v
Формат : MPEG-4
Идентификатор кодека : M4V
Размер файла : 1,41 Гбайт
Продолжительность : 1 ч. 8 м.
Режим общего битрейта : Переменный
Общий поток : 2954 Кбит/сек
Название фильма : Утиные истории: Заветная лампа
Исполнитель : Боб Хэчкок
Жанр : Kids & Family
Дата записи : UTC 1990-08-03 07:00:00
Дата кодирования : UTC 2012-04-11 13:56:39
Дата пометки : UTC 2012-04-14 19:07:24
desc : Запрыгивайте на верблюда, хватайте карту и приготовьтесь к захватывающему веселому приключению вместе с любимыми пернатыми друзьями Скруджем МакДаком, Хьюи, Дьюи, Луи и Веббигейл Вандеркваком!
ldes : Запрыгивайте на верблюда, хватайте карту и приготовьтесь к захватывающему веселому приключению вместе с любимыми пернатыми друзьями Скруджем МакДаком, Хьюи, Дьюи, Луи и Веббигейл Вандеркваком!
hdvd : 1
stik : 9
rtng : 0
cnID : 354865584
xid : iPad:vendor_id:1990-17610

Видео
Идентификатор : 1
Формат : AVC
Формат/Информация : Advanced Video Codec
Профиль формата : High@L4.1
Параметр CABAC формата : Да
Параметр ReFrames формата : 8 кадров
Идентификатор кодека : avc1
Идентификатор кодека/Информация : Advanced Video Coding
Продолжительность : 1 ч. 8 м.
Битрейт : 2527 Кбит/сек
Максимальный битрейт : 12,6 Мбит/сек
Ширина : 1024 пикселя
Высота : 576 пикселей
Соотношение сторон : 16:9
Режим частоты кадров : Переменный
Частота кадров : 25,000 кадров/сек
Минимальная частота кадров : 20,000 кадров/сек
Максимальная частота кадров : 25,000 кадров/сек
Цветовое пространство : YUV
Субдискретизация насыщенности : 4:2:0
Битовая глубина : 8 бит
Тип развёртки : Прогрессивная
Бит/(Пиксели*Кадры) : 0.171
Размер потока : 1,20 Гбайт (86%)
Дата кодирования : UTC 2012-04-11 13:56:39
Дата пометки : UTC 2012-04-11 13:57:55
Основные цвета : BT.709-5, BT.1361, IEC 61966-2-4, SMPTE RP177
Характеристики трансфера : BT.709-5, BT.1361
Коэффициенты матрицы : BT.709-5, BT.1361, IEC 61966-2-4 709, SMPTE RP177

Аудио #1
Идентификатор : 2
Формат : AAC
Формат/Информация : Advanced Audio Codec
Профиль формата : LC
Идентификатор кодека : 40
Продолжительность : 1 ч. 8 м.
Вид битрейта : Переменный
Битрейт : 170 Кбит/сек
Максимальный битрейт : 202 Кбит/сек
Каналы : 2 канала
Расположение каналов : Front: L R
Частота : 48,0 КГц
Метод сжатия : С потерями
Размер потока : 82,8 Мбайт (6%)
Заголовок : Russian
Язык : Russian
Дата кодирования : UTC 2012-04-11 13:57:40
Дата пометки : UTC 2012-04-11 13:57:55

Аудио #2
Идентификатор : 3
Формат : AAC
Формат/Информация : Advanced Audio Codec
Профиль формата : LC
Идентификатор кодека : 40
Продолжительность : 1 ч. 8 м.
Вид битрейта : Переменный
Битрейт : 180 Кбит/сек
Максимальный битрейт : 201 Кбит/сек
Каналы : 2 канала
Расположение каналов : Front: L R
Частота : 48,0 КГц
Метод сжатия : С потерями
Размер потока : 87,7 Мбайт (6%)
Заголовок : English
Язык : English
Дата кодирования : UTC 2012-04-11 13:57:48
Дата пометки : UTC 2012-04-11 13:57:55
Скриншоты:




Время раздачи: с 18:00 до 07:00 по Киеву
[NNM-Club.ru]_DuckTales The Movie Treasure of the Lost Lamp.m4v.torrent
 Торрент: Платиновая раздача  Зарегистрирован
 
Скачать


Примагнититься
 Зарегистрирован:   24 Июн 2012 07:00:22
 Размер:   1,41 GB  (
 Рейтинг:   4,8 (Голосов: 109)
 Поблагодарили:   392
 Проверка:   Оформление проверено модератором 24 Июн 2012 13:42:01
Как cкачать  ·  Как раздать  ·  Правильно оформить  ·  Поднять ратио!  
токарь611
Стаж: 7 лет 6 мес.
Сообщений: 50
Ratio: 1,013
80.46%
спасибо!
Показать сообщения:   
Начать новую тему   Ответить на тему    Торрент-трекер NNM-Club -> Мультфильмы -> Зарубежные Мультфильмы для детей Часовой пояс: GMT + 3
Страница 1 из 1