Классический форум-трекер
canvas not supported
Нас вместе: 4 076 513

Муми-тролль (3 части из 3) (1978) DVDRip


 
 
RSS
Начать новую тему   Ответить на тему    Торрент-трекер NNM-Club -> Мультфильмы -> Отечественные Мультфильмы для детей
Автор Сообщение
эксклюзив ®
Стаж: 8 лет 5 мес.
Сообщений: 1169
Ratio: 159,795
Поблагодарили: 74957
100%
Муми-тролль и другие (1978) DVDRip
Русское название: Муми-тролль и другие
Год выпуска: 1978
Жанр: Детский, Кукольный



Режиссер: Аида Зябликова
Роли озвучивают: Зиновий Гердт, Ольга Гобзева, Зинаида Нарышкина, Юрий Яковлев

Описание фильма:
По мотивам повести Т. Янссон «Муми-тролль и комета».

Продолжительность: 00:20:15
Качество видео: DVDRip

Видеокодек: Xvid
Битрейт видео: ~1609 kb/s
Размер кадра: 720x512
Аудиокодек: AC3, 2 ch
Битрейт аудио: 192 kb/s
Общее
Полное имя : F:\Мультфильмы\Советские мультфильмы\М\Муми троль\Муми-Троль и другие.avi
Формат : AVI
Формат/Информация : Audio Video Interleave
Размер файла : 262 Мбайт
Продолжительность : 20 м.
Общий поток : 1811 Кбит/сек
Программа кодирования : VirtualDubModRus 1.5.10.2 (build 2542/release)

Видео
Идентификатор : 0
Формат : MPEG-4 Visual
Профиль формата : Advanced Simple@L5
Параметр BVOP формата : 1
Параметр QPel формата : Нет
Параметр GMC формата : Без точки перехода
Параметр матрицы формата : Default (MPEG)
Режим смешивания : Сжатый битовый поток
Идентификатор кодека : XVID
Идентификатор кодека/Подсказка : XviD
Продолжительность : 20 м.
Битрейт : 1609 Кбит/сек
Ширина : 720 пикс.
Высота : 512 пикс.
Соотношение сторон : 1,406
Частота кадров : 25,000 кадр/сек
Цветовое пространство : YUV
Подвыборка цветности : 4:2:0
Битовая глубина : 8 бит
Тип развёртки : Прогрессивная
Метод сжатия : С потерями
Бит/(Пиксели*Кадры) : 0.175
Размер потока : 233 Мбайт (89%)
Библиотека кодирования : XviD 1.2.0.dev47 (UTC 2006-11-01)

Аудио
Идентификатор : 1
Формат : AC-3
Формат/Информация : Audio Coding 3
Расширение режима : CM (complete main)
Идентификатор кодека : 2000
Продолжительность : 20 м.
Вид битрейта : Постоянный
Битрейт : 192 Кбит/сек
Канал(ы) : 2 канала(ов)
Расположение каналов : Front: L R
Частота : 48,0 КГц
Битовая глубина : 16 бит
Метод сжатия : С потерями
Размер потока : 27,8 Мбайт (11%)
Выравнивание : Разделение по промежуткам
Продолжительность промежутка : 40 мс. (1,00 видеокадр)
Время предзагрузки промежутка : 500 ms
Скриншоты:




Муми-тролль и комета (1978) DVDRip
Русское название: Муми-тролль и комета
Год выпуска: 1978
Жанр: Детский, Кукольный



Pежиссер: Аида Зябликова
Роли озвучивают: Зиновий Гердт, Ольга Гобзева

Oписание фильма:
По мотивам повести Т. Янссон «Муми-тролль и комета».

Продолжительность: 00:16:53
Качество видео: DVDRip

Видеокодек: Xvid
Битрейт видео: ~1922 kb/s
Размер кадра: 720x512
Аудиокодек: AC3, 2 ch
Битрейт аудио: 192 kb/s
Общее
Полное имя : F:\Мультфильмы\Советские мультфильмы\М\Муми троль\Муми-Троль и комета.avi
Формат : AVI
Формат/Информация : Audio Video Interleave
Размер файла : 257 Мбайт
Продолжительность : 16 м.
Программа кодирования : VirtualDubModRus 1.5.10.2 (build 2542/release)

Видео
Идентификатор : 0
Формат : MPEG-4 Visual
Профиль формата : Advanced Simple@L5
Параметр BVOP формата : 1
Параметр QPel формата : Нет
Параметр GMC формата : Без точки перехода
Параметр матрицы формата : Default (MPEG)
Режим смешивания : Сжатый битовый поток
Идентификатор кодека : XVID
Идентификатор кодека/Подсказка : XviD
Продолжительность : 16 м.
Битрейт : 1922 Кбит/сек
Ширина : 720 пикс.
Высота : 512 пикс.
Соотношение сторон : 1,406
Частота кадров : 25,000 кадр/сек
Цветовое пространство : YUV
Подвыборка цветности : 4:2:0
Битовая глубина : 8 бит
Тип развёртки : Прогрессивная
Метод сжатия : С потерями
Бит/(Пиксели*Кадры) : 0.208
Размер потока : 232 Мбайт (90%)
Библиотека кодирования : XviD 1.2.0.dev47 (UTC 2006-11-01)

Аудио
Идентификатор : 1
Формат : AC-3
Формат/Информация : Audio Coding 3
Расширение режима : CM (complete main)
Идентификатор кодека : 2000
Продолжительность : 16 м.
Вид битрейта : Постоянный
Битрейт : 192 Кбит/сек
Канал(ы) : 2 канала(ов)
Расположение каналов : Front: L R
Частота : 48,0 КГц
Битовая глубина : 16 бит
Метод сжатия : С потерями
Задержка видео : 24 мс.
Размер потока : 23,2 Мбайт (9%)
Выравнивание : Разделение по промежуткам
Продолжительность промежутка : 40 мс. (1,00 видеокадр)
Время предзагрузки промежутка : 500 ms
Скриншоты:




Муми-тролль и комета: Путь домой (1978) DVDRip
Русское название: Муми-тролль и комета: Путь домой
Год выпуска: 1978
Жанр: Детский, Кукольный



Режиссер: Аида Зябликова
Роли озвучивают: Зиновий Гердт, Ольга Гобзева

Описание фильма:
По мотивам повести Т. Янссон «Муми-тролль и комета».

Продолжительность: 00:18:09
Качество видео: DVDRip

Видеокодек: Xvid
Битрейт видео: ~1985 kb/s
Размер кадра: 720x512
Аудиокодек: AC3, 2 ch
Битрейт аудио: 192 kb/s
Общее
Полное имя : F:\Мультфильмы\Советские мультфильмы\М\Муми троль\Муми-тролль и комета. Путь домой.avi
Формат : AVI
Формат/Информация : Audio Video Interleave
Размер файла : 284 Мбайт
Продолжительность : 18 м.
Общий поток : 2187 Кбит/сек
Программа кодирования : VirtualDubModRus 1.5.10.2 (build 2542/release)

Видео
Идентификатор : 0
Формат : MPEG-4 Visual
Профиль формата : Advanced Simple@L5
Параметр BVOP формата : 1
Параметр QPel формата : Нет
Параметр GMC формата : Без точки перехода
Параметр матрицы формата : Default (MPEG)
Режим смешивания : Сжатый битовый поток
Идентификатор кодека : XVID
Идентификатор кодека/Подсказка : XviD
Продолжительность : 18 м.
Битрейт : 1985 Кбит/сек
Ширина : 720 пикс.
Высота : 512 пикс.
Соотношение сторон : 1,406
Частота кадров : 25,000 кадр/сек
Цветовое пространство : YUV
Подвыборка цветности : 4:2:0
Битовая глубина : 8 бит
Тип развёртки : Прогрессивная
Метод сжатия : С потерями
Бит/(Пиксели*Кадры) : 0.215
Размер потока : 258 Мбайт (91%)
Библиотека кодирования : XviD 1.2.0.dev47 (UTC 2006-11-01)

Аудио
Идентификатор : 1
Формат : AC-3
Формат/Информация : Audio Coding 3
Расширение режима : CM (complete main)
Идентификатор кодека : 2000
Продолжительность : 18 м.
Вид битрейта : Постоянный
Битрейт : 192 Кбит/сек
Канал(ы) : 2 канала(ов)
Расположение каналов : Front: L R
Частота : 48,0 КГц
Битовая глубина : 16 бит
Метод сжатия : С потерями
Задержка видео : 16 мс.
Размер потока : 24,9 Мбайт (9%)
Выравнивание : Разделение по промежуткам
Продолжительность промежутка : 40 мс. (1,00 видеокадр)
Время предзагрузки промежутка : 500 ms
Скриншоты:


[NNM-Club.ru]_Mumi trol'.torrent
 Торрент: Платиновая раздача  Зарегистрирован
 
Скачать


Примагнититься
 Зарегистрирован:   18 Июл 2012 12:55:10
 Размер:   803 MB  (
 Рейтинг:   4,9 (Голосов: 64)
 Поблагодарили:   302
 Проверка:   Оформление проверено модератором 18 Июл 2012 14:45:58
Как cкачать  ·  Как раздать  ·  Правильно оформить  ·  Поднять ратио!  
lomag
Стаж: 8 лет 3 мес.
Сообщений: 36
Ratio: 6,428
100%
Откуда: Ukraine
хех , мультик детства.... качаю дочке(3года).
надо правильные мультики детам показывать ... а не телепузиков с пикачушками китайскими, выносящими детскую психику на уровень параноидальной шизофринии
NerdMan
 
Стаж: 6 лет 6 мес.
Сообщений: 1575
Ratio: 387,298
Раздал: 19,33 TB
100%
Откуда: <= оттуда
cod4.gif
Нашел - забрал. Благодарю.

_________________
Ни политика, ни скрытый смысл — не являются препятствием для Вашей точки зрения & Свобода в информационном поле - истинная свобода и гарант конституции
corsul
Стаж: 6 лет 4 мес.
Сообщений: 344
Ratio: 3,687
100%
Любимые мультфильмы,спасибо за раздачу.
bar812
Стаж: 3 года 2 мес.
Сообщений: 8
Ratio: 1,931
100%
огромное спасибо!
Gunner51

Online
Стаж: 4 года 7 мес.
Сообщений: 148
Ratio: 120,053
Раздал: 17,36 TB
100%
Откуда: Ярославль
ussr.gif
Спасибо, качаю для детей.
Показать сообщения:   
Начать новую тему   Ответить на тему    Торрент-трекер NNM-Club -> Мультфильмы -> Отечественные Мультфильмы для детей Часовой пояс: GMT + 3
Страница 1 из 1