Классический форум-трекер
canvas not supported
Нас вместе: 4 083 618
Платим за отзывы

Змей и радуга / The Serpent and the Rainbow (1988) DVDRip


 
 
RSS
Начать новую тему   Ответить на тему    Торрент-трекер NNM-Club -> Классика кино и Старые фильмы до 90-х -> Старые Зарубежные Фильмы (HD*Rip/LQ, DVDRip, SATRip, VHSRip)
Автор Сообщение
Sедой ®
Стаж: 9 лет 3 мес.
Сообщений: 3057
Ratio: 5117,534
Поблагодарили: 643478
100%
Откуда: Донецк
Змей и радуга / The Serpent and the Rainbow (1988) DVDRip«Не хороните меня... Я не мертв!»
Русское название: Змей и радуга
Оригинальное название: The Serpent and the Rainbow
Страна: США
Студия: Universal Pictures
Год выпуска: 1988
Жанр: Ужасы, Фэнтези, Триллер, Детектив

Описание фильма:
Эта картина основана на реальных событиях, происшедших с ученым Уэйдом Дэйвисом. Деннис Алан, антрополог из Гарвардского Университета, отправляется на родину черной магии Вуду — остров Гаити, чтобы найти место изготовления странного порошка. Местная легенда гласит, что порошок этот способен возвращать к жизни мертвецов. На острове Алану предстоит столкнуться со страшной наукой, история которой уходит в глубь веков, наукой, ниспровергающей все человеческие представления о жизни и смерти.

Режиссер: Уэс Крэйвен
Актеры: Билл Пуллман, Кэти Тайсон, Закес Мокае , Пол Уинфилд , Брент Дженнингс , Конрад Робертс , Баджа Джола, Тереза Меррит , Майкл Гоф, Пол Гилфойл

Продолжительность: 01:33:53
Перевод: Профессиональный, многоголосый
Субтитры: Отсутствуют



Дата мировой премьеры: 5 февраля 1988
Дата выхода DVD релиза: 27 августа 2009, «Настроение Video»

Релиз-группа:
Видеокодек: Xvid
Битрейт видео: ~1626 Kbit/s
Размер кадра: 720 x 400
Качество видео: DVDRip
Аудиокодек: AC3 5.1
Битрейт аудио: 448 Kbit/s
Общее
Полное имя : D:\Торренты\ФИЛЬМЫ торента\Змей и радуга.1988.DVDRip.avi
Формат : AVI
Формат/Информация : Audio Video Interleave
Размер файла : 1,37 Гбайт
Продолжительность : 1 ч. 33 м.
Общий поток : 2084 Кбит/сек
Программа кодирования : VirtualDubMod 1.5.10.2 (build 2540/release)
Библиотека кодирования : VirtualDubMod build 2540/release

Видео
Идентификатор : 0
Формат : MPEG-4 Visual
Профиль формата : Advanced Simple@L5
Параметр BVOP формата : 1
Параметр QPel формата : Нет
Параметр GMC формата : Без точки перехода
Параметр матрицы формата : Default (MPEG)
Идентификатор кодека : XVID
Идентификатор кодека/Подсказка : XviD
Продолжительность : 1 ч. 33 м.
Битрейт : 1626 Кбит/сек
Ширина : 720 пикс.
Высота : 400 пикс.
Соотношение сторон : 16:9
Частота кадров : 25,000 кадр/сек
Цветовое пространство : YUV
Подвыборка цветности : 4:2:0
Битовая глубина : 8 бит
Тип развёртки : Чересстрочная
Порядок развёртки : Нижнее поле первое
Метод сжатия : С потерями
Бит/(Пиксели*Кадры) : 0.226
Размер потока : 1,07 Гбайт (78%)
Библиотека кодирования : XviD 1.2.1 (UTC 2008-12-04)

Аудио
Идентификатор : 1
Формат : AC-3
Формат/Информация : Audio Coding 3
Расширение режима : CM (complete main)
Идентификатор кодека : 2000
Продолжительность : 1 ч. 33 м.
Вид битрейта : Постоянный
Битрейт : 448 Кбит/сек
Каналы : 6 каналов
Расположение каналов : Front: L C R, Side: L R, LFE
Частота : 48,0 КГц
Битовая глубина : 16 бит
Метод сжатия : С потерями
Размер потока : 301 Мбайт (22%)
Выравнивание : Разделение по промежуткам
Продолжительность промежутка : 40 мс. (1,00 видеокадр)
Время предзагрузки промежутка : 500 ms

Скриншоты:

Время раздачи: 24/7 по возможности
[NNM-Club.ru]_Zmey i raduga.1988.DVDRip.avi.torrent
 Торрент: Платиновая раздача  Зарегистрирован
 
Скачать


Примагнититься
 Зарегистрирован:   22 Июл 2012 11:39:25
 Размер:   1,37 GB  (
 Рейтинг:   4,5 (Голосов: 21)
 Поблагодарили:   82
 Проверка:   Оформление проверено модератором 22 Июл 2012 11:42:39
Как cкачать  ·  Как раздать  ·  Правильно оформить  ·  Поднять ратио!  
Loading...
gx90
Стаж: 7 лет 9 мес.
Сообщений: 116
Ratio: 13,781
100%
ussr.gif
Подскажите, пожалуйста, похожие фильмы. От себя могу назвать "Сердце Ангела"
KoWMaPuK
Стаж: 12 лет 1 мес.
Сообщений: 233
Ratio: 13,33
Поблагодарили: 57
83.64%
ussr.gif
>Эта картина основана на реальных событиях

падсталом

_________________
Мы, русские, страшный народ – мы даже Гитлера до самоубийства довели(с)
Devel87
Стаж: 6 лет 3 мес.
Сообщений: 1278
Ratio: 45,153
100%
vietnam.gif
Довольно-таки неплохое кино.Читал отзывы на кинопоиске,так там большинство народу его рекомендует глянуть.Благодарю за релиз.Раздающих поддержу месяц,три
Топик был перенесен из форума Грайндхаус в форум Старые Зарубежные Фильмы (HD*Rip/LQ, DVDRip, SATRip, VHSRip)



Исправил релиз - напиши ЛС MAG3131, дав ссылку на релиз.
Если нет ответа 24 часа - нажми на кнопку "Обратить внимание модераторов".
Показать сообщения:   
Начать новую тему   Ответить на тему    Торрент-трекер NNM-Club -> Классика кино и Старые фильмы до 90-х -> Старые Зарубежные Фильмы (HD*Rip/LQ, DVDRip, SATRip, VHSRip) Часовой пояс: GMT + 3
Страница 1 из 1