Классический форум-трекер
canvas not supported
Нас вместе: 4 078 832

От двух до пяти (1983) DVDRip [H.264] [Реставрация]


 
 
RSS
Начать новую тему   Ответить на тему    Торрент-трекер NNM-Club -> Мультфильмы -> Отечественные Мультфильмы для детей
Автор Сообщение
Гошка_Я ®
Стаж: 8 лет
Сообщений: 204
Ratio: 83,015
Поблагодарили: 25597
100%
russia.gif
От двух до пяти (1983) DVDRip [H.264] [Реставрация]
Русское название: От двух до пяти
Год выпуска: 1983
Жанр: Рисованная анимация, Детский, Сказка
Реставрация: «Крупный план», 2004 год.
Продолжительность: 00:07:22
Режиссер: Владимир Попов
Роли озвучивают: Анна Монетова, Михаил Зусман, Наталья Козырь, Вадим Савичев

Описание фильма:
В мультфильме рассказывается об удивительной способности детей создавать новые слова и фразы, объясняя по-своему понятные им явления: «притонула», «вытонула», «юбка — это брюки, только с одной штаниной» и т. п. Снят по мотивам одноименной книги Корнея Ивановича Чуковского, в которой собрано много смешных и по-детски метких изречений.
В фильме использованы рисунки Ю.Анненкова, С.Чехонина, В.Конашевича, Н.Радлова, Кукрыниксов.



Качество видео: DVDRip
Видеокодек: MPEG-4 AVC/H.264
Битрейт видео: ~2 000 Kbps
Размер кадра: 720x576 @ 768 x 576, 4:3, 25 fps
Аудиокодек: AC3, 6 ch
Битрейт аудио: 448 Kbps
General
Unique ID : 194357093991705292006753141040397934071 (0x9237D091A385287C91D1E30AC687DDF7)
Complete name : D:\_My Releases\От двух до пяти 1983\Ot_2_do_5_(1983)_[H.264]_DVDRip_[NNM-Club].mkv
Format : Matroska
Format version : Version 1
File size : 129 MiB
Duration : 7mn 22s
Overall bit rate : 2 451 Kbps
Movie name : От двух до пяти
Encoded date : UTC 2010-11-14 13:20:31
Writing application : mkvmerge v2.4.2 ('Oh My God') built on Jan 18 2009 17:30:28
Writing library : libebml v0.7.7 + libmatroska v0.8.1

Video
ID : 1
Format : AVC
Format/Info : Advanced Video Codec
Format profile : High@L3.0
Format settings, CABAC : Yes
Format settings, ReFrames : 8 frames
Codec ID : V_MPEG4/ISO/AVC
Duration : 7mn 22s
Bit rate : 2 000 Kbps
Width : 720 pixels
Height : 576 pixels
Display aspect ratio : 4:3
Original display aspect ratio : 5:4
Frame rate : 25.000 fps
Standard : PAL
Color space : YUV
Chroma subsampling : 4:2:0
Bit depth : 8 bits
Scan type : Progressive
Bits/(Pixel*Frame) : 0.193
Stream size : 103 MiB (80%)
Title : От двух до пяти
Writing library : x264 core 56 svn-680
Encoding settings : cabac=1 / ref=5 / deblock=1:0:0 / analyse=0x3:0x133 / me=umh / subme=7 / brdo=0 / mixed_ref=0 / me_range=16 / chroma_me=1 / trellis=0 / 8x8dct=1 / cqm=0 / deadzone=21,11 / chroma_qp_offset=0 / threads=1 / nr=0 / decimate=1 / mbaff=0 / bframes=3 / b_pyramid=1 / b_adapt=1 / b_bias=0 / direct=1 / wpredb=1 / bime=0 / keyint=250 / keyint_min=25 / scenecut=40 / rc=2pass / bitrate=2000 / ratetol=1.0 / rceq='blurCplx^(1-qComp)' / qcomp=0.60 / qpmin=10 / qpmax=51 / qpstep=4 / cplxblur=20.0 / qblur=0.5 / ip_ratio=1.40 / pb_ratio=1.30
Default : Yes
Forced : No

Audio
ID : 2
Format : AC-3
Format/Info : Audio Coding 3
Mode extension : CM (complete main)
Codec ID : A_AC3
Duration : 7mn 22s
Bit rate mode : Constant
Bit rate : 448 Kbps
Channel(s) : 6 channels
Channel positions : Front: L C R, Side: L R, LFE
Sampling rate : 48.0 KHz
Bit depth : 16 bits
Compression mode : Lossy
Stream size : 23.6 MiB (18%)
Language : Russian
Default : Yes
Forced : No
Скриншоты:

Реставрация от: starklad
Корней Чуковский | От двух до пяти (1963) [PDF]
Ot_2_do_5_(1983)_[H.264]_DVDRip_[NNM-Club].mkv.torrent
 Торрент: Платиновая раздача  Зарегистрирован
 
Скачать


Примагнититься
 Зарегистрирован:   28 Июл 2012 20:58:50
 Размер:   129 MB  (
 Рейтинг:   4,8 (Голосов: 44)
 Поблагодарили:   160
 Проверка:   Оформление проверено модератором 28 Июл 2012 22:23:10
Как cкачать  ·  Как раздать  ·  Правильно оформить  ·  Поднять ратио!  

_________________
Чем хорош NNM-club?
Тем, что только здесь, шедевры советского и отечественного кинематографа раздаются просто так, за «СПАСИБО».
Мои релизы
Загрузка...
naumych
Стаж: 8 лет 11 мес.
Сообщений: 21
Ratio: 3,287
0%
russia.gif
Видел как то раз по ТВ не сначала и тем самым не знал названия, искал достаточно долго и вот тебе на... СПАСИБО!
Показать сообщения:   
Начать новую тему   Ответить на тему    Торрент-трекер NNM-Club -> Мультфильмы -> Отечественные Мультфильмы для детей Часовой пояс: GMT + 3
Страница 1 из 1