Классический форум-трекер
canvas not supported
Нас вместе: 4 079 208

Экипаж машины боевой (1983) DVD5


 
 
RSS
Начать новую тему   Ответить на тему    Торрент-трекер NNM-Club -> Классика кино и Старые фильмы до 90-х -> Старые Отечественные Фильмы (DVD)
Автор Сообщение
SJStillAlive ®
Покровитель талантов
 
Стаж: 8 лет 7 мес.
Сообщений: 1474
Ratio: 17,31
Раздал: 17,21 TB
Поблагодарили: 70182
100%
logo.gif
Экипаж машины боевой (1983) DVD5
Русское название: Экипаж машины боевой
Год выпуска: 1983
Жанр: Драма, Военный

Описание фильма:
Лето 1943 года, ток фронта. В одном из ожесточенных боев подбит танк «Т-34». Командир танка Саша Меньшов тяжело ранен. После лечения в госпитале — снова фронт. Накануне большого боя последовал приказ — в сражения не вступать, беречь силы.

Однако продолжающиеся дерзкие вылазки фашистского танка, поджегшего машину Меньшова, приводят его к решению уничтожить немецкого аса. В поединке с боевым экипажем Меньшова вражеская машина уничтожена. Эта победа явилась как бы прологом знаменитого разгрома гитлеровских полчищ в танковом сражении под Прохоровкой.

Режиссер: Виталий Василевский
Актеры: Владимир Вихров, Леонид Яновский, Сергей Маковецкий, Михаил Семенов, Олег Куликович, Татьяна Кузнецова, Борис Сабуров

Продолжительность: 01:03:25
Субтитры: отсутствуют



Видеокодек: MPEG-2
Битрейт видео: ~7500 Кбит/сек
Размер кадра: 720 х 576@768 х 576
Качество видео: DVD5
Аудиокодек: AC3 2.0
Битрейт аудио: 192 Кбит/сек
Общее
Полное имя : F:\Lutshie_Filmy_O_Vojne__8xDVD5\Ekipazh_Mashiny_Boevoj_DVD5\VIDEO_TS\VTS_01_2.VOB
Формат : MPEG-PS
Размер файла : 1023 Мбайт
Продолжительность : 18 м.
Общий поток : 7819 Кбит/сек

Видео
Идентификатор : 224 (0xE0)
Формат : MPEG Video
Версия формата : Version 2
Профиль формата : Simple@Main
Параметр BVOP формата : Нет
Параметр матрицы формата : По умолчанию
Параметры GOP формата : M=1, N=15
Продолжительность : 18 м.
Вид битрейта : Постоянный
Битрейт : 7500 Кбит/сек
Ширина : 720 пикс.
Высота : 576 пикс.
Соотношение сторон : 4:3
Частота кадров : 25,000 кадр/сек
Стандарт вещания : PAL
Цветовое пространство : YUV
Подвыборка цветности : 4:2:0
Битовая глубина : 8 бит
Тип развёртки : Чересстрочная
Порядок развёртки : Верхнее поле первое
Метод сжатия : С потерями
Бит/(Пиксели*Кадры) : 0.723
Размер потока : 978 Мбайт (96%)

Аудио
Идентификатор : 189 (0xBD)-128 (0x80)
Формат : AC-3
Формат/Информация : Audio Coding 3
Расширение режима : CM (complete main)
Режим смешивания : DVD-Video
Продолжительность : 18 м.
Вид битрейта : Постоянный
Битрейт : 192 Кбит/сек
Каналы : 2 канала
Расположение каналов : Front: L R
Частота : 48,0 КГц
Битовая глубина : 16 бит
Метод сжатия : С потерями
Задержка видео : -144 мс.
Размер потока : 25,1 Мбайт (2%)

Меню
Title: Ekipazh_Mashiny_Boevoj_DVD5
Size: 3.49 Gb ( 3 660 728,00 KBytes ) - DVD-5
Enabled regions: 1, 2, 3, 4, 5, 6, 7, 8

VTS_01 :
Play Length: 01:03:25
Video: PAL 4:3 (720x576) VBR
Audio:
Russian (Dolby AC3, 2 ch)

* Menus Information *

VIDEO_TS Menu
Video:
PAL 4:3 (720x576) VBR
Audio:
Not specified (Dolby AC3, 2 ch)
Russian Language Unit :
Title Menu

VTS_01 Menu
Video:
PAL 4:3 (720x576) VBR
Audio:
Not specified (Dolby AC3, 2 ch)
Russian Language Unit :
Root Menu
Chapter (PTT) Menu
Дополнительные материалы: отсутствуют
Меню: на русском языке
Скриншоты:




Время раздачи: практически ежедневно с 12 до 4 до 10 скачавших

Все раздачи Экипаж машины боевой на NNM-CLUB
[NNM-Club.ru]_Ekipazh_Mashiny_Boevoj_DVD5.torrent
 Торрент: Платиновая раздача  Зарегистрирован
 
Скачать


 Зарегистрирован:   09 Авг 2012 21:12:50
 Размер:   3,49 GB  (
 Рейтинг:   4,9 (Голосов: 20)
 Поблагодарили:   49
 Проверка:   Оформление проверено модератором 10 Авг 2012 12:24:58
Как cкачать  ·  Как раздать  ·  Правильно оформить  ·  Поднять ратио!  
Показать сообщения:   
Начать новую тему   Ответить на тему    Торрент-трекер NNM-Club -> Классика кино и Старые фильмы до 90-х -> Старые Отечественные Фильмы (DVD) Часовой пояс: GMT + 3
Страница 1 из 1