Классический форум-трекер
canvas not supported
Нас вместе: 4 081 844

Уроки рисования с Сергеем Андриякой (2012) [H.264] IPTVRip


 
 
RSS
Начать новую тему   Ответить на тему    Торрент-трекер NNM-Club -> Видео -> Обучающее Видео для родителей
Автор Сообщение
Ksenia-2004 ®
Стаж: 8 лет 2 мес.
Сообщений: 92
Ratio: 37,036
Раздал: 2,274 TB
Поблагодарили: 7528
100%
russia.gif
Уроки рисования с Сергеем Андриякой (2012) [H.264] IPTVRip
Русское название: Уроки рисования с Сергеем Андриякой
Год выпуска: 2012
Производство: Россия, "Культура"
Жанр: Обучающий, Видеоуроки, Рисование
Режиссер: Игорь Волосецкий
Участники: Сергей Андрияка

Описание фильма:
С 17 сентября канал "Культура" запустил цикл программ "Уроки рисования с Сергеем Андриякой".
Народный художник России Сергей Андрияка рассказывет зрителям, как строить изображение в графике, как изображать пространство, для чего нужна перспектива и какой она бывает. Также художник научит основам владения различными изобразительными средствами. Под руководством Андрияки зрители научатся рисовать натюрморты, животных и бытовые предметы.

Продолжительность: 8 х ~00:25:00
Качество видео: IPTVRip

Видеокодек: AVC/H.264
Битрейт видео: ~277 kbps
Размер кадра: 480x360
Аудиокодек: AAC, 2 ch
Битрейт аудио: 103 kbps
Уроки рисования 1. Яйцо.
Уроки рисования 2. Чеснок.
Уроки рисования 3. Груша.
Уроки рисования 4. Книга.
Уроки рисования 5. Стекло.
Уроки рисования 6. Драпировка.
Уроки рисования 7. Половник.
Уроки рисования 8. Пион в карандаше.
Уроки рисования 9. Сирень.
Уроки рисования 10. Пионы (акварель).
Уроки рисования 11. Одуванчики.
Уроки рисования 12. Лилии.
Уроки рисования 13. Слон.
Уроки рисования 14. Овцебык.
Уроки рисования 15. Фламинго.
Уроки рисования 16. Жираф.
Формат : MPEG-4
Профиль формата : Base Media / Version 2
Идентификатор кодека : mp42
Размер файла : 69,8 Мбайт
Продолжительность : 25 м.
Режим общего битрейта : Переменный
Общий поток : 376 Кбит/сек
Дата кодирования : UTC 2012-09-24 20:15:51
Дата пометки : UTC 2012-09-24 20:15:51
gsst : 0
gstd : 1557733
gssd : B4A7DD843HH1348899872331088
gshh : r3---sn-cg07lues.c.youtube.com

Видео
Идентификатор : 1
Формат : AVC
Формат/Информация : Advanced Video Codec
Профиль формата : Baseline@L2.1
Параметр CABAC формата : Нет
Параметр ReFrames формата : 1 кадр
Параметр GOP формата : M=1, N=60
Идентификатор кодека : avc1
Идентификатор кодека/Информация : Advanced Video Coding
Продолжительность : 25 м.
Битрейт : 277 Кбит/сек
Максимальный битрейт : 1284 Кбит/сек
Ширина : 480 пикселей
Высота : 360 пикселей
Соотношение сторон : 4:3
Режим частоты кадров : Постоянный
Частота кадров : 25,000 кадров/сек
Цветовое пространство : YUV
Субдискретизация насыщенности : 4:2:0
Битовая глубина : 8 бит
Тип развёртки : Прогрессивная
Бит/(Пиксели*Кадры) : 0.064
Размер потока : 51,5 Мбайт (74%)
Дата пометки : UTC 2012-09-24 20:15:52

Аудио
Идентификатор : 2
Формат : AAC
Формат/Информация : Advanced Audio Codec
Профиль формата : LC
Идентификатор кодека : 40
Продолжительность : 25 м.
Вид битрейта : Переменный
Битрейт : 96,0 Кбит/сек
Максимальный битрейт : 103 Кбит/сек
Каналы : 2 канала
Расположение каналов : Front: L R
Частота : 44,1 КГц
Метод сжатия : С потерями
Размер потока : 17,8 Мбайт (26%)
Заголовок : IsoMedia File Produced by Google, 5-11-2011
Дата кодирования : UTC 2012-09-24 20:15:52
Дата пометки : UTC 2012-09-24 20:15:52
Скриншоты:


Время раздачи: 24/7 по возможности
[NNM-Club.ru]_Uroki risovaniya s Sergeem Andriyakoy.torrent
 Торрент: Платиновая раздача  Зарегистрирован
 
Скачать


 Зарегистрирован:   13 Окт 2012 21:24:02
 Размер:   1,13 GB  (
 Рейтинг:   4,9 (Голосов: 102)
 Поблагодарили:   386
 Проверка:   Оформление проверено модератором 13 Окт 2012 22:05:02
Как cкачать  ·  Как раздать  ·  Правильно оформить  ·  Поднять ратио!  
Rundll123
Стаж: 8 лет 8 мес.
Сообщений: 92
Ratio: 1,606
Поблагодарили: 11
100%
Откуда: Из Зимбабье
russia.gif
Заинтересовало только потомучто для себя можно чтото извлечь (судя по скриншотам))
L.A.Denis
Стаж: 8 лет 9 мес.
Сообщений: 93
Ratio: 7,34
100%
Откуда: дер. Бухловка, Ширяевского р-на
russia.gif
Сколько ещё планируется уроков?
spero11
Стаж: 7 лет 7 мес.
Сообщений: 80
Ratio: 10,248
100%
Откуда: ALMATY
kazakhstan.gif
Просьба добавлять последующие серии.
bosskir
Стаж: 9 лет 5 мес.
Сообщений: 289
Ratio: 16,579
100%
СУПЕР!!!!!
Ksenia-2004 ®
Стаж: 8 лет 2 мес.
Сообщений: 92
Ratio: 37,036
Раздал: 2,274 TB
Поблагодарили: 7528
100%
russia.gif
Добавлены новые уроки:
Уроки рисования 9. Сирень.
Уроки рисования 10. Пионы (акварель).
Уроки рисования 11. Одуванчики.
Уроки рисования 12. Лилии.
Ksenia-2004 ®
Стаж: 8 лет 2 мес.
Сообщений: 92
Ratio: 37,036
Раздал: 2,274 TB
Поблагодарили: 7528
100%
russia.gif
Добавлены новые уроки:
Уроки рисования 13. Слон.
Уроки рисования 14. Овцебык.
Уроки рисования 15. Фламинго.
Уроки рисования 16. Жираф.
khmarnik
Стаж: 9 лет 11 мес.
Сообщений: 197
Ratio: 4,015
100%
спасибо, и мы будем учиться.
ivlavla
Стаж: 10 лет 1 мес.
Сообщений: 54
Ratio: 29,485
100%
russia.gif
Великолепно!! Отличное видео!! Не ожидал найти здесь, спасибо.

_________________
Все скачать и все раздать!
garbi-s
Стаж: 9 лет 7 мес.
Сообщений: 13
Ratio: 2,737
100%
russia.gif
Спасибо!
Jera
Стаж: 10 лет 7 мес.
Сообщений: 17
Ratio: 211,919
Раздал: 237,2 TB
100%
Откуда: ДНР
russia.gif
продолжение будет ?????
ира12122012
Стаж: 6 лет
Сообщений: 1
Ratio: 1,17
0%
добавьте раздачу пожайлуста Татьяна Артыкова Рисуем портрет просто
Показать сообщения:   
Начать новую тему   Ответить на тему    Торрент-трекер NNM-Club -> Видео -> Обучающее Видео для родителей Часовой пояс: GMT + 3
Страница 1 из 1