Классический форум-трекер
canvas not supported
Нас вместе: 4 077 867

Puni Puni Poemi / Пуни Пуни Поэми [2001, OVA, 2 из 2] DVDRip hs+rus


 
 
RSS
Начать новую тему   Ответить на тему    Торрент-трекер NNM-Club -> Аниме разное -> Аниме хардсаб
Автор Сообщение
gdfhs6t6we ®
Стаж: 8 лет 4 мес.
Сообщений: 675
Ratio: 780,298
Поблагодарили: 12211
100%
albania.gif
ぷにぷに☆ぽえみぃ / Puni Puni Poemi / Пуни Пуни Поэми
Жанр: пародия, комедия, махо-сёдзё, этти
Тип: OVA
Количество серий: 2 из 2
Продолжительность: OVA (2 эп.), 30 мин.
Дата премьеры / период выхода: c 07.03.2001 по 19.12.2001
Производство/студия:
Режиссер: Ватанабэ Синъити

Качество видео: DVDRip
Видео: MPEG-4, 512x384, 23,976 кадра/сек, ~1361 кбит/с
Аудио #1: Профессиональный (одноголосый), MPEG Audio, 2 ch, 160 кбит/с, 44,1 КГц. Звук: Русский (поверх японского)
Тип субтитров: HS
Язык неотключаемых субтитров: Английский
01. Poemi is In a Bad Mood
02. With a Dream Greater than Earth
Код:

Общее
Полное имя                               : N:\torrent\Puni Puni Poemi.avi
Формат                                   : AVI
Формат/Информация                        : Audio Video Interleave
Размер файла                             : 652 Мбайт
Продолжительность                        : 59 м.
Общий поток                              : 1527 Кбит/сек

Видео
Идентификатор                            : 0
Формат                                   : MPEG-4 Visual
Параметр BVOP формата                    : 1
Параметр QPel формата                    : Нет
Параметр GMC формата                     : Без точки перехода
Параметр матрицы формата                 : Default (H.263)
Режим смешивания                         : Сжатый битовый поток
Идентификатор кодека                     : DX50
Идентификатор кодека/Подсказка           : DivX 5
Продолжительность                        : 59 м.
Битрейт                                  : 1361 Кбит/сек
Ширина                                   : 512 пикселей
Высота                                   : 384 пикселя
Соотношение сторон                       : 4:3
Частота кадров                           : 23,976 кадра/сек
Цветовое пространство                    : YUV
Субдискретизация насыщенности            : 4:2:0
Битовая глубина                          : 8 бит
Тип развёртки                            : Прогрессивная
Метод сжатия                             : С потерями
Бит/(Пиксели*Кадры)                      : 0.289
Размер потока                            : 581 Мбайт (89%)
Библиотека кодирования                   : DivX 5.1.1 (Maupiti) (UTC 2003-11-19)

Аудио
Идентификатор                            : 1
Формат                                   : MPEG Audio
Версия формата                           : Version 1
Профиль формата                          : Layer 3
Идентификатор кодека                     : 55
Идентификатор кодека/Подсказка           : MP3
Продолжительность                        : 59 м.
Вид битрейта                             : Постоянный
Битрейт                                  : 160 Кбит/сек
Каналы                                   : 2 канала
Частота                                  : 44,1 КГц
Метод сжатия                             : С потерями
Размер потока                            : 68,3 Мбайт (10%)
Выравнивание                             : Разделение по промежуткам
Продолжительность промежутка             : 709  мс. (17,00 видеокадров)
Описание:
Пародийная OVA. В некотором роде продолжение Эксель Саги. Состоит из двух частей. Первая из них рекламировалась в 26 серии Эксель Саги. Кто-то пытается захватить мир и с этой целью убил режиссёра фильма. В результате Поэми осталась без дома и была принята в семью Аасу, являющуюся династией защитников Земли. Позднее у неё проявляются магические силы, но ничего хорошего из попыток их применения не выходит.

Ссылки:
Ani-DB :: World Art
Скриншоты:


Время раздачи: 24/7 до первых 3х скачавших
[NNM-Club.ru]_Puni Puni Poemi.avi.torrent
 Торрент: Платиновая раздача  Зарегистрирован
 
Скачать


 Зарегистрирован:   07 Окт 2012 16:46:58
 Размер:   652 MB  (
 Рейтинг:   4,6 (Голосов: 11)
 Поблагодарили:   9
 Проверка:   Оформление проверено модератором 07 Окт 2012 16:55:54
Как cкачать  ·  Как раздать  ·  Правильно оформить  ·  Поднять ратио!  
Nick_LX
Стаж: 7 лет 2 мес.
Сообщений: 13
Ratio: 4,653
13.16%
прикольная штука, спасибо
Показать сообщения:   
Начать новую тему   Ответить на тему    Торрент-трекер NNM-Club -> Аниме разное -> Аниме хардсаб Часовой пояс: GMT + 3
Страница 1 из 1