Классический форум-трекер
canvas not supported
Нас вместе: 4 093 988

Ментовские войны 5 (16 серий из 16) (2010-2011) DVB


 
 
RSS
Начать новую тему   Ответить на тему    Торрент-трекер NNM-Club -> Отечественные сериалы -> Ментовские войны
Автор Сообщение
Garryson ®
Сталкер
Uploader 200+
Стаж: 11 лет 7 мес.
Сообщений: 5022
Ratio: 1088,076
Поблагодарили: 162053
100%
Откуда: DFO
Ментовские войны 5 (16 серий из 16) (2010-2011) DVB
Русское название: Ментовские войны 5
Оригинальное название: Ментовские войны 5
Год выпуска: 2010-2011
Страна: Россия / Студия Панорама
Жанр: детектив, криминал


Премьера (РФ): 8 января 2011 (RTVi), 27 февраля 2012 (НТВ)


Режиссеры: Алексей Богданов, Алан Дзоциев
Актеры: Александр Устюгов, Денис Елисеев, Дмитрий Быковский-Ромашов, Всеволод Цурило, Роман Громадский, Максим Студеновский, Марина Игнатова, Янина Соколовская (III), Анатолий Узденский, Татьяна Гончарова (II), Сергей Кушаков, Дмитрий Лебедев (III), Геннадий Крук, Дмитрий Воробьёв (II), Александр Маковский (II), Олег Дуленин, Константин Хасанов, Наталья Розанова, Андрей Павловец, Игорь Алимджанов, Владимир Студеновский, Елена Бояршинова, Мария Иванова (IV), Руслан Ибрагимов, Наталья Ткаченко, Юлия Рудина, Андрей Кузнецов, Сергей Лысов, Ирина Ракшина, Виктор Лабынцев, Денис Горин, Екатерина Шукшина, Анатолий Ильченко, Вадим Сквирский....


Описание фильма:
Авторитет Шилова велик и ему снова предлагают возглавить убойный отдел. Шилов собирает старую команду проверенных друзей. В отдел приходят Джексон и Арнаутов. Тем временем череда странных самоубийств среди успешных бизнесменов города заставляет Шилова кое о чем задуматься.
Странно, что бизнесмены перед смертью легко и непринужденно продавали свой бизнес. Ощущение, что весь мир сошел с ума, не покидает Шилова. В деле замешан секретный аппарат, воздействующий на психику человека.....

Продолжительность: 16 ~ 00:45
Качество видео: DVB

Видеокодек: MPEG2
Битрейт видео: ~5130 kbps avg
Размер кадра: 720x576 (4:3), 25.000 fps
Аудиокодек: MPEG Audio Layer 2
Аудио:48 kHz, 2 ch, ~192 kbps avg
Субтитры: нет


Семпл
Формат : MPEG-PS
Размер файла : 1,69 Гбайт
Продолжительность : 44 м.
Режим общего битрейта : Переменный
Общий поток : 5430 Кбит/сек
Библиотека кодирования : (c) 1998-2011 Womble Multimedia, Inc. / MPEG Video Wizard DVD 5.0.1.100 (03/2011) / Dec 19 2011

Видео
Идентификатор : 224 (0xE0)
Формат : MPEG Video
Версия формата : Version 2
Профиль формата : Main@Main
Параметр BVOP формата : Да
Параметр матрицы формата : Выборочная
Параметр GOP формата : M=3, N=15
Продолжительность : 44 м.
Вид битрейта : Переменный
Битрейт : 5130 Кбит/сек
Максимальный битрейт : 15,0 Мбит/сек
Ширина : 720 пикселей
Высота : 576 пикселей
Соотношение сторон : 4:3
Частота кадров : 25,000 кадров/сек
Стандарт вещания : PAL
Цветовое пространство : YUV
Субдискретизация насыщенности : 4:2:0
Битовая глубина : 8 бит
Тип развёртки : Чересстрочная
Порядок развёртки : Верхнее поле первое
Метод сжатия : С потерями
Бит/(Пиксели*Кадры) : 0.495
Размер потока : 1,60 Гбайт (94%)
Библиотека кодирования : (c) 1998-2011 Womble Multimedia, Inc. / MPEG Video Wizard DVD 5.0.1.100 (03/2011) / Dec 19 2011

Аудио
Идентификатор : 192 (0xC0)
Формат : MPEG Audio
Версия формата : Version 1
Профиль формата : Layer 2
Продолжительность : 44 м.
Вид битрейта : Постоянный
Битрейт : 192 Кбит/сек
Каналы : 2 канала
Частота : 48,0 КГц
Метод сжатия : С потерями
Размер потока : 61,2 Мбайт (4%)
Скриншоты:






Ментовские войны

Время раздачи: 24/7
[NNM-Club.ru]_Mentovskie voynyi 5.torrent
 Торрент: Платиновая раздача  Зарегистрирован
 
Скачать


 Зарегистрирован:   09 Окт 2012 13:11:59
 Размер:   27 GB  (
 Рейтинг:   4,5 (Голосов: 117)
 Поблагодарили:   450
 Проверка:   Оформление проверено модератором 09 Окт 2012 13:13:17
Как cкачать  ·  Как раздать  ·  Правильно оформить  ·  Поднять ратио!  
yarosla73
Стаж: 7 лет 9 мес.
Сообщений: 116
Ratio: 2,048
100%
ukraine.gif
фильм отличный!кто не смотрел-смотреть!!!
mkg0
Стаж: 8 лет 7 мес.
Сообщений: 36
Ratio: 3,781
Раздал: 1,531 TB
95.5%
Откуда: Саратов
russia.gif
Люди дайте скорости
Kharkovch​anin1968​
Стаж: 8 лет 4 мес.
Сообщений: 2426
Ratio: 13,82
Раздал: 3,721 TB
Поблагодарили: 13902
100%
Меня вот эта фишка удивляет, просят стать на раздачу, становишься а качать никто не качает :незнает:
deny1971
Стаж: 8 лет 8 мес.
Сообщений: 25
Ratio: 1,13
100%
Газку прибавьте!
Babai2012
 
Стаж: 7 лет 10 мес.
Сообщений: 89
Ratio: 14,612
100%
Откуда: За МКАДом
russia.gif
Ау, газку просимо!
spartak 234
Стаж: 7 лет 8 мес.
Сообщений: 4
Ratio: 7,005
0%
Дайте скорости плиз до 24ч надо успеть
Sagatkali
Стаж: 8 лет 9 мес.
Сообщений: 324
Ratio: 6,07
100%
kazakhstan.gif
:приветствую: :приветствую: :приветствую:
Показать сообщения:   
Начать новую тему   Ответить на тему    Торрент-трекер NNM-Club -> Отечественные сериалы -> Ментовские войны Часовой пояс: GMT + 3
Страница 1 из 1