Классический форум-трекер
canvas not supported
Нас вместе: 4 093 648

Опасный рейс / Air Collision (2012) HDRip


 
 
RSS
Начать новую тему   Ответить на тему    Торрент-трекер NNM-Club -> Зарубежное кино -> Зарубежные Фильмы (HD*Rip/LQ, DVDRip, SATRip, VHSRip)
Автор Сообщение
SKVSM ®
Покровитель талантов
Uploader 100+
 
Стаж: 9 лет 4 мес.
Сообщений: 1083
Ratio: 297,829
Поблагодарили: 21433
100%
nnm-club.gif
Опасный рейс / Air Collision (2012) HDRip
Русское название: Опасный рейс
Оригинальное название: Air Collision
Год выпуска: 2012
Производство: США / Global Asylum, The
Жанр: Боевик
Перевод: Профессиональный многоголосый [лицензия]

Дата мировой премьеры: 27 марта 2012

Режиссер: Лиз Адамс
Продюсер: Пол Бейлс, Дэвид Майкл Лэтт, Дэвид Римави
Актеры: Реджинальд ВелДжонсон, Джордан Лэдд, Джералд Уэбб, Дэрин Купер, Даррен Томас, Кевин Ярброу, Эрин Кокер, Кэрин Уорд, Энди Клеменс

Описание фильма:
Мощная вспышка на солнце выводит из строя систему диспетчерского управления воздушным движением, а в это время пассажирский лайнер и самолет ВВС номер один летят встречными курсами в небе в районе Среднего Запада.



Продолжительность: 01:32:26
Качество видео: HDRip

Видеокодек: Xvid
Битрейт видео: ~ 1804 Кбит/с
Размер кадра: 720 x 400
Аудиокодек: AC3 5.1
Битрейт аудио: 448 Кбит/с

Код:
General
Complete name                            : E:\Opasnyj.rejs.2012.EVG.P.HDRip.IRONCLUB.avi
Format                                   : AVI
Format/Info                              : Audio Video Interleave
File size                                : 1.46 GiB
Duration                                 : 1h 32mn
Overall bit rate                         : 2 261 Kbps
Movie name                               : Opasnyj.rejs.2012.P.HDRip.IRONCLUB
Director                                 : IRONCLUB
Genre                                    : Action
Writing application                      : VirtualDubMod 1.5.10.2 (build 2540/release)
Original source form/Name                : Movie
Copyright                                :

Video
ID                                       : 0
Format                                   : MPEG-4 Visual
Format profile                           : Advanced Simple@L5
Format settings, BVOP                    : 2
Format settings, QPel                    : No
Format settings, GMC                     : No warppoints
Format settings, Matrix                  : Custom
Codec ID                                 : XVID
Codec ID/Hint                            : XviD
Duration                                 : 1h 32mn
Bit rate                                 : 1 804 Kbps
Width                                    : 720 pixels
Height                                   : 400 pixels
Display aspect ratio                     : 16:9
Frame rate                               : 23.976 fps
Color space                              : YUV
Chroma subsampling                       : 4:2:0
Bit depth                                : 8 bits
Scan type                                : Progressive
Compression mode                         : Lossy
Bits/(Pixel*Frame)                       : 0.261
Stream size                              : 1.16 GiB (80%)
Writing library                          : XviD 1.2.1 (UTC 2008-12-04)

Audio
ID                                       : 1
Format                                   : AC-3
Format/Info                              : Audio Coding 3
Mode extension                           : CM (complete main)
Format settings, Endianness              : Big
Codec ID                                 : 2000
Duration                                 : 1h 32mn
Bit rate mode                            : Constant
Bit rate                                 : 448 Kbps
Channel(s)                               : 6 channels
Channel positions                        : Front: L C R, Side: L R, LFE
Sampling rate                            : 48.0 KHz
Bit depth                                : 16 bits
Compression mode                         : Lossy
Stream size                              : 296 MiB (20%)
Alignment                                : Split accross interleaves
Interleave, duration                     : 42 ms (1.00 video frame)
Interleave, preload duration             : 500 ms
Скриншоты:





Время раздачи: 24/7
[NNM-Club.ru]_Opasnyj.rejs.2012.EVG.P.HDRip.IRONCLUB.avi.torrent
 Торрент: Золотая раздача  Зарегистрирован
 
Зарегистрируйтесь и скачайте торрент!
14,9 KB

Примагнититься
 Зарегистрирован:   01 Ноя 2012 20:44:23
 Размер:   1,46 GB  (
 Рейтинг:   3,9 (Голосов: 19)
 Поблагодарили:   83
 Проверка:   Оформление проверено модератором 02 Ноя 2012 16:36:18
Как cкачать  ·  Как раздать  ·  Правильно оформить  ·  Поднять ратио!  
avp963
Стаж: 9 лет 7 мес.
Сообщений: 2
Ratio: 7,922
1.04%
russia.gif
отстой с дешёвой графикой
Stepa56
Модератор Талантов
DG Win&Soft
 

Online
Стаж: 10 лет 4 мес.
Сообщений: 9866
Ratio: 756,588
Поблагодарили: 47064
100%
Откуда: Tver
russia.gif
Цитата:
Жанр: Боевик

Комедия...
Оборжался!
:D :смех:

_________________
TRABLA
Стаж: 10 лет 9 мес.
Сообщений: 126
Ratio: 5,747
Поблагодарили: 391
100%
russia.gif
Производство: США / Global Asylum, The

Очередной мусор :задумался:
Показать сообщения:   
Начать новую тему   Ответить на тему    Торрент-трекер NNM-Club -> Зарубежное кино -> Зарубежные Фильмы (HD*Rip/LQ, DVDRip, SATRip, VHSRip) Часовой пояс: GMT + 3
Страница 1 из 1