Классический форум-трекер
canvas not supported
Нас вместе: 4 101 093

В белом плену / Снежная тюрьма / Into the White (2012) HDRip [VO]


Страницы:  1, 2, 3, 4, 5, 6  След. 
 
RSS
Начать новую тему   Ответить на тему    Торрент-трекер NNM-Club -> Архив торрентов -> Архив Видео
Автор Сообщение
GIU ®
Uploader 100+
Стаж: 9 лет 10 мес.
Сообщений: 3474
Ratio: 4669,905
Поблагодарили: 769364
100%
ussr.gif
В белом плену / Снежная тюрьма / Into the White (2012) HDRip
Русское название: В белом плену / Снежная тюрьма
Оригинальное название: Into the White
Год выпуска: 2012
Производство: Норвегия, Швеция
Жанр: Боевик, Драма, Военный, История
Перевод: Одноголосый закадровый, любительский
Озвучка / Автор перевода: (cmert)
Субтитры: Отсутствуют
Дата мировой премьеры: 4 марта 2012
Дата российской премьеры: 26 апреля 2013, «Русский репортаж»
Режиссер: Петтер Несс
Продюсер: Петер Ольбек Енсен, Валери Саундерс, Джессика Аск
Актеры: Флориан Лукас, Дэвид Кросс, Стиг Хенрик Хофф, Локлен Нибор, Руперт Гринт, Ким Хёуген, Кнут Йонер, Мортен Фальдаас, Сондре Крогтофт Ларсен ...
Описание фильма:
Одним холодным зимним днем над территорией Норвегии разгорается жаркое сражение двух самолетов — немецкого и английского. В результате столкновения обе машины получают серьезные повреждения и падают в глухом норвежском лесу. Здесь, в изоляции от внешнего мира, враги вынуждены выживать вместе. Тяжелые условия и необходимость поддерживать друг друга постепенно превращают врагов в товарищей


Продолжительность: 01:39:58
Качество видео: HDRip

Видеокодек: Xvid
Битрейт видео: ~1700 Кбит/сек
Размер кадра: 720 x 304 (2.368) at 25.000 fps
Аудиокодек: MP3 2.0 | AC3 5.1
Аудио #1: MP3 128 Кбит/сек (2ch), 48,0 КГц, 16 бит [Русский, VO]
Аудио #2: AC3 256 Кбит/сек (6ch), 48,0 КГц, 16 бит [Английский]
Код:

Полное имя                               : G:\000 Фильмы Экранки\Снежная тюрьма  Into the White (2012HDRip)\Snezhnaya.tyurma.2012.L1.HDRip.NNM-CLUB.avi
Формат                                   : AVI
Формат/Информация                        : Audio Video Interleave
Размер файла                             : 1,47 Гбайт
Продолжительность                        : 1 ч. 39 м.
Общий поток                              : 2098 Кбит/сек
Программа кодирования                    : VirtualDubMod 1.5.10.3 | www.virtualdub-fr.org || (build 2550/release)
Библиотека кодирования                   : VirtualDubMod build 2550/release

Видео
Идентификатор                            : 0
Формат                                   : MPEG-4 Visual
Профиль формата                          : Advanced Simple@L5
Параметр BVOP формата                    : 2
Параметр QPel формата                    : Нет
Параметр GMC формата                     : Без точки перехода
Параметр матрицы формата                 : Default (H.263)
Идентификатор кодека                     : XVID
Идентификатор кодека/Подсказка           : XviD
Продолжительность                        : 1 ч. 39 м.
Битрейт                                  : 1700 Кбит/сек
Ширина                                   : 720 пикселей
Высота                                   : 304 пикселя
Соотношение сторон                       : 2,35:1
Частота кадров                           : 25,000 кадров/сек
Цветовое пространство                    : YUV
Субдискретизация насыщенности            : 4:2:0
Битовая глубина                          : 8 бит
Тип развёртки                            : Прогрессивная
Метод сжатия                             : С потерями
Бит/(Пиксели*Кадры)                      : 0.311
Размер потока                            : 1,19 Гбайт (81%)
Библиотека кодирования                   : XviD 1.2.1 (UTC 2008-12-04)

Аудио #1
Идентификатор                            : 1
Формат                                   : MPEG Audio
Версия формата                           : Version 1
Профиль формата                          : Layer 3
Режим                                    : Joint stereo
Расширение режима                        : MS Stereo
Идентификатор кодека                     : 55
Идентификатор кодека/Подсказка           : MP3
Продолжительность                        : 1 ч. 39 м.
Вид битрейта                             : Постоянный
Битрейт                                  : 128 Кбит/сек
Каналы                                   : 2 канала
Частота                                  : 48,0 КГц
Метод сжатия                             : С потерями
Размер потока                            : 91,5 Мбайт (6%)
Выравнивание                             : Соединение по промежуткам
Продолжительность промежутка             : 40  мс. (1,00 видеокадр)
Время предзагрузки промежутка            : 504  мс.

Аудио #2
Идентификатор                            : 2
Формат                                   : AC-3
Формат/Информация                        : Audio Coding 3
Расширение режима                        : CM (complete main)
Параметр Endianness формата              : Big
Идентификатор кодека                     : 2000
Продолжительность                        : 1 ч. 39 м.
Вид битрейта                             : Постоянный
Битрейт                                  : 256 Кбит/сек
Каналы                                   : 6 каналов
Расположение каналов                     : Front: L C R, Side: L R, LFE
Частота                                  : 48,0 КГц
Битовая глубина                          : 16 бит
Метод сжатия                             : С потерями
Размер потока                            : 183 Мбайт (12%)
Выравнивание                             : Разделение по промежуткам
Продолжительность промежутка             : 40  мс. (1,00 видеокадр)
Время предзагрузки промежутка            : 500  мс.

Скриншоты:








Время раздачи: 24/7 (до 10 скачавших)
Snezhnaya.tyurma.2012.L1.HDRip.NNM-CLUB.avi.torrent
 Торрент: Платиновая раздача  Зарегистрирован
 
Скачать


Примагнититься
 Зарегистрирован:   05 Ноя 2012 17:03:10
 Размер:   1,47 GB  (
 Рейтинг:   4,7 (Голосов: 347)
 Поблагодарили:   1936
 Проверка:   Оформление проверено модератором 06 Ноя 2012 07:16:41
Как cкачать  ·  Как раздать  ·  Правильно оформить  ·  Поднять ратио!  
voron4ik1979
Стаж: 7 лет 5 мес.
Сообщений: 11
Ratio: 3,184
20.93%
GIU писал(а):
Аудио #2: AC3 256 Кбит/сек (6ch), 48,0 КГц, 16 бит [Английский]

Здесь оригинал Снежная тюрьма / Into the White (2012) [720p] BDRip Норвежский.кому верить?
Aeaktan
Стаж: 9 лет 11 мес.
Сообщений: 1
Ratio: 4,544
3.92%
рон уизли уже не тот
pasha74_74
Стаж: 10 лет 7 мес.
Сообщений: 82
Ratio: 6,584
Раздал: 360 GB
100%
Откуда: ЧУКОТКА-ПЕВЕК
somalia.gif
После скучнейшей чуши вроде "мстителей" или "вспомнить все" такие фильмы как глоток свежего воздуха. Спасибо!
Morrolan
Стаж: 10 лет 1 мес.
Сообщений: 36
Ratio: 276,373
100%
Откуда: Гондурас же
honduras.gif
voron4ik1979 писал(а): Перейти к сообщению
GIU писал(а):
Аудио #2: AC3 256 Кбит/сек (6ch), 48,0 КГц, 16 бит [Английский]

Здесь оригинал Снежная тюрьма / Into the White (2012) [720p] BDRip Норвежский.кому верить?

Немцы в начале между собой на немецком говорят, а почти весь фильм на английском, т.к. англичане немецкий не знают в нужном объеме. На норвежском там титры и пару строк пролога и эпилога.

_________________
✈ ▐ ▐
klim-411970
Стаж: 8 лет 1 мес.
Сообщений: 48
Ratio: 55,342
100%
Посмотрим, большое спасибо!
Bombardier
Стаж: 8 лет 6 мес.
Сообщений: 46
Ratio: 29,522
100%
Откуда: Ukraine
ukraine.gif
:клево:
sasha1959s
Стаж: 9 лет 8 мес.
Сообщений: 68
Ratio: 11,894
84%
Откуда: САНКТ-ПЕТЕРБУРГ
russia.gif
советую посмотреть Фильм норм Озвучка не очень Извините за почерк рука сломана)))
uralmash
Стаж: 8 лет 11 мес.
Сообщений: 44
Ratio: 2,973
100%
russia.gif
Спасибо!
cayman313
Стаж: 9 лет 4 мес.
Сообщений: 1079
Ratio: 13,608
Поблагодарили: 129
100%
ukraine.gif
Спасибо!
CURAZH
Стаж: 7 лет 7 мес.
Сообщений: 155
Ratio: 43,133
100%
Откуда: Север Столицы
russia.gif
Респект релизеру!Давно ждал с переводом пускай и с одноголосым!
urban junglist
Стаж: 8 лет 3 мес.
Сообщений: 66
Ratio: 46,284
Раздал: 14,37 TB
100%
Откуда: Tambov City
russia.gif
да, фильм не плохой...автору спасибо за релиз...
4pisma
Стаж: 9 лет 3 мес.
Сообщений: 338
Ratio: 9,952
100%
russia.gif
С самого начала кинопостановки складывается такое впечатление, что переводчик, откушав огненной водицы, хочет поспать, а сам фильм очень даже неплох. Спасибо.
because
Стаж: 9 лет 4 мес.
Сообщений: 55
Ratio: 25,627
100%
logo.gif
буду ждать достойный перевод
AlexAbyss
Стаж: 9 лет 9 мес.
Сообщений: 116
Ratio: 4,101
100%
Откуда: Западная Украина
ukraine.gif
06 Ноя 2012 14:05:29 Заголовок сообщения:
Спасибо!
Показать сообщения:   
Начать новую тему   Ответить на тему    Торрент-трекер NNM-Club -> Архив торрентов -> Архив Видео Часовой пояс: GMT + 3
Страницы:  1, 2, 3, 4, 5, 6  След.
Страница 1 из 6