Классический форум-трекер
canvas not supported
Нас вместе: 4 093 298

Пустошь / The Barrens (2012) [720p] BDRip


 
 
RSS
Начать новую тему   Ответить на тему    Торрент-трекер NNM-Club -> Архив торрентов -> Архив Видео
Автор Сообщение
SKVSM ®
Покровитель талантов
Uploader 100+
 
Стаж: 9 лет 4 мес.
Сообщений: 1083
Ratio: 297,799
Поблагодарили: 21431
100%
nnm-club.gif
Пустошь / The Barrens (2012) [720p] BDRip
Русское название: Пустошь
Оригинальное название: The Barrens
Год выпуска: 2012
Производство: США / Empire Film & Entertainment Group
Жанр: Ужасы
Перевод: Одноголосый закадровый, любительский
Озвучка / Автор перевода: den904 / Janetta
Субтитры: Вшитые отключаемые
Язык субтитров: Английский

Дата мировой премьеры: 28 сентября 2012

Режиссер: Даррен Линн Боусман
Продюсер: Ричард Саперштейн, Брайан Уиттен, Даррен Линн Боусман
Актеры: Миа Киршнер, Стивен Мойер, Эрик Кнудсен, Демор Барнс, Дж. ЛаРоуз, Александра МакДональд, Чантелл Чунг, Питер ДаКуна, Макс Топплин, Дэвид Кили

Описание фильма:
Герой фильма взяв семью в поход и не предполагал, что простая вылазка в лес с палатками и рыбацкими принадлежностями выльется в ужасные последствия. Очень скоро он понимает, что его семью преследует знаменитый Дьявол из Джерси — монстр, по слухам обитающий в местечке Pine Barrens, что расположено на юге Нью Джерси.



Продолжительность: 01:33:56
Качество видео: BDRip 720p

Видеокодек: MPEG-4 AVC/H.264
Битрейт видео: ~4356 Кбит/с
Размер кадра: 1280 x 720
Битрейт аудио:
#1: AC3, 6 ch, 384 Кбит/с (Русский)
#2: AC3, 6 ch, 640 Кбит/с (Английский)

Сэмпл: Скачать
General
Unique ID : 236875369925827973960112573281933959899 (0xB234896BE87369C59A59A7DE30FFA2DB)
Complete name : D:\Temp\The.Barrens.(2012).[720].BDRip.mkv
Format : Matroska
Format version : Version 2
File size : 3.53 GiB
Duration : 1h 33mn
Overall bit rate : 5 379 Kbps
Encoded date : UTC 2012-11-06 19:51:16
Writing application : mkvmerge v3.3.0 ('Language') built on Mar 24 2010 14:59:24
Writing library : libebml v0.8.0 + libmatroska v0.9.0

Video
ID : 1
Format : AVC
Format/Info : Advanced Video Codec
Format profile : High@L4.1
Format settings, CABAC : Yes
Format settings, ReFrames : 5 frames
Codec ID : V_MPEG4/ISO/AVC
Duration : 1h 33mn
Bit rate : 4 356 Kbps
Width : 1 280 pixels
Height : 720 pixels
Display aspect ratio : 16:9
Frame rate : 23.976 fps
Color space : YUV
Chroma subsampling : 4:2:0
Bit depth : 8 bits
Scan type : Progressive
Bits/(Pixel*Frame) : 0.197
Stream size : 2.79 GiB (79%)
Writing library : x264 core 128 r2216 198a7ea
Encoding settings : cabac=1 / ref=5 / deblock=1:0:0 / analyse=0x3:0x133 / me=umh / subme=7 / psy=1 / psy_rd=1.00:0.00 / mixed_ref=1 / me_range=16 / chroma_me=1 / trellis=1 / 8x8dct=1 / cqm=0 / deadzone=21,11 / fast_pskip=0 / chroma_qp_offset=-2 / threads=12 / lookahead_threads=2 / sliced_threads=0 / nr=0 / decimate=1 / interlaced=0 / bluray_compat=0 / constrained_intra=0 / bframes=3 / b_pyramid=2 / b_adapt=1 / b_bias=0 / direct=1 / weightb=1 / open_gop=0 / weightp=2 / keyint=240 / keyint_min=23 / scenecut=40 / intra_refresh=0 / rc_lookahead=40 / rc=2pass / mbtree=1 / bitrate=4356 / ratetol=1.0 / qcomp=0.60 / qpmin=0 / qpmax=69 / qpstep=4 / cplxblur=20.0 / qblur=0.5 / ip_ratio=1.40 / aq=1:1.00
Language : English
Default : No
Forced : No

Audio #1
ID : 2
Format : AC-3
Format/Info : Audio Coding 3
Mode extension : CM (complete main)
Format settings, Endianness : Big
Codec ID : A_AC3
Duration : 1h 33mn
Bit rate mode : Constant
Bit rate : 384 Kbps
Channel(s) : 6 channels
Channel positions : Front: L C R, Side: L R, LFE
Sampling rate : 48.0 KHz
Bit depth : 16 bits
Compression mode : Lossy
Stream size : 258 MiB (7%)
Language : Russian
Default : Yes
Forced : No

Audio #2
ID : 3
Format : AC-3
Format/Info : Audio Coding 3
Mode extension : CM (complete main)
Format settings, Endianness : Big
Codec ID : A_AC3
Duration : 1h 33mn
Bit rate mode : Constant
Bit rate : 640 Kbps
Channel(s) : 6 channels
Channel positions : Front: L C R, Side: L R, LFE
Sampling rate : 48.0 KHz
Bit depth : 16 bits
Compression mode : Lossy
Stream size : 430 MiB (12%)
Language : English
Default : No
Forced : No

Text
ID : 4
Format : UTF-8
Codec ID : S_TEXT/UTF8
Codec ID/Info : UTF-8 Plain Text
Language : English
Default : No
Forced : No
Скриншоты:





Время раздачи: 24/7 - круглосуточно
[NNM-Club.ru]_The.Barrens.(2012).[720].BDRip.mkv.torrent
 Торрент: Золотая раздача  Зарегистрирован
 
Зарегистрируйтесь и скачайте торрент!
17,9 KB

 Зарегистрирован:   06 Ноя 2012 23:22:41
 Размер:   3,53 GB  (
 Рейтинг:   4,4 (Голосов: 40)
 Поблагодарили:   197
 Проверка:   Оформление проверено модератором 07 Ноя 2012 13:37:10
Как cкачать  ·  Как раздать  ·  Правильно оформить  ·  Поднять ратио!  
hitman59
Стаж: 13 лет 4 мес.
Сообщений: 271
Ratio: 7,932
Поблагодарили: 29
1.67%
wild_hogs.gif
Неожиданно нормальный ужастик с непредсказуемым концом...
uragan0
Стаж: 8 лет
Сообщений: 43
Ratio: 4,542
100%
Цитата:
Неожиданно нормальный ужастик с непредсказуемым концом...

Так это ж Боусман - фанат "Пилы".
Mixmasterr
Стаж: 8 лет 11 мес.
Сообщений: 11
Ratio: 8,517
100%
hitman59 писал(а): Перейти к сообщению
Неожиданно нормальный ужастик с непредсказуемым концом...


Это сарказм или действительно можно посмотреть?
Solo-solo
Стаж: 10 лет 3 мес.
Сообщений: 516
Ratio: 1,871
100%
russia.gif
Этому переводчику только в туалете кричать-занято!
hitman59
Стаж: 13 лет 4 мес.
Сообщений: 271
Ratio: 7,932
Поблагодарили: 29
1.67%
wild_hogs.gif
Mixmasterr писал(а): Перейти к сообщению
hitman59 писал(а): Перейти к сообщению
Неожиданно нормальный ужастик с непредсказуемым концом...


Это сарказм или действительно можно посмотреть?


Я смотрел только из-за актера исполнявшего главную роль в True Blood, так бы и качать не стал, в общем смотреть можно, сделано удовлетворительно(сказал бы хорошо, если бы не какие то кишки ну совсем не натуральные, хотя и я натуральные то ни разу не видел, в общем хрен их знает))), слегка затянуто и не ново, но на один раз вполне сойдет.
hashtrik
Стаж: 9 лет
Сообщений: 143
Ratio: 24,602
18.13%
Откуда: V.Novgorod
russia.gif
Solo-solo писал(а): Перейти к сообщению
Этому переводчику только в туалете кричать-занято!


перевод нормальный и фильмец по накуру ничего так☺)

_________________
*все орфографические ошибки,сделаны со смыслом)
samantasweety
Стаж: 10 лет 10 мес.
Сообщений: 1529
Ratio: 56,963
Поблагодарили: 31
100%
Откуда: наша раша
ussr.gif
нормальный фильм!
но мужик придурашный
Топик был перенесен из форума Зарубежные Фильмы (HD, UHD-LQ) в форум Архив Видео



Исправил релиз - напиши ЛС karfagen1975, дав ссылку на релиз.
Если нет ответа 24 часа - нажми на кнопку "Обратить внимание модераторов".
Показать сообщения:   
Начать новую тему   Ответить на тему    Торрент-трекер NNM-Club -> Архив торрентов -> Архив Видео Часовой пояс: GMT + 3
Страница 1 из 1