Классический форум-трекер
canvas not supported
Нас вместе: 4 077 895

28 недель спустя / 28 Weeks Later (2007) [H.264/1080p-LQ] BDRip


 
 
RSS
Начать новую тему   Ответить на тему    Торрент-трекер NNM-Club -> Зарубежное кино -> Зарубежные Фильмы (HD*Rip/LQ, DVDRip, SATRip, VHSRip)
Автор Сообщение
Loko73loko ®
Стаж: 8 лет 9 мес.
Сообщений: 335
Ratio: 24,394
Поблагодарили: 10811
100%
Откуда: Мистик фолс
russia.gif
28 недель спустя / 28 Weeks Later (2007) 1080p BDRip
Русское название: 28 недель спустя
Оригинальное название: 28 Weeks Later
Год выпуска: 2007
Жанр: Ужасы, Триллер, Фантастика

Описание фильма:
Действие фильма происходит спустя шесть месяцев после того, как вирус ярости опустошил Лондон. Армия США восстановила порядок и заселяет город, который находился под карантином…

Режиссер: Хуан Карлос Фреснадильо
Актеры: Роберт Карлайл, Катрин МакКормак, Роуз Бирн, Джереми Реннер, Хэролд Перрино, Идрис Эльба, Имоджен Путс, Макинтош Магглтон, Аманда Уокер, Шахид Ахмед

Продолжительность: 01:40:06
Перевод: Дублированный



Видеокодек: MPEG-4 AVC/H.264
Битрейт видео: ~5868 kbps
Размер кадра: 1920x1040
Качество видео: BDRip
Аудиокодек: AC3 5.1
Битрейт аудио: 384 kbps
Уникальный идентификатор : 251427545109014703920075160047575898133 (0xBD272F0D50AAC7B99B1BEAA7FFD01815)
Полное имя : E:\Фильмы\28.Weeks.Later.2007.BDRip.1080p.Rus.mkv
Формат : Matroska
Версия формата : Version 2
Размер файла : 4,37 Гбайт
Продолжительность : 1 ч. 40 м.
Общий поток : 6243 Кбит/сек
Дата кодирования : UTC 2011-03-07 09:36:16
Программа кодирования : mkvmerge v4.0.0 ('The Stars were mine') сборка от Jun 6 2010 16:18:42
Библиотека кодирования : libebml v1.0.0 + libmatroska v1.0.0

Видео
Идентификатор : 1
Формат : AVC
Формат/Информация : Advanced Video Codec
Профиль формата : High@L4.0
Параметр CABAC формата : Да
Параметр ReFrames формата : 3 кадра
Идентификатор кодека : V_MPEG4/ISO/AVC
Продолжительность : 1 ч. 40 м.
Битрейт : 5868 Кбит/сек
Ширина : 1920 пикселей
Высота : 1040 пикселей
Соотношение сторон : 1,85:1
Режим частоты кадров : Переменный
Частота кадров : 23,976 кадра/сек
Цветовое пространство : YUV
Субдискретизация насыщенности : 4:2:0
Битовая глубина : 8 бит
Тип развёртки : Прогрессивная
Бит/(Пиксели*Кадры) : 0.123
Размер потока : 4,01 Гбайт (92%)
Библиотека кодирования : x264 core 112
Настройки программы : cabac=1 / ref=4 / deblock=1:0:0 / analyse=0x3:0x133 / me=umh / subme=10 / psy=1 / psy_rd=1.00:0.10 / mixed_ref=1 / me_range=24 / chroma_me=1 / trellis=2 / 8x8dct=1 / cqm=0 / deadzone=21,11 / fast_pskip=0 / chroma_qp_offset=-3 / threads=12 / sliced_threads=0 / nr=0 / decimate=1 / interlaced=0 / constrained_intra=0 / bframes=5 / b_pyramid=1 / b_adapt=2 / b_bias=0 / direct=3 / weightb=1 / open_gop=0 / weightp=2 / keyint=240 / keyint_min=23 / scenecut=40 / intra_refresh=0 / rc_lookahead=60 / rc=2pass / mbtree=1 / bitrate=5868 / ratetol=1.0 / qcomp=0.80 / qpmin=3 / qpmax=51 / qpstep=4 / cplxblur=20.0 / qblur=0.5 / ip_ratio=1.40 / aq=1:1.00
Язык : English
Default : Да
Forced : Нет
Основные цвета : BT.709-5, BT.1361, IEC 61966-2-4, SMPTE RP177
Характеристики трансфера : BT.709-5, BT.1361
Коэффициенты матрицы : BT.709-5, BT.1361, IEC 61966-2-4 709, SMPTE RP177

Аудио
Идентификатор : 2
Формат : AC-3
Формат/Информация : Audio Coding 3
Расширение режима : CM (complete main)
Параметр Endianness формата : Big
Идентификатор кодека : A_AC3
Продолжительность : 1 ч. 40 м.
Вид битрейта : Постоянный
Битрейт : 384 Кбит/сек
Каналы : 6 каналов
Расположение каналов : Front: L C R, Side: L R, LFE
Частота : 48,0 КГц
Битовая глубина : 16 бит
Метод сжатия : С потерями
Размер потока : 275 Мбайт (6%)
Язык : Russian
Default : Да
Forced : Нет
Скриншоты:


Время раздачи: 14:00 до 00:00
[NNM-Club.ru]_28.Weeks.Later.2007.BDRip.1080p.Rus.mkv.torrent
 Торрент: Платиновая раздача  Зарегистрирован
 
Скачать


 Зарегистрирован:   12 Ноя 2012 22:23:25
 Размер:   4,37 GB  (
 Рейтинг:   4,5 (Голосов: 46)
 Поблагодарили:   150
 Проверка:   Оформление проверено модератором 14 Ноя 2012 21:13:53
Как cкачать  ·  Как раздать  ·  Правильно оформить  ·  Поднять ратио!  
Zard48ru
Стаж: 7 лет 6 мес.
Сообщений: 45
Ratio: 2,019
Поблагодарили: 2097
100%
Откуда: Орден Экзорцистов
roody.gif
как зовут актёра который играл снайпера?
P.S в ЛС пожалуйста.
XoLoop
Стаж: 11 лет 8 мес.
Сообщений: 88
Ratio: 15,613
100%
russia.gif
Скооооорооостииии
Показать сообщения:   
Начать новую тему   Ответить на тему    Торрент-трекер NNM-Club -> Зарубежное кино -> Зарубежные Фильмы (HD*Rip/LQ, DVDRip, SATRip, VHSRip) Часовой пояс: GMT + 3
Страница 1 из 1