Классический форум-трекер
canvas not supported
Нас вместе: 4 084 246
Платим за отзывы

Полярные медведи / Polar Bears: A Summer Odyssey (2012) BDRip [720p]


 
 
RSS
Начать новую тему   Ответить на тему    Торрент-трекер NNM-Club -> Документалистика и Телепередачи -> Живая природа
Автор Сообщение
Blesslex ®
Стаж: 8 лет 5 мес.
Сообщений: 2056
Раздал: 0
Поблагодарили: 91214
100%
Откуда: Севастополь
russia.gif
Полярные медведи / Polar Bears: A Summer Odyssey (2012)

Русское название: Полярные медведи
Оригинальное название: Polar Bears: A Summer Odyssey
Режиссер / Телекомпания: Universal Arcadia Entertainment Inc., Canada
Год выпуска: 2012
Жанр: Документальный, семейный, научно-познавательный, природа, фауна

Режиссер: Сара Робертсон

Описание:
Белый медведь - необычный и захватывающий взгляд на их изменчивый мир. Создатели захватывающего шедевра провели больше года в Канадской Арктике, чтобы запечатлеть редчайшие моменты из жизни хищников.



Продолжительность: 00:50:05

Перевод: Дублированный

Качество видео: BDRip [720p]
Видео: MPEG-4 AVC, 7999 Кбит/с, 1280x720
Аудио #1: Русский AC3, 6 ch, 448 Кбит/с
Аудио #2: Английский DTS, 6 ch, 1510 Кбит/с
Субтитры: Русские, английские, китайские
D:\Polar.Bears.A.Summer.Odyssey.2012.720p.BDRip.AVC.mkv
General
Unique ID : 244167233768036716367050785162495384679 (0xB7B0E610E396EA26BB246EEA9641DC67)
Complete name : D:\Polar.Bears.A.Summer.Odyssey.2012.720p.BDRip.AVC.mkv
Format : Matroska
File size : 3.68 GiB
Duration : 50mn 5s
Overall bit rate : 10.5 Mbps
Encoded date : UTC 2010-02-22 21:41:31
Writing application : mkvmerge v5.9.0 ('On The Loose') built on Dec 9 2012 15:37:01
Writing library : libebml v1.3.0 + libmatroska v1.4.0
Video #1
ID : 1
Format : AVC
Format/Info : Advanced Video Codec
Format profile : High@L4.1
Format settings, CABAC : Yes
Format settings, ReFrames : 8 frames
Codec ID : V_MPEG4/ISO/AVC
Duration : 50mn 5s
Bit rate : 7 999 Kbps
Width : 1 280 pixels
Height : 720 pixels
Display aspect ratio : 16:9
Frame rate : 23.976 fps
Color space : YUV
Chroma subsampling : 4:2:0
Bit depth : 8 bits
Scan type : Progressive
Bits/(Pixel*Frame) : 0.362
Stream size : 2.73 GiB (74%)
Writing library : x264 core 129 r2230 1cffe9f
Encoding settings : cabac=1 / ref=8 / deblock=1:-1:-1 / analyse=0x3:0x133 / me=esa / subme=9 / psy=1 / psy_rd=1.00:0.00 / mixed_ref=1 / me_range=16 / chroma_me=1 / trellis=2 / 8x8dct=1 / cqm=0 / deadzone=21,11 / fast_pskip=1 / chroma_qp_offset=-2 / threads=6 / lookahead_threads=1 / sliced_threads=0 / nr=0 / decimate=1 / interlaced=0 / bluray_compat=0 / constrained_intra=0 / bframes=10 / b_pyramid=2 / b_adapt=2 / b_bias=0 / direct=3 / weightb=1 / open_gop=0 / weightp=2 / keyint=240 / keyint_min=23 / scenecut=40 / intra_refresh=0 / rc_lookahead=40 / rc=2pass / mbtree=1 / bitrate=7999 / ratetol=1.0 / qcomp=0.60 / qpmin=10 / qpmax=51 / qpstep=4 / cplxblur=20.0 / qblur=0.5 / ip_ratio=1.40 / aq=1:1.00
Language : English
Audio #2
ID : 2
Format : AC-3
Format/Info : Audio Coding 3
Mode extension : CM (complete main)
Codec ID : A_AC3
Duration : 50mn 5s
Bit rate mode : Constant
Bit rate : 448 Kbps
Channel(s) : 6 channels
Channel positions : Front: L C R, Side: L R, LFE
Sampling rate : 48.0 KHz
Bit depth : 16 bits
Compression mode : Lossy
Stream size : 161 MiB (4%)
Title : Одноголосый
Language : Russian
Audio #3
ID : 3
Format : DTS
Format/Info : Digital Theater Systems
Format profile : HRA / Core
Codec ID : A_DTS
Duration : 50mn 5s
Bit rate mode : Constant
Bit rate : 2 047 Kbps / 1 510 Kbps
Channel(s) : 6 channels
Channel positions : Front: L C R, Side: L R, LFE
Sampling rate : 48.0 KHz
Bit depth : 16 bits
Compression mode : Lossy
Stream size : 733 MiB (19%)
Title : DTS Core 5.1 @ 1536 kbps
Language : English
Text #4
ID : 4
Format : PGS
Muxing mode : zlib
Codec ID : S_HDMV/PGS
Codec ID/Info : The same subtitle format used on BDs/HD-DVDs
Language : Russian
Text #5
ID : 5
Format : PGS
Muxing mode : zlib
Codec ID : S_HDMV/PGS
Codec ID/Info : The same subtitle format used on BDs/HD-DVDs
Language : English
Text #6
ID : 6
Format : PGS
Muxing mode : zlib
Codec ID : S_HDMV/PGS
Codec ID/Info : The same subtitle format used on BDs/HD-DVDs
Language : Chinese
Полярные медведи / Polar Bears: A Summer Odyssey (2012) Blu-Ray [3D/2D]

Скриншоты:


Время раздачи: С 08:00 до 22:00

Не забывайте Благодарить, это стимулирует на новые релизы!
[NNM-Club.ru]_Polar.Bears.A.Summer.Odyssey.2012.720p.BDRip.AVC.torrent
 Торрент: Золотая раздача  Зарегистрирован
 
Зарегистрируйтесь и скачайте торрент!
19 KB

Примагнититься
 Зарегистрирован:   26 Дек 2012 11:18:59
 Размер:   3,68 GB  (
 Рейтинг:   5 (Голосов: 21)
 Поблагодарили:   71
 Проверка:   Оформление проверено модератором 26 Дек 2012 16:36:23
Как cкачать  ·  Как раздать  ·  Правильно оформить  ·  Поднять ратио!  
Loading...
m()narch
 
Стаж: 9 лет 7 мес.
Сообщений: 95
Ratio: 11,659
100%
russia.gif
Спасибо.
Покажу детенышу.
neojr
Стаж: 8 лет 7 мес.
Сообщений: 16
Ratio: 5,446
Поблагодарили: 266
1.3%
russia.gif
Перевод: Дублированный или все таки Профессиональный (одноголосый) ?
sasha_s.m
Стаж: 10 лет 10 мес.
Сообщений: 302
Ratio: 6,069
100%
Откуда: Киев
ukraine.gif
А разве тут должно быть не 2 серии?
Показать сообщения:   
Начать новую тему   Ответить на тему    Торрент-трекер NNM-Club -> Документалистика и Телепередачи -> Живая природа Часовой пояс: GMT + 3
Страница 1 из 1