Классический форум-трекер
canvas not supported
Нас вместе: 4 077 133

Black Veil Brides - Legion Of The Black (2012) [H.264/1080p-LQ] WEBRip


 
 
RSS
Начать новую тему   Ответить на тему    Торрент-трекер NNM-Club -> Театр и Музыкальное видео -> Музыкальные клипы
Автор Сообщение
Fire Avatar ®
Стаж: 11 лет
Сообщений: 35
Ratio: 13,7
Раздал: 2,648 TB
Поблагодарили: 1351
100%
Откуда: Из Западного Храма Воздуха
ukraine.gif
Black Veil Brides - Legion Of The Black (2012) [H.264/1080p-LQ] WEBRip
Год выпуска: 2012
Жанр: Glam-Metal
Язык: Английский

Режиссер: Патрик Фогарти
В ролях: Энди Бирсак, Джордж Кэнадай, Кристина Кома, Джон Хэниганн, Джинксс, Рой ЛяФевр, Энн МакДаниелс, Джейк Питтс, Эшли Пёрди и др.

Описание фильма:
Музыкальный фильм с композициями из нового альбома Wretched and Divine: The Story of the Wild Ones. Достойная работа, мне лично понравилось. Жаль что скорее всего из-за фильма не будет клипов.


Дата выхода DVD релиза: 21 декабря 2012

Видеокодек: MPEG-4 AVC/H.264
Продолжительность: 00:45:33
Битрейт видео: ~2 449 kb/s
Размер кадра: 1920 x 808
Качество видео: WEBRip
Аудиокодек: AAC, 2 ch.
Битрейт аудио: 192 kb/s VBR
Треклист:
01. Wretched and Divine
02. I Am Bulletproof
03. Lost it All
04. New Year's Day
05. Days Are Numbered
06. Resurrect The Sun
07. Shadows Die
08. Done For You
09. In The End
General
Complete name : D:\Downloads\Видео\Black Veil Brides - Legion of the Black.mp4
Format : MPEG-4
Format profile : Base Media / Version 2
Codec ID : mp42
File size : 861 MiB
Duration : 45mn 32s
Overall bit rate mode : Variable
Overall bit rate : 2 643 Kbps
Encoded date : UTC 2013-01-07 17:35:59
Tagged date : UTC 2013-01-07 17:35:59
gsst : 0
gstd : 2734101
gssd : BADC23AA2HH1357747879720088
gshh : r2---sn-n8v7lnee.c.youtube.com

Video
ID : 1
Format : AVC
Format/Info : Advanced Video Codec
Format profile : High@L4.0
Format settings, CABAC : Yes
Format settings, ReFrames : 1 frame
Format settings, GOP : M=1, N=50
Codec ID : avc1
Codec ID/Info : Advanced Video Coding
Duration : 45mn 32s
Bit rate : 2 449 Kbps
Maximum bit rate : 9 807 Kbps
Width : 1 920 pixels
Height : 808 pixels
Display aspect ratio : 2.40:1
Frame rate mode : Constant
Frame rate : 25.000 fps
Color space : YUV
Chroma subsampling : 4:2:0
Bit depth : 8 bits
Scan type : Progressive
Bits/(Pixel*Frame) : 0.063
Stream size : 798 MiB (93%)
Tagged date : UTC 2013-01-07 17:37:22

Audio
ID : 2
Format : AAC
Format/Info : Advanced Audio Codec
Format profile : LC
Codec ID : 40
Duration : 45mn 32s
Bit rate mode : Variable
Bit rate : 192 Kbps
Maximum bit rate : 202 Kbps
Channel(s) : 2 channels
Channel positions : Front: L R
Sampling rate : 44.1 KHz
Compression mode : Lossy
Stream size : 62.5 MiB (7%)
Title : IsoMedia File Produced by Google, 5-11-2011
Encoded date : UTC 2013-01-07 17:36:45
Tagged date : UTC 2013-01-07 17:37:22
Скриншоты:


Время раздачи: почти 24/7
[NNM-Club.ru]_Black Veil Brides - Legion of the Black.mp4.torrent
 Торрент: Платиновая раздача  Зарегистрирован
 
Скачать


Примагнититься
 Зарегистрирован:   11 Янв 2013 17:19:02
 Размер:   861 MB  (
 Рейтинг:   4,6 (Голосов: 26)
 Поблагодарили:   54
 Проверка:   Оформление проверено модератором 11 Янв 2013 21:24:34
Как cкачать  ·  Как раздать  ·  Правильно оформить  ·  Поднять ратио!  
ufo.driver
Стаж: 8 лет 6 мес.
Сообщений: 2
Ratio: 2,088
9.21%
Вот и настал момент проверки знаний анлг. языка :D
kpectig
Стаж: 9 лет
Сообщений: 11
Ratio: 11,072
0%
Качаю, спасибо! А насчет клипов, я думаю все же сделают на заглавную песню. Так как в фильме она звучала только в титрах.
nitelam
Стаж: 8 лет 9 мес.
Сообщений: 88
Ratio: 5,605
69.4%
качаю =) музыка и клипы понравились :P
loraxina
Стаж: 3 года 8 мес.
Сообщений: 8
Ratio: 1,979
82.07%
russia.gif
дайте скорости!! не одного пира((((
loraxina
Стаж: 3 года 8 мес.
Сообщений: 8
Ratio: 1,979
82.07%
russia.gif
дайте скорости!!
Показать сообщения:   
Начать новую тему   Ответить на тему    Торрент-трекер NNM-Club -> Театр и Музыкальное видео -> Музыкальные клипы Часовой пояс: GMT + 3
Страница 1 из 1