Классический форум-трекер
canvas not supported
Нас вместе: 4 125 725

Легкое поведение / Easy Virtue (2008) BDRip


 
 
RSS
Начать новую тему   Ответить на тему    Торрент-трекер NNM-Club -> Зарубежное кино -> Зарубежные Фильмы (HD*Rip/LQ, DVDRip, SATRip, VHSRip)
Автор Сообщение
maygliua ®
Стаж: 9 лет 5 мес.
Сообщений: 675
Ratio: 3467,423
Поблагодарили: 99989
100%
Откуда: Kiev
ukraine.gif
Легкое поведение / Easy Virtue (2008) BDRip
«Давайте вести себя плохо!»
Русское название: Легкое поведение
Оригинальное название: Easy Virtue
Год выпуска: 2008
Жанр: Комедия, Мелодрама

Описание фильма:
Молодой англичанин Джон Уитэкер страстно влюбляется в сексуальную американку Лариту. Бурный роман, горячие простыни, скорый брак и нежный медовый месяц с романтическими коктейлями на побережье… Но, выходя замуж, Ларита даже в страшном сне не могла себе представить, какое будущее ее ждет. Оказавшись в классическом чопорном английском доме, избалованной красотке приходится выдержать смертельную схватку… со свекровью, которая ну никак не может мириться с легким поведением своей невестки.

Режиссер: Стефан Эллиотт
Актеры: Джессика Бил, Бен Барнс, Кристин Скотт Томас, Колин Фёрт, Кимберли Никсон, Кэтерин Паркинсон, Крис Маршалл, Кристиан Брассингтон, Шарлотта Райли, Джим МакМанус

Продолжительность: 01:36:50
Перевод: Дубляж + Профессиональный (многоголосый закадровый) - (Украинский - "Tretyakoff Production")



Дата мировой премьеры: 8 сентября 2008
Дата российской премьеры: 2 апреля 2009
Дата выхода DVD релиза: 21 мая 2009

Видеокодек: Xvid
Битрейт видео: ~1982
Размер кадра: 720х304
Качество видео: BDRip
Аудио#1: 48 kHz, AC3 5.1, 448.00 kbps / Дубляж
Аудио#2: 48 kHz, AC3 2.0, 192.00 kbps / Профессиональный (многоголосый закадровый) - (Украинский - "Tretyakoff Production")
Аудио#3: 48 kHz, AC3 5.1, 384.00 kbps / Оригинал (Английский)
&
Общее
Полное имя : E:\Фильмы М\Easy Virtue.2008.BDRip.Rus.Ukr.Eng.avi
Формат : AVI
Формат/Информация : Audio Video Interleave
Профиль формата : OpenDML
Размер файла : 2,05 Гбайт
Продолжительность : 1 ч. 36 м.
Общий поток : 3031 Кбит/сек
Программа кодирования : VirtualDubModRus 1.5.10.2 (build 2542/release)
Библиотека кодирования : VirtualDubMod build 2542/release

Видео
Идентификатор : 0
Формат : MPEG-4 Visual
Профиль формата : Advanced Simple@L5
Параметр BVOP формата : 1
Параметр QPel формата : Нет
Параметр GMC формата : Без точки перехода
Параметр матрицы формата : Выборочная
Режим смешивания : Сжатый битовый поток
Идентификатор кодека : XVID
Идентификатор кодека/Подсказка : XviD
Продолжительность : 1 ч. 36 м.
Битрейт : 1982 Кбит/сек
Ширина : 720 пикселей
Высота : 304 пикселя
Соотношение сторон : 2,35:1
Частота кадров : 24,000 кадра/сек
Цветовое пространство : YUV
Субдискретизация насыщенности : 4:2:0
Битовая глубина : 8 бит
Тип развёртки : Прогрессивная
Метод сжатия : С потерями
Бит/(Пиксели*Кадры) : 0.377
Размер потока : 1,34 Гбайт (65%)
Библиотека кодирования : XviD 65

Аудио #1
Идентификатор : 1
Формат : AC-3
Формат/Информация : Audio Coding 3
Расширение режима : CM (complete main)
Параметр Endianness формата : Big
Идентификатор кодека : 2000
Продолжительность : 1 ч. 36 м.
Вид битрейта : Постоянный
Битрейт : 448 Кбит/сек
Каналы : 6 каналов
Расположение каналов : Front: L C R, Side: L R, LFE
Частота : 48,0 КГц
Битовая глубина : 16 бит
Метод сжатия : С потерями
Размер потока : 310 Мбайт (15%)
Выравнивание : Разделение по промежуткам
Продолжительность промежутка : 42 мс. (1,00 видеокадр)
Время предзагрузки промежутка : 500 мс.
Заголовок : Дубляж

Аудио #2
Идентификатор : 2
Формат : AC-3
Формат/Информация : Audio Coding 3
Расширение режима : CM (complete main)
Параметр Endianness формата : Big
Идентификатор кодека : 2000
Продолжительность : 1 ч. 36 м.
Вид битрейта : Постоянный
Битрейт : 192 Кбит/сек
Каналы : 2 канала
Расположение каналов : Front: L R
Частота : 48,0 КГц
Битовая глубина : 16 бит
Метод сжатия : С потерями
Размер потока : 133 Мбайт (6%)
Выравнивание : Разделение по промежуткам
Продолжительность промежутка : 42 мс. (1,00 видеокадр)
Время предзагрузки промежутка : 500 мс.
Заголовок : Профессиональный (многоголосый закадровый) - (Украинский - "Tretyakoff Production")

Аудио #3
Идентификатор : 3
Формат : AC-3
Формат/Информация : Audio Coding 3
Расширение режима : CM (complete main)
Параметр Endianness формата : Big
Идентификатор кодека : 2000
Продолжительность : 1 ч. 36 м.
Вид битрейта : Постоянный
Битрейт : 384 Кбит/сек
Каналы : 6 каналов
Расположение каналов : Front: L C R, Side: L R, LFE
Частота : 48,0 КГц
Битовая глубина : 16 бит
Метод сжатия : С потерями
Размер потока : 266 Мбайт (13%)
Выравнивание : Разделение по промежуткам
Продолжительность промежутка : 42 мс. (1,00 видеокадр)
Время предзагрузки промежутка : 500 мс.
Заголовок : Оригинал (Английский)
Скриншоты:


Время раздачи: С 22:30 до 6:10
[NNM-Club.ru]_Easy_Virtue.2008.BDRip.Rus.Ukr.Eng.torrent
 Торрент: Платиновая раздача  Зарегистрирован
 
Скачать


Примагнититься
 Зарегистрирован:   18 Янв 2013 00:50:49
 Размер:   2,05 GB  (
 Рейтинг:   4,9 (Голосов: 75)
 Поблагодарили:   334
 Проверка:   Оформление проверено модератором 18 Янв 2013 12:22:34
Как cкачать  ·  Как раздать  ·  Правильно оформить  ·  Поднять ратио!  
genvol
Стаж: 9 лет 3 мес.
Сообщений: 654
Ratio: 0,45
100%
Откуда: Vilnius
lithuania.gif
:поцелуй: :пока: Хороший фильм! :цветок:
Wander000​1111124​
Стаж: 13 лет 5 мес.
Сообщений: 9
Ratio: 39,121
13.91%
russia.gif
Замечательный фильм!
Martovsky88
 
Стаж: 4 года 9 мес.
Сообщений: 48
Ratio: 44,356
100%
ussr.gif
Wander0001111124 писал(а): Перейти к сообщению
Замечательный фильм!

Согласен полностью :да:

Добавить больше не́чего.
Показать сообщения:   
Начать новую тему   Ответить на тему    Торрент-трекер NNM-Club -> Зарубежное кино -> Зарубежные Фильмы (HD*Rip/LQ, DVDRip, SATRip, VHSRip) Часовой пояс: GMT + 3
Страница 1 из 1